#TITLE:Lips of an Angel;
#ARTIST:JET ROCKERS;
#BANNER:Lips of an Angel.png;
#BACKGROUND:Lips of an Angel-bg.png;
#CDTITLE:./CDTITLES/Dance Dance Revolution HOTTEST PARTY.png;
#MUSIC:Lips of an Angel.ogg;
#SAMPLESTART:60.648;
#SAMPLELENGTH:15;
#DISPLAYBPM:140;
#BPMS:0=139.78,8=140;

//---------------dance-single - ----------------
#NOTES:
     dance-single:
     :
     Beginner:
     1:
     :
0000
0000
0000
0000
,
0000
0000
0000
0000
,
0000
0000
0000
0000
,
0000
0000
0000
0000
,
0001
0000
0001
0000
,
0100
0000
0000
0000
,
1000
0000
1000
0000
,
0100
0000
0000
0000
,
0001
0000
0001
0000
,
0010
0000
0000
0000
,
0100
0000
0100
0000
,
1000
0000
0001
0000
,
1001
0000
0001
0000
,
1000
0000
0100
0100
,
0000
0100
0000
1000
,
0000
0010
0000
0100
,
0100
0000
0001
0000
,
1000
0000
0001
0002
,
0000
0000
0003
0000
,
0000
1000
0000
0001
,
0000
0000
0100
0100
,
0000
0010
0000
1000
,
0000
0001
0000
0002
,
0000
0000
0003
0000
,
0000
0010
0000
0010
,
0000
0100
0000
0200
,
0000
0000
0300
0000
,
1000
0000
0001
0000
,
0000
0001
0000
0001
,
0000
1000
0000
1000
,
0000
0001
0000
0001
,
0000
0100
0000
0100
,
0000
0000
1000
0000
,
1000
0000
0001
0000
,
0001
0000
1000
0000
,
1001
0000
0000
0000
,
0010
0000
0100
0000
,
1000
0000
1000
0000
,
0001
0000
1000
0000
,
0001
0000
0000
0000
,
0001
0000
1000
0000
,
0010
0000
0010
0000
,
0010
0000
0100
0000
,
0010
0000
0000
0000
,
0002
0000
0000
0003
,
0000
0000
0000
0000
,
2000
0000
0000
3000
,
0000
0000
0000
0000
,
1000
1000
0000
0001
,
0000
1000
0000
0001
,
0001
0000
0100
0000
,
0100
0000
0100
0000
,
0010
0000
2000
0000
,
0000
3000
0000
0000
,
0001
0000
0001
0000
,
1000
0000
0100
0000
,
1000
0000
0000
0000
,
0001
0000
0100
0000
,
0001
0000
1000
0000
,
0000
0000
0000
1000
;

//---------------dance-single - ----------------
#NOTES:
     dance-single:
     :
     Easy:
     2:
     :
0000
0000
0000
0000
,
0000
0000
0000
0000
,
0000
0000
0000
0000
,
0000
0000
0000
0000
,
2000
3000
0010
0000
,
0100
0000
0000
0000
,
0002
0003
0100
0000
,
0010
0000
0000
0000
,
2000
3000
0001
0000
,
0100
0000
0000
0000
,
0200
0300
0001
0000
,
0010
0000
0000
0000
,
0000
0000
0000
0000
,
0001
0001
1000
1000
,
0000
0020
0030
0200
,
0300
0000
0000
0000
,
0000
0000
0000
0000
,
1000
1000
0001
0002
,
0003
0000
0000
0000
,
0000
0000
0000
0000
,
0000
0000
0000
0000
,
0001
0001
1000
1000
,
0000
0100
0010
0020
,
0030
0000
0000
0000
,
0000
0000
0000
0000
,
0100
0100
1000
0002
,
0000
0000
0000
0003
,
0000
0000
0000
0000
,
0000
0001
0010
0001
,
0000
1000
0100
1000
,
0000
0010
1000
0010
,
1000
0010
1000
0010
,
0000
0000
0000
0100
,
0000
0000
0000
0100
,
0100
0000
0010
0001
,
2002
0000
3003
0000
,
0000
0000
0000
0000
,
1000
0001
1000
0000
,
0001
0000
0010
0000
,
0100
0000
1000
0000
,
0000
0000
0000
0000
,
1000
0001
1000
0000
,
0100
0000
0010
0000
,
0001
0000
1000
1000
,
2000
0000
3000
0010
,
0100
0000
0001
0000
,
2000
0000
3000
0001
,
0001
0000
0100
0000
,
0010
0010
1000
0002
,
0003
2000
3000
0000
,
0000
0000
0000
0000
,
0001
0000
1000
1000
,
0002
0003
0100
0000
,
0010
0000
0000
0000
,
2000
3000
0010
0000
,
0100
0000
0000
0000
,
0002
0003
1000
0000
,
0010
0000
0000
0000
,
0020
0030
1000
0000
,
0010
1000
0100
0001
;

//---------------dance-single - ----------------
#NOTES:
     dance-single:
     :
     Medium:
     6:
     :
0000
0000
0000
0000
,
0000
0000
0000
0000
,
0000
0000
0000
0000
,
0000
0000
0000
0000
,
1002
0000
0000
0103
0001
0100
0001
0000
,
1000
0010
0100
0001
,
2000
0000
0000
3100
1000
0100
1000
0000
,
0001
0010
1000
0010
,
1002
0000
0000
0013
0001
0010
0001
0000
,
1000
0100
0010
0001
,
2000
0000
0000
3010
1000
0010
1000
0000
,
0001
0100
0010
0000
1000
0000
1100
0000
,
0022
0000
0000
0033
0010
0100
1000
0000
,
0002
0203
2300
3200
,
0301
1001
0000
0110
,
0000
1100
0000
0101
,
0001
0000
1000
0000
0001
0010
0100
0000
,
2000
3200
0302
0203
,
1300
1100
0000
0101
,
0000
0011
0000
1010
,
1000
0000
0001
0000
0100
0001
0010
0000
,
2000
3020
0032
0023
,
0130
1100
0000
0101
,
0000
0011
0000
1010
,
0100
0000
0001
0000
1000
0010
0100
0000
,
0002
2003
3200
0320
,
0000
0000
0030
0000
,
1001
0000
0000
0110
0000
0000
1001
0000
,
0100
0101
1000
0011
,
0000
1100
0001
1010
,
0000
0110
1100
0101
,
1000
0000
0001
0100
1000
0000
0110
0000
,
0001
0010
0100
1000
,
0001
0100
1000
0000
0200
0000
0300
0002
,
0000
1003
0001
1000
,
1100
0000
0000
0101
0000
0000
2002
0000
0000
0000
0000
0000
3003
0000
0000
0000
,
0010
1000
0001
0000
0100
0000
1020
0000
,
0230
0000
0001
0000
1300
0000
0100
0001
,
0011
0000
0000
0110
0000
0000
1100
0000
,
1001
0000
0010
0000
1000
0001
0100
0000
,
0010
0000
0100
0001
0010
0000
0011
0000
,
0001
1000
0100
0000
1000
0000
0001
0000
,
0011
0000
0000
1001
0000
0000
1100
0000
,
1000
0001
0011
1001
,
0200
0000
0000
0000
0300
0000
1000
0001
,
0010
0000
0100
1000
0000
0000
0010
0200
,
0000
0000
0000
0000
0300
0000
0001
1000
,
0010
0100
0001
1000
,
0020
0230
0302
0023
,
0031
0100
0010
1000
,
0101
0000
0101
0000
1100
0000
1100
0100
,
0020
0000
0000
0032
0000
0000
0203
0000
,
0320
0000
0000
0130
0001
0100
0001
0000
,
1000
0010
0100
0001
,
2000
0000
0000
3100
1000
0100
1000
0000
,
0001
0010
1000
0010
,
1002
0000
0000
0013
0001
0010
0001
0000
,
1000
0100
0010
0001
,
2000
0000
0000
3010
1000
0010
1000
0000
,
0001
0000
0010
0000
0100
0000
1000
0001
;

//---------------dance-single - ----------------
#NOTES:
     dance-single:
     :
     Hard:
     7:
     :
0000
0000
0000
0000
,
0000
0000
0000
0000
,
0000
0000
0000
0000
,
0000
0000
0000
0000
,
1001
0000
0010
1000
0001
0000
0100
0001
,
0010
0000
0100
1000
0010
0100
0010
0000
,
1001
0000
0001
0010
0100
0000
1000
0010
,
0100
0000
0001
0010
0100
1000
0001
0000
,
1000
0010
0100
0001
0100
0001
0010
0001
,
1000
0100
0010
0001
1000
0010
0100
0000
,
0100
0001
0010
0100
0010
0100
1000
0100
,
0010
0001
0100
0010
1000
0100
1001
0000
,
0001
0000
1000
0000
0010
0100
1000
0100
,
0001
0020
0032
0203
,
0310
0200
0301
2000
,
0000
0000
3000
0000
0001
0010
0001
0000
,
0010
0000
1000
0000
0010
0100
0001
0010
,
0001
0200
0302
2003
,
0000
0000
3010
0000
0100
1000
0100
0000
,
0001
0010
0001
0100
1000
0000
0110
0000
,
1000
0000
0001
0000
0010
0001
1000
0001
,
0100
0002
0023
0230
,
1300
0020
0130
0002
,
0013
0000
0100
0000
1000
0010
1000
0000
,
0100
0000
0010
0000
0100
1000
0001
1000
,
0010
0001
1100
0101
,
1001
0000
0000
0000
,
1001
0000
1000
0100
0010
0000
0100
0000
0010
0000
0001
0000
0200
0000
0000
0000
,
0300
0000
0001
0010
0100
0000
2002
0000
,
3003
0000
1000
0010
0100
0000
2002
0000
,
3003
0000
0010
0100
1000
0000
0001
0000
,
0100
0010
1000
0010
0100
0001
1000
0000
,
0100
0001
0100
1000
,
0010
0100
0001
1000
0010
0000
0001
0000
,
0200
0301
2000
3100
,
0001
0000
0000
1000
0000
0000
0220
0000
0000
0000
0000
0000
0330
0000
0000
0000
,
0001
0100
0010
1000
0100
0010
0001
0000
,
0100
0000
0100
0001
0100
0000
0010
1000
,
0100
0000
0010
0001
0100
0010
0100
0000
,
1001
0000
0001
0000
1000
0000
0110
0010
,
0100
0001
0010
0100
1000
0001
0010
0000
,
0001
1000
0010
0100
0001
0000
0011
0000
,
1010
0000
1000
0001
0101
0000
0010
1000
,
0100
0010
0001
0000
1000
0001
1001
0000
,
0002
2003
3020
0031
,
0010
1000
0100
0010
0100
1000
0010
0100
,
0002
0000
2003
0000
3200
0000
0310
0001
,
0100
0010
0100
1000
0100
0001
1000
0000
,
0002
0023
0230
2300
,
0001
3100
0000
0000
,
0011
0000
1100
0000
1000
0100
0010
0010
,
0100
0010
0001
0100
,
0001
0100
1000
0100
0001
0010
0001
0100
,
0010
1000
0100
0010
0001
0100
0010
0000
,
1000
0001
0010
0100
1000
0001
0010
0100
,
1000
0001
0100
0010
1000
0010
1001
0000
,
1000
0100
0001
0100
1000
0010
0100
0001
,
1000
0100
1000
0010
0100
0001
1000
0000
,
0100
0010
0100
1000
0010
0100
0001
1000
,
0010
0100
0001
1000
0100
0010
0001
0110
;
