#TITLE:Karma Chameleon;
#ARTIST:happy happy cores;
#BANNER:Karma Chameleon.png;
#BACKGROUND:Karma Chameleon-bg.png;
#CDTITLE:./CDTITLES/Dance Dance Revolution HOTTEST PARTY.png;
#MUSIC:Karma Chameleon.ogg;
#SAMPLESTART:48.831;
#SAMPLELENGTH:15;
#DISPLAYBPM:196;
#BPMS:0=195.55,8=196;
#STOPS:156=0.918;

//---------------dance-single - ----------------
#NOTES:
     dance-single:
     :
     Beginner:
     2:
     :
0000
0000
0000
0000
,
0000
0000
0000
0000
,
0000
0000
0000
0000
,
0000
0000
0000
0000
,
0000
0000
0000
0000
,
0000
0000
0000
0000
,
0010
0000
0000
0000
,
0100
0000
0000
0000
,
0002
0000
0000
0003
,
0000
0000
0000
0000
,
1000
0000
0000
0000
,
0010
0000
0000
0000
,
0200
0000
0000
0300
,
0000
0000
0000
0000
,
0001
0000
0000
0000
,
1000
0000
0000
0000
,
0010
0000
0010
0000
,
0010
0000
0000
0000
,
0200
0000
0000
0300
,
0000
0000
0000
0000
,
0001
0000
0001
0000
,
0001
0000
0000
0000
,
2000
0000
0000
3000
,
0000
0000
0000
0000
,
0100
0000
0000
0000
,
0010
0000
0000
0000
,
0001
0000
0001
0000
,
0001
0000
0000
0000
,
1000
0000
0000
0000
,
0010
0000
0000
0000
,
0100
0000
0100
0000
,
0100
0000
0000
0000
,
1000
0000
0000
0000
,
0100
0000
0000
0000
,
0001
0000
0001
0000
,
0001
0000
0000
0000
,
0020
0000
0000
0030
,
0000
0000
0000
0000
,
0200
0000
0000
0000
,
0300
0100
0000
0000
,
0000
1000
0000
0000
,
0000
0010
0000
0000
,
0000
0000
0100
0000
,
0000
1000
0000
0000
,
0000
0000
0010
0000
,
0000
0100
0000
0000
,
0000
0010
0000
0000
,
0000
1000
0000
0000
,
0000
0001
0000
0000
,
0000
0010
0000
0000
,
0000
0000
1000
0000
,
0000
0001
0000
0000
,
0000
0000
0001
0000
,
0000
0100
0000
0000
,
0000
1000
0000
0000
,
0000
0100
0000
0000
,
0000
0010
0000
0000
,
0000
0100
0000
0000
,
0000
0000
0001
0000
,
0000
1000
0000
0000
,
0000
0000
0010
0000
,
0000
0100
0000
0000
,
0000
0010
0000
0000
,
0000
1000
0000
0000
,
0000
0001
0000
0000
,
0000
1000
0000
0000
,
0000
0000
0010
0000
,
0000
0100
0000
0000
,
0000
0000
0010
0000
,
0000
0100
0000
0000
,
0000
0001
0000
0000
,
0000
1000
0000
0000
,
0000
0001
0000
0000
,
0000
1000
0000
0100
,
0000
0001
0000
0000
,
0000
0100
0000
0000
,
0000
0010
0000
0000
,
0000
1000
0000
0000
,
0000
0001
0000
0000
,
0000
1001
0000
0000
;

//---------------dance-single - ----------------
#NOTES:
     dance-single:
     :
     Easy:
     4:
     :
0000
0000
0000
0000
,
0000
0000
0000
0000
,
0000
0000
0000
0000
,
0000
0000
0000
0000
,
0000
0000
0000
0000
,
0000
0000
0000
0000
,
0001
0000
1000
0000
,
0010
0000
1000
0000
,
0010
0000
0100
0000
,
0001
0000
1000
0000
,
0001
0000
1000
0000
,
0100
0000
0001
0000
,
0010
0000
1000
0000
,
0100
1000
0100
0000
,
0010
0001
0010
0000
,
1000
0000
0001
0000
,
0100
0010
0100
0000
,
0010
0000
1000
0000
,
0010
0000
0000
0000
,
0001
0000
0010
0000
,
0100
0010
0100
0000
,
1000
0000
0010
0000
,
0100
0000
0000
0000
,
0010
0000
0001
1000
,
0020
0000
0000
0030
,
0000
0000
1000
0000
,
0002
0000
0000
0003
,
0000
0000
0100
0000
,
0020
0000
0000
0030
,
0000
0000
1000
0000
,
0002
0000
0000
0003
,
0000
0000
0010
0100
,
0020
0000
0000
0030
,
0000
0000
0100
0000
,
2000
0000
0000
3000
,
0000
0000
1000
0000
,
0010
0000
0000
0000
,
0000
0000
0100
0000
,
0001
0000
0000
0000
,
1000
0001
0000
1000
,
0000
0010
0100
0010
,
0000
0100
0000
0000
,
0000
0001
0000
1000
,
0000
0200
0000
0000
,
0300
0000
1000
0000
,
0010
0200
0000
0000
,
0300
0100
0000
0000
,
0000
0010
0000
0100
,
0000
0001
1000
0001
,
0000
2000
0000
0000
,
3000
0000
0100
0100
,
0100
0200
0000
0000
,
0300
0000
0010
0010
,
0010
0020
0000
0000
,
0030
0010
0000
0000
,
0000
1000
0000
0010
,
0000
0100
0001
0100
,
0000
0010
0000
0000
,
0000
1000
0000
0001
,
0000
0200
0000
0000
,
0300
0000
0001
0000
,
1000
0020
0000
0000
,
0030
0010
0000
0000
,
0000
1000
0000
0001
,
0000
0100
0010
0100
,
0000
0002
0000
0000
,
0003
0000
1000
1000
,
1000
2000
0000
0000
,
3000
0000
0010
0010
,
0100
0100
0000
0000
,
0000
0110
0000
0000
,
0000
1000
0000
0001
,
0000
0010
0000
1000
,
0000
0010
0000
0001
,
0000
0100
0000
1000
,
0000
0010
0000
0100
,
0000
0001
1000
0001
,
1000
0001
0000
0100
,
0000
0010
0000
0100
,
0000
0010
0000
0000
;

//---------------dance-single - ----------------
#NOTES:
     dance-single:
     :
     Medium:
     7:
     :
0000
0000
0000
0000
,
0000
0000
0000
0000
,
0000
0000
0000
0000
,
0000
0000
0000
0000
,
0000
0000
0000
0000
,
0000
0000
0000
0000
,
0010
0100
0001
0010
,
0100
0001
1000
0001
,
0100
0000
0010
1000
,
0001
0000
0010
0001
,
1000
0001
1000
0100
,
0010
1000
0001
0100
,
0010
0000
0001
1000
,
0100
0000
1000
0010
,
0100
0000
0001
1000
,
1001
0000
1000
0010
,
0002
0003
0001
0010
,
2000
3000
0001
0100
,
0010
0010
0100
0001
,
1000
0000
1000
0100
,
0002
0003
0001
0100
,
2000
3000
0001
0010
,
0100
0100
1000
0010
,
0001
0000
0010
1000
,
0001
0010
0011
0000
,
0010
0100
0110
0000
,
1000
0010
1010
1000
,
1001
1000
1100
1000
,
0001
0100
0101
0000
,
1000
0100
1100
0000
,
1000
0100
0001
0100
,
0010
0001
0100
1000
,
0100
0010
0110
0000
,
0010
0001
0011
0000
,
1000
0001
1001
0001
,
0011
0001
0101
0001
,
1000
1000
0010
0100
,
0001
0000
0001
0001
,
0010
0100
1000
0020
,
0130
0001
0001
1000
,
1000
0010
0100
0010
,
1000
2002
0000
0000
,
3003
0000
0010
0100
,
0010
0000
1000
0100
1000
0000
0001
0100
,
0001
1001
0000
0010
,
0100
0010
1000
0100
,
0001
0020
0100
0100
,
0130
1000
1000
0001
,
0001
0100
0010
0100
,
0001
2002
0000
0000
,
3003
0000
1000
0001
,
0010
0011
0001
0001
,
0001
0001
0001
1000
,
0010
2020
0000
0000
,
3030
1001
0000
0000
,
0000
0010
0010
0100
,
0100
0001
1000
0001
,
0010
0022
0000
0000
,
0033
0000
0000
0000
1000
0100
0000
0000
,
1000
0000
0001
0100
0001
0000
1000
0100
,
1000
0010
0100
0010
,
1000
0000
0001
0010
0001
0000
1000
0010
,
1000
1001
1001
1001
,
0000
0100
0100
0010
,
0010
1000
0001
1000
,
0010
2020
0000
0000
,
3030
0000
1000
0001
,
0100
0110
0010
0010
,
0010
0010
0100
0001
,
0010
0110
0000
0000
,
1001
0110
0000
0000
,
0000
0100
0010
1000
,
0100
0000
0010
0000
1000
0000
0001
1000
,
0001
1001
0000
0100
,
0001
1001
0000
0100
,
1000
0001
1000
0001
,
0010
0000
0100
0000
0001
0000
1000
0010
,
1000
0100
0000
1000
,
0001
1001
0000
0100
,
0010
0110
0000
0000
;

//---------------dance-single - ----------------
#NOTES:
     dance-single:
     :
     Hard:
     8:
     :
0000
0000
0000
0000
,
0000
0000
0000
0000
,
0000
0000
0000
0000
,
0000
0000
0000
0000
,
0000
0000
0000
0000
,
0000
0000
0000
0000
,
0010
0000
0000
1010
0000
0000
1000
0000
,
0000
1001
0000
0000
0001
0000
0100
0000
,
0010
1000
0100
0010
,
0001
0000
0010
0100
,
0001
0000
0000
0011
0000
0000
0001
0000
,
0000
1001
0000
0000
1000
0000
0010
0000
,
0001
0010
0100
0001
,
0100
0010
1000
0001
,
0200
0000
0310
0100
,
1001
0000
1000
0100
,
0010
0000
0001
0000
1000
0010
0100
0000
,
0010
0000
0100
0010
,
0001
0100
1000
0100
,
0001
0000
0010
0100
,
0001
0000
0100
0000
0010
1000
0001
0000
,
1000
0100
0001
0100
,
1000
0010
0010
0010
,
0010
0000
0000
1001
0000
0000
0100
0000
,
0001
0100
1000
0000
0001
0100
1000
0000
,
0001
1000
0010
0100
,
0001
0100
1000
0000
0001
0100
1000
0000
,
0010
1000
0100
0000
1000
0000
0001
0000
,
1000
0100
0001
0000
1000
0100
0001
0000
,
1000
0000
0010
0100
0000
0000
0010
0000
,
2000
3100
0002
0103
,
0010
0000
1001
1001
,
1000
0001
0100
0000
0001
1000
0100
0000
,
0010
0001
0100
0000
0010
0000
0100
0000
,
0001
1000
0100
0000
1000
0001
0100
0000
,
0010
0000
1000
0100
0000
0000
1100
0000
,
0010
0001
0100
0001
,
0010
0000
0001
0100
0000
0000
1000
0000
,
0001
1000
0001
1000
,
1001
1000
0010
0100
,
0001
0000
1000
0100
1000
0100
0000
0000
,
0010
0110
0000
0001
,
1000
0000
0010
0000
0100
0010
0000
0000
,
0001
2000
0100
0001
,
0100
0000
3001
0000
0100
0010
0000
0000
,
1000
0002
1000
0100
,
1000
0103
0001
0011
,
1010
1000
0010
0001
,
0010
0000
0100
0000
1000
0001
0000
0000
,
0100
0010
0010
0010
,
0010
0010
1000
0001
,
0100
0010
0010
0010
,
0010
0010
1000
0001
,
0100
0000
1001
0000
0000
0000
0000
0010
,
0100
0220
0000
0330
,
0000
0001
0100
1000
,
0001
0000
0010
0001
0010
0001
0000
0000
,
1000
0002
0010
0100
,
0010
0000
0103
0000
0010
1000
0000
0000
,
0100
0020
0001
0100
,
0001
0000
0130
0000
0001
0100
0000
0000
,
0020
1000
0100
1000
,
0130
0010
1010
0011
,
0001
1000
0100
0010
,
0001
1000
0100
1000
,
0001
2002
0000
0000
,
3003
0000
1000
0010
,
0100
0000
0010
1000
0010
0000
0100
0001
,
0100
0001
1000
0100
,
0001
0000
0010
0001
0010
0000
0100
1000
,
0100
2002
0000
3003
,
0000
0000
0010
1000
0000
0001
0000
0000
,
0010
0000
0000
0100
0000
0010
0001
0010
,
0001
0000
1000
0000
0000
0010
0000
0000
,
1000
0100
0001
0100
,
1000
0000
0010
0100
0000
0001
0000
0000
,
0010
0000
0000
0001
0000
1000
0010
1000
,
0010
0100
0001
0100
,
1000
0000
0100
0010
0000
0100
0000
0010
,
0000
0110
0000
0000
0000
0000
0000
0000
;
