#TITLE:I Don't Feel Like Dancin';
#ARTIST:Life Aloud;
#BANNER:I Don't Feel Like Dancin'.png;
#BACKGROUND:I Don't Feel Like Dancin'-bg.png;
#CDTITLE:./CDTITLES/Dance Dance Revolution HOTTEST PARTY.png;
#MUSIC:I Don't Feel Like Dancin'.ogg;
#SAMPLESTART:48.335;
#SAMPLELENGTH:15;
#BPMS:0=108;

//---------------dance-single - ----------------
#NOTES:
     dance-single:
     :
     Beginner:
     1:
     :
0000
0000
0000
0000
,
0000
0000
0000
0000
,
0000
0000
0000
0000
,
0000
0000
0000
0000
,
0000
0000
0000
0000
,
0000
0000
0000
0000
,
0001
0000
0000
0000
,
0001
0000
0000
0000
,
1000
0000
0000
0000
,
1000
0000
0000
0000
,
0001
0000
0000
0000
,
0001
0000
0000
0000
,
1000
0000
0000
0000
,
1000
0000
0000
0000
,
0001
0000
0000
0000
,
0000
0000
0000
0000
,
0001
0000
0000
0000
,
0000
0000
0000
0000
,
1000
0000
0000
0000
,
0000
0000
0000
0000
,
1000
0000
0000
0000
,
0000
0000
0000
0000
,
0001
0000
0000
0000
,
0001
0000
0000
0000
,
1000
0000
0000
0000
,
1000
0000
0000
0000
,
0001
0000
0000
0000
,
1000
0000
0000
0000
,
0001
0000
0000
0000
,
0001
0000
0000
0000
,
1000
0000
0000
0000
,
1000
0000
0000
0000
,
0001
0000
0000
0000
,
0001
0000
0000
0000
,
1000
0000
0000
0000
,
1000
0000
0000
0000
,
0001
0000
0000
0000
,
1000
0000
0000
0000
,
1001
0000
0000
0000
,
0001
0000
0000
0000
,
1001
0000
0000
0000
,
1000
0000
0000
0000
,
1001
0000
0000
0000
,
1000
0000
0000
0000
,
0001
0000
0000
0000
,
0001
0000
0000
0000
;

//---------------dance-single - ----------------
#NOTES:
     dance-single:
     :
     Easy:
     3:
     :
0000
0000
0000
0000
,
0000
0000
0000
0000
,
0000
0000
0000
0000
,
0000
0000
0000
0000
,
0000
0000
0000
0000
,
0000
0000
0000
0000
,
0100
0100
0000
0010
,
0001
0001
0000
1000
,
0110
0000
1001
0000
,
0010
1000
0001
0100
,
0100
0100
0000
0010
,
0001
0001
0000
1000
,
0011
0000
1100
0000
,
0010
1000
0100
1001
,
0002
0000
0000
1003
,
2001
0000
0000
3001
,
0120
0000
0000
0130
,
0210
0000
0000
0310
,
1002
0000
0000
1003
,
2001
0000
0000
3001
,
0120
0000
0000
0130
,
0210
0000
0000
0310
,
1001
0010
0000
0110
,
0010
0001
1000
0000
,
0010
0010
0100
0100
,
0010
0000
0001
0000
,
0010
0100
0010
0000
,
1000
0001
1000
0000
,
1001
0000
0110
0000
,
0100
0001
1000
0001
,
0100
0000
0100
0000
,
1000
0001
0010
0100
,
0100
0000
0100
0000
,
1000
0001
0010
0100
,
0100
0000
0100
0000
,
1000
0001
0010
0100
,
0010
0000
0100
0000
,
0010
0000
0100
1001
,
0000
0000
0010
0000
,
0001
1000
0100
0010
,
0010
0000
0010
0000
,
0001
1000
0100
0010
,
0010
0000
0010
0000
,
0001
1000
0100
0010
,
0100
0000
0010
0000
,
1001
0000
0000
0000
;

//---------------dance-single - ----------------
#NOTES:
     dance-single:
     :
     Medium:
     5:
     :
0000
0000
0000
0000
,
0000
0000
0000
0000
,
0000
0000
0000
0000
,
0000
0000
0000
0000
,
0000
0000
0000
0000
,
0000
0000
0000
0000
,
0100
1000
0100
1100
,
0001
0100
0001
0101
,
0010
0000
0100
0000
,
0001
0000
1000
0000
0010
1000
0001
0000
,
0100
1000
0100
1100
,
0001
0100
0001
0101
,
1000
0010
1000
0010
0100
0001
0100
0001
,
1000
1000
0001
0100
0000
0000
0000
0000
,
0001
0010
0100
1100
,
0010
1000
0001
0101
,
0001
0000
1000
0000
,
1000
0001
1000
1000
,
0001
0010
0100
1100
,
0010
1000
0001
0101
,
0001
0000
1000
0000
,
1000
0000
0001
0000
1000
0010
0100
0001
,
0001
0000
1000
0000
1000
0001
0100
0000
,
0010
0001
0010
0000
1000
0100
1000
0000
,
0010
0011
0100
1100
,
0010
1010
0100
0101
,
0010
0100
0010
0110
,
0010
1000
0001
0101
,
1001
0000
0010
0000
1000
0001
0100
0000
,
0010
0001
0010
0000
1000
0100
1000
0001
,
0100
0001
0100
0000
0100
0010
0100
0000
,
0011
0000
1100
0000
0001
1000
0100
0000
,
0100
0001
0100
0000
0100
1000
0100
0000
,
0011
0000
1100
0000
0001
1000
0010
0000
,
0010
1000
0010
0000
0010
0100
0010
0000
,
1010
0000
0101
0000
0001
1000
0100
0000
,
1000
0100
1000
0000
0001
0010
0001
0000
,
0110
0000
1001
0000
0010
1000
0001
0000
,
0100
0001
0100
0000
0100
0010
0100
0000
,
0011
0000
1100
0000
0001
1000
0100
0000
,
0100
0001
0100
0000
0100
1000
0100
0000
,
0011
0000
1100
0000
0001
1000
0010
0000
,
0010
1000
0010
0000
0010
0100
0010
0000
,
1010
0000
0101
0000
0001
1000
0100
0000
,
1000
0100
1000
0000
0001
0010
0001
0000
,
0000
0010
1001
0000
0010
1000
0001
0000
;

//---------------dance-single - ----------------
#NOTES:
     dance-single:
     :
     Hard:
     7:
     :
0000
0000
0000
0000
,
0000
0000
0000
0000
,
0000
0000
0000
0000
,
0000
0000
0000
0000
,
0200
0000
0300
1000
0010
0100
0001
0000
,
0020
0000
0030
0001
0100
0010
1001
0000
,
1000
0100
0010
0000
0010
0100
1000
0100
,
0100
0100
0002
0003
,
0001
0010
0001
0000
0001
1000
0001
0100
,
0010
0001
0010
1000
2000
0000
3000
0000
,
0001
0010
0100
0000
0100
0010
0001
0010
,
0010
0100
0010
0100
2000
0000
3000
0000
,
0001
0100
0001
0010
0001
1000
0001
0010
,
0100
1000
0100
0001
0002
0000
0003
0000
,
1000
0000
0010
0000
0100
0001
0101
0000
,
0010
0000
1000
0000
0010
0100
0110
0000
,
1000
0100
1000
0001
0010
0100
0010
0001
,
2000
0100
0010
3010
,
0001
0000
0100
0000
0010
1000
1010
0000
,
0100
0000
0001
0000
0100
0010
0110
0000
,
0001
0010
0001
1000
0100
0010
0100
1000
,
0002
0010
0100
0103
,
2000
3100
0002
0013
,
0100
1000
0100
0010
0001
0010
0011
0000
,
0200
0310
0020
0130
,
0001
0010
0100
1000
0100
0010
0100
0100
,
1000
0100
0100
0001
0001
0100
1000
1000
,
0100
0001
1000
0010
0100
0001
1010
0000
,
0002
0013
2000
3100
,
0100
1000
0100
0010
0001
0010
1000
0010
,
0100
1100
0000
0010
0011
0000
1000
0100
,
1000
0001
1000
0010
1010
0000
1000
0000
,
0010
0011
0001
0100
1100
1000
0001
0010
,
0001
1000
0001
0100
0101
0000
0001
0000
,
0010
1010
0000
0100
0101
0000
1000
0010
,
1000
0001
1000
0100
1100
0000
1000
0000
,
1000
0010
0100
0000
0001
0100
0010
0000
,
1001
0000
0110
0000
0010
0100
1001
0000
,
1100
1100
0000
0011
0011
0000
1000
0100
,
1000
0001
1000
0010
1000
0100
1000
0001
,
0011
0011
1000
1100
1100
0001
0001
0010
,
0001
1000
0001
0100
0001
0010
0001
1000
,
1010
1010
0000
0101
0101
0000
1000
0010
,
1000
0001
1000
0100
1000
0010
1000
0001
,
1000
0010
0100
0000
0001
0100
0010
0000
,
1000
0100
0000
0011
0000
0000
0010
0100
1000
0000
0100
0000
0010
0001
0010
0000
;
