#TITLE:Hot Stuff;
#ARTIST:DISCO QUEEN;
#BANNER:Hot Stuff.png;
#BACKGROUND:Hot Stuff-bg.png;
#CDTITLE:./CDTITLES/Dance Dance Revolution HOTTEST PARTY.png;
#MUSIC:Hot Stuff.ogg;
#SAMPLESTART:45.499;
#SAMPLELENGTH:15;
#DISPLAYBPM:145;
#BPMS:0=145.65,8=145;

//---------------dance-single - ----------------
#NOTES:
     dance-single:
     :
     Beginner:
     1:
     :
0000
0000
0000
0000
,
0000
0000
0000
0000
,
0000
0000
0000
0000
,
0000
0000
0000
0000
,
1000
0000
0000
0000
,
0001
0000
0000
0000
,
1000
0000
0000
0000
,
0001
0000
1000
0000
,
0001
0000
0000
0000
,
1000
0000
0000
0000
,
0001
0000
0000
0000
,
1000
0000
0001
0000
,
1000
0000
1000
0000
,
0001
0000
0001
0000
,
1000
0000
1000
0000
,
0002
0000
0000
0003
,
0001
0000
0001
0000
,
1000
0000
1000
0000
,
0001
0000
0001
0000
,
2000
0000
0000
3000
,
1000
0000
0000
0000
,
0000
0000
0000
0000
,
0002
0000
0000
0003
,
0000
0000
0000
0000
,
2000
0000
0000
3000
,
0000
0000
0000
0000
,
0002
0000
0000
0003
,
0000
0000
0000
0000
,
1000
1000
0000
1000
,
0000
1000
0000
0000
,
0001
0001
0000
0001
,
0000
0001
0000
0000
,
1000
1000
0000
0001
,
0000
1000
0000
0001
,
0002
0000
0000
0003
,
0001
0000
1000
0000
,
2000
0000
0000
3000
,
1000
0000
1000
0000
,
0001
0001
0000
0000
,
0001
0000
0001
0000
,
1000
1000
0000
0000
,
1000
0000
1000
0000
,
0001
0001
0000
0000
,
0001
0000
1000
0000
,
0001
0001
0001
0000
,
0001
0000
0001
0000
,
1000
1000
1000
0000
,
1000
0000
1000
0000
,
0001
0001
0001
0000
,
1000
0000
0001
0000
,
1000
0000
0001
0000
,
1000
0000
0001
0000
,
1001
0000
0000
0000
,
0001
0000
0000
0000
,
1000
0000
0000
0000
,
0001
0000
0000
0000
,
1000
0000
1000
0000
,
0001
0000
0001
0000
,
1000
0000
1000
0000
,
0001
0000
1000
0000
,
2002
0000
0000
3003
;

//---------------dance-single - ----------------
#NOTES:
     dance-single:
     :
     Easy:
     4:
     :
0000
0000
0000
0000
,
0000
0000
0000
0000
,
0000
0000
0000
0000
,
0000
0000
0000
0000
,
1000
0000
1000
0000
,
0001
0000
0001
0000
,
0100
0000
0100
0000
,
0001
0000
0001
0000
,
1000
0000
1000
0000
,
0100
0000
0100
0000
,
1000
0000
1000
0000
,
0010
0000
0100
0000
,
0110
0000
0001
0000
,
1000
0000
0001
0001
,
0010
0010
0010
0010
,
0200
0000
0300
0000
,
1000
0000
0010
0000
,
1000
0000
0001
0001
,
0100
0100
0100
0100
,
0020
0000
0030
0000
,
1000
0000
0001
0000
,
0100
0000
0010
0010
,
1000
0000
0001
0000
,
0100
0000
0010
0000
,
1000
0000
0100
0000
,
0010
0000
0001
0001
,
1000
0000
0100
0000
,
0010
0000
0001
0000
,
1000
1000
0001
0100
,
0001
0001
0100
0000
,
0001
0001
1000
0100
,
1000
1000
0100
0000
,
0010
0010
0001
1000
,
0001
0000
1000
0000
,
0001
0010
0010
0000
,
1000
0010
0010
0000
,
0001
0001
0000
1000
,
1000
0000
0001
0001
,
0100
0100
0000
0010
,
0010
0000
1000
1000
,
0001
0001
0000
0010
,
0010
0000
0100
0000
,
1000
1000
0000
0001
,
0000
1000
0000
0001
,
1000
1000
0001
0010
,
0001
0000
0010
0000
,
0001
0001
1000
0010
,
1000
0000
0010
0000
,
0100
0100
0001
1000
,
0001
0000
1000
0000
,
0001
0100
0100
0000
,
1000
0100
0100
0000
,
0110
0000
1000
0000
,
0001
0000
1000
1000
,
0100
0100
0100
0100
,
0020
0000
0030
0000
,
0001
0000
0100
0000
,
0001
0000
1000
1000
,
0010
0010
0010
0010
,
0200
0000
0300
0000
,
2002
0000
0000
3003
;

//---------------dance-single - ----------------
#NOTES:
     dance-single:
     :
     Medium:
     7:
     :
0000
0000
0000
0000
,
0000
0000
0000
0000
,
0000
0000
0000
0000
,
0000
0000
0000
0000
,
1000
0000
0100
0000
1000
0000
0100
0010
,
0001
0000
0100
0000
0001
0000
0100
0010
,
1000
0000
0100
0000
1000
0000
0100
0010
,
0010
0000
0001
1000
1000
0000
0010
0100
,
0100
0000
0001
0000
0100
0000
0001
0010
,
0100
0000
1000
0000
0100
0000
1000
0010
,
0100
0000
0001
0000
0100
0000
0001
1000
,
1000
0000
0100
0010
0010
0000
0001
1000
,
1000
0000
1001
0000
0010
0010
0000
0100
,
0001
0000
1001
0000
0100
0100
0000
0010
,
0000
0001
1000
0000
1000
0000
0001
0002
,
0000
0003
1000
2000
0000
3000
0000
0000
,
0001
0000
1001
0000
0100
0100
0000
0010
,
1000
0000
1001
0000
0010
0010
0000
0100
,
0000
0001
1000
0000
0001
0000
1000
2000
,
0000
3000
0001
0002
0000
0003
0000
0000
,
1000
0000
1000
0000
0001
0000
0001
0100
,
0000
1000
0000
0100
0000
0001
0000
0000
,
1000
0000
1000
0000
0001
0000
0010
0100
,
0000
1000
0000
0100
0000
0001
0000
0000
,
0100
0000
0100
0000
0010
0000
0010
0001
,
0000
0100
0000
1000
0000
0100
0000
0000
,
0001
0000
0001
0000
1000
0000
1000
0100
,
1000
0000
0000
0000
0001
0100
0010
0000
,
1010
0000
1010
0000
0100
0000
0001
1000
,
0000
1000
0000
1000
0000
0100
0010
0000
,
0011
0000
0011
0000
0100
0000
1000
0001
,
0000
0001
0000
0001
0000
1000
0010
0000
,
0101
0000
0101
0000
0001
0000
0010
0100
,
0000
0100
0000
0100
0000
0100
0000
1002
,
0000
0000
2003
0000
0100
3100
0000
2002
,
0000
3003
0100
0100
,
2002
0000
0000
3003
0000
0001
0000
1000
,
0000
0100
0000
0100
0000
1000
0001
0000
,
1001
0000
1001
0000
0000
1000
0000
0001
,
0000
0100
0000
0100
0000
0001
1000
0001
,
2000
0000
3002
0000
0003
0010
0000
0100
,
0000
1000
0000
1000
0000
0100
0010
0000
,
0110
0000
0110
0000
0000
0100
0000
0010
,
0000
0001
0000
0001
0000
1000
0001
0000
,
0101
0000
0101
0000
0010
0000
1000
0001
,
0000
0001
0000
0001
0000
0010
0100
0000
,
1100
0000
1100
0000
0010
0000
0001
1000
,
0000
1000
0000
1000
0000
0001
0100
0000
,
1010
0000
1010
0000
1000
0000
0100
0010
,
0000
0010
0000
0010
0000
0010
0000
2001
,
0000
0000
3002
0000
0010
0013
0000
2002
,
0000
3003
0100
0100
,
0001
0010
0001
0000
0100
0100
0000
0010
,
1000
0100
1000
0000
0010
0010
0000
0100
,
0000
0010
1000
0000
0001
0000
1000
2000
,
0000
3000
0001
0002
0000
0003
0000
0000
,
1000
0000
1001
0000
0010
0010
0000
0100
,
0001
0000
1001
0000
0100
0100
0000
0010
,
0000
0100
0001
0000
1000
0000
0001
0002
,
0000
0003
1000
2000
0000
3000
0000
0000
,
1001
0000
0100
0000
0100
0000
0100
0010
;

//---------------dance-single - ----------------
#NOTES:
     dance-single:
     :
     Hard:
     9:
     :
0000
0000
0000
0000
,
0000
0000
0000
0000
,
0000
0000
0000
0000
,
0000
0000
0000
0000
,
1000
0000
0000
0100
0000
0000
1000
0000
0000
0000
0100
0000
0010
0000
0100
0000
,
1000
0000
0000
0001
0000
0000
1000
0000
0000
0000
0001
0000
0100
0000
0001
0000
,
0010
0000
0000
0001
0000
0000
0010
0000
0000
0000
0001
0000
1000
0000
0100
0000
,
1100
0000
0010
0001
0101
0000
0010
1000
,
1001
0000
0000
0100
0000
0000
0001
0000
0000
0000
0010
0000
0001
0000
0100
0000
,
0010
0000
0000
1000
0000
0000
0100
0000
0000
0000
1000
0000
0010
0000
0100
0000
,
0001
0000
0000
0010
0000
0000
0001
0000
0000
0000
0100
0000
0010
0000
1000
0000
,
1100
0000
0000
1000
0000
0000
1000
0000
0101
0000
0000
0001
0000
0000
0001
0000
,
1000
0100
1000
0001
0010
0100
0000
2000
,
0000
3100
0010
0100
1000
0001
0000
0200
,
0000
0310
0100
0001
1000
0001
0100
0020
,
0000
0000
1000
1030
0000
0000
0110
0000
,
0001
0010
0001
1000
0100
0010
0000
0002
,
0000
0013
0100
0010
0001
1000
0000
0020
,
0000
0130
0010
1000
0001
1000
0010
0200
,
0000
0000
0001
0301
1000
0001
1000
0100
,
0010
0000
0010
0000
0001
1000
0100
1000
,
0000
0001
0000
1001
0000
0100
0000
0010
,
0001
0100
0001
1000
0001
0100
0010
1000
,
0000
1000
0000
1001
0000
0001
0000
1000
,
0100
0010
0001
0010
0100
0010
0001
1000
,
0000
1000
0000
1001
0000
0001
0000
1000
,
0010
0100
0010
1000
0001
0100
0010
2000
,
0000
0000
3000
0000
0100
0010
0001
0010
,
1100
0000
0011
0000
0001
1000
0200
0001
,
0000
1000
0000
0001
0000
1300
0001
0100
,
1010
0000
0101
0000
0010
0100
0002
1000
,
0000
0100
0000
1000
0000
0103
0010
1000
,
0101
0000
1010
0000
0100
0001
1000
1100
,
0000
0011
0000
0110
0000
1100
0000
1020
,
0000
0130
1000
0100
0001
0001
0000
0021
,
0000
0130
0010
0001
1000
0100
0010
0001
,
2000
0000
0100
0000
3010
1010
0000
1001
,
0000
0100
0001
0100
1000
0100
0001
0000
,
2001
0000
0010
0000
3100
1100
0000
1001
,
0000
0010
0001
0010
1000
0010
0001
0000
,
1002
0000
0100
0000
0013
0011
0000
1001
,
0000
0100
1000
0010
0001
0010
1000
0000
,
1002
0000
0010
0000
0103
0101
0000
1001
,
0000
0010
1000
0100
0001
0100
1000
0010
,
1001
0000
0110
0000
1000
0001
0100
0010
,
2000
0001
0000
0100
0000
3001
1000
0100
,
0011
0000
1100
0000
0010
0100
1000
0001
,
0200
0010
0000
0001
0000
0310
0100
0001
,
1010
0000
0101
0000
0010
1000
0001
0100
,
0010
0001
0010
1000
0100
0010
0001
2001
,
0000
3010
1000
0100
0010
0010
0000
1002
,
0000
0103
0001
0010
0100
0100
1000
0001
,
0001
0010
0001
1000
0100
0010
0000
0002
,
0000
0013
0100
0010
0001
1000
0000
0020
,
0000
0130
0010
1000
0001
1000
0010
0200
,
0000
0000
0001
0301
1000
0000
0110
0000
,
1000
0100
1000
0001
0010
0100
0000
2000
,
0000
3100
0010
0100
1000
0001
0000
0200
,
0000
0310
0100
0001
1000
0001
0100
0020
,
0000
0000
1000
1030
0001
0010
1000
0010
,
0001
0000
0101
0000
1100
0000
0100
1001
;
