#TITLE:Hold Tight;
#ARTIST:800 slopes;
#BANNER:Hold Tight.png;
#BACKGROUND:Hold Tight-bg.png;
#CDTITLE:./CDTITLES/Dance Dance Revolution HOTTEST PARTY.png;
#MUSIC:Hold Tight.ogg;
#SAMPLESTART:54.927;
#SAMPLELENGTH:15;
#BPMS:0=130;

//---------------dance-single - ----------------
#NOTES:
     dance-single:
     :
     Beginner:
     1:
     :
0000
0000
0000
0000
,
0000
0000
0000
0000
,
0000
0000
0000
0000
,
0000
0000
0000
0000
,
0000
0000
0000
0000
,
0000
0000
0000
0000
,
1000
0000
0000
0000
,
0100
0000
0000
0000
,
0001
0000
0010
0000
,
0001
0000
0000
0000
,
0100
0000
0000
0000
,
1000
0000
0000
0000
,
0010
0000
0100
0000
,
0010
0000
0000
0000
,
0001
0000
0000
0000
,
1000
0000
0000
0000
,
0100
0000
1000
0000
,
0100
0000
1000
0000
,
0001
0000
0000
0000
,
0100
0000
0000
0000
,
0001
0000
0100
0000
,
0001
0000
0100
0000
,
0010
0000
0000
0000
,
0100
0000
0000
0000
,
0001
0000
0001
0000
,
1000
0000
0000
0000
,
0100
0000
0000
0000
,
1000
0000
0000
0000
,
0010
0000
0100
0000
,
0110
0000
0000
0000
,
0100
0000
0100
0000
,
0100
0000
0000
0000
,
0001
0000
0010
0000
,
0100
0000
0000
0000
,
1000
0000
1000
0000
,
1000
0000
0000
0000
,
0010
0000
0100
0000
,
0001
0000
0000
0000
,
1001
0000
0000
0000
,
0100
0000
0000
0000
,
1000
0000
1000
0000
,
0001
0000
0001
0000
,
0100
0000
0000
0000
,
0010
0000
0000
0000
,
1000
0000
0001
0000
,
1000
0000
0000
0000
,
0010
0000
0010
0000
,
0010
0000
0000
0000
,
1000
0000
0100
0000
,
0010
0000
0000
0000
,
0001
0000
0001
0000
,
0001
0000
0000
0000
,
0100
0000
0010
0000
,
1000
0000
0000
0000
,
1001
0000
0000
0000
;

//---------------dance-single - ----------------
#NOTES:
     dance-single:
     :
     Easy:
     4:
     :
0000
0000
0000
0000
,
0000
0000
0000
0000
,
0000
0000
0000
0000
,
0000
0000
0000
0000
,
0000
0000
0000
0000
,
0000
0000
0000
1000
,
0001
0000
0100
0000
,
0010
0000
0100
0000
,
0001
0001
0010
0010
,
0100
0000
0000
1000
,
0001
0000
0010
0000
,
0100
0000
0010
0000
,
0001
0001
0100
0100
,
2000
0000
3000
0000
,
1001
0000
0100
0000
,
0010
0000
1000
0000
,
0001
0100
0001
0000
,
1000
0100
1000
0000
,
0010
0000
0001
0000
,
0100
0000
0001
0000
,
1000
0010
1000
0000
,
0001
0010
0001
0100
,
0110
0000
1000
0000
,
0001
0010
0010
0100
,
1000
0000
0001
0000
,
1000
0000
0001
0010
,
0110
0000
1000
0000
,
0001
0100
0100
0010
,
1000
0000
0001
0000
,
2000
0000
3000
0001
,
1002
0003
0100
0000
,
0001
0000
0100
0010
,
1000
1000
0001
0001
,
0200
0300
0000
0010
,
0120
0030
1000
0000
,
0100
0000
0010
0000
,
1000
1000
0001
0001
,
1001
0000
0000
0000
,
0100
0000
0001
0000
,
0010
0000
1000
0100
,
0200
0300
0100
1000
,
0020
0030
0010
1000
,
0001
0000
0100
0000
,
1000
0000
0010
0000
,
0200
0300
0100
0001
,
0020
0030
0000
0100
,
2000
3000
0010
0000
,
0001
0010
1000
0001
,
1000
1000
0001
0001
,
0020
0030
0000
0100
,
2000
3000
0010
0000
,
0001
0010
1000
0001
,
1000
1000
0001
0001
,
0200
0300
0010
0100
,
0110
0000
0000
0000
;

//---------------dance-single - ----------------
#NOTES:
     dance-single:
     :
     Medium:
     5:
     :
0000
0000
0000
0000
,
0000
0000
0000
0000
,
0000
0000
0000
0000
,
0000
0000
0000
0000
,
0000
0000
0000
0000
,
0000
0000
0000
0110
,
1002
0003
0200
0300
,
2000
3000
0010
0001
,
1000
1000
1000
0010
,
0100
0100
0100
0110
,
2001
3000
0200
0300
,
0002
0003
0010
1000
,
0001
0001
0001
1000
,
0220
0000
0330
0000
,
1001
0000
0100
1000
,
0010
0000
0100
0100
0000
0000
0001
0000
,
0010
1000
0010
0001
,
0200
0300
0020
0030
,
1000
0010
0100
0001
,
0010
0000
0100
0100
0000
0000
1000
0000
,
0010
0001
0010
1000
,
1001
0000
0000
0001
,
0101
0000
0000
0100
0010
0000
1000
0000
,
0001
1000
1001
0000
,
0001
0010
0100
0000
0010
0000
0100
1000
,
0010
0000
0100
0010
,
0110
0000
0000
0100
0001
0000
0010
0000
,
0100
1000
1001
0000
,
0001
0100
1000
0000
0100
0000
1000
0100
,
0002
0000
0003
1010
,
0110
0000
0000
0001
0100
0000
0010
0000
,
1000
0010
0100
0001
,
1000
0100
1000
0000
0001
0000
0100
0001
,
0100
0000
0001
0011
,
0110
0000
0000
0000
1000
0100
1000
0000
,
0001
0100
0001
0000
0100
0000
0000
0010
,
1000
0001
0100
0110
,
1001
0000
0000
0000
,
0200
0300
2000
3000
,
0002
0003
0100
1000
,
0001
0000
0000
0001
0001
0000
0100
0000
,
1000
0000
0000
1000
1000
0000
0010
0000
,
0210
0300
0002
0003
,
0020
0030
0100
1000
,
0010
0000
0000
0010
0010
0000
0001
0000
,
0200
0000
0300
0110
,
1001
0000
0000
1000
0100
1000
0100
0010
,
0001
0010
0001
0000
0000
0000
1000
0000
,
0001
0100
0001
0000
0010
0000
0100
1000
,
0100
0000
0001
1001
,
0110
0000
0000
1000
0010
1000
0010
0100
,
0001
0100
0001
0000
0000
0000
0010
0000
,
0001
1000
0010
0110
,
1001
0000
0000
0000
1000
0001
1000
0001
,
0200
0000
0300
0000
;

//---------------dance-single - ----------------
#NOTES:
     dance-single:
     :
     Hard:
     8:
     :
0000
0000
0000
0000
,
0000
0000
0000
0000
,
0000
0000
0000
0000
,
0000
0000
0000
0000
,
0000
0000
0000
0000
,
0000
0000
0000
0011
,
0201
0000
0300
0100
0002
0000
0003
0001
,
2000
0000
3000
1000
0100
0000
0001
0100
,
1000
0000
0000
1000
0000
0000
1000
0000
0001
0000
0000
0000
0001
0000
0100
0000
,
1000
0000
0000
1000
0000
0000
1000
0000
0100
0000
0000
0000
1010
0000
0000
0000
,
1200
0000
0300
0100
2000
0000
3000
1000
,
0002
0000
0003
0001
0100
0000
0010
1000
,
0100
0000
0000
0100
0000
0000
0100
0000
0010
0000
0000
0000
0001
0000
0100
0000
,
0020
0000
0030
0000
,
1001
0000
0000
0000
1000
0020
0000
0100
,
0000
1000
0000
0130
0000
1000
0100
1000
,
0010
0000
0000
0100
0001
0020
0000
0100
,
0000
0000
0001
0000
0000
0000
0031
0000
0100
0000
0000
0100
0010
0000
0000
0010
,
1000
0000
0000
0001
0100
0010
1000
0200
,
0000
0010
0000
1000
0000
0310
0001
1000
,
0001
0000
0100
0010
0100
0002
0000
1000
,
0000
0000
0100
0000
0000
0000
1003
0000
0001
0000
0000
0010
0100
0000
0000
0100
,
2000
0000
0000
3001
0010
0001
0100
0010
,
1000
1010
0101
0100
,
0001
1000
0100
0010
0000
0001
1000
0001
,
0010
0000
0000
0001
1000
0000
0000
0100
0010
0000
0000
0001
1000
0000
0000
1000
,
0002
0000
0000
0103
0001
0010
0100
1000
,
0010
1010
0101
1000
,
0001
0100
0010
1000
0000
0001
0100
0001
,
2000
0000
3001
1010
,
0102
0000
0000
0103
0010
0100
0001
0010
,
0100
1000
0001
0000
0001
0000
1000
0000
,
1000
0010
0100
0001
0000
1000
0010
1000
,
0001
0000
0000
0010
0100
0000
0000
1000
0001
0000
0000
0000
0011
0000
0000
0000
,
2100
0000
0000
3100
0010
0100
1000
0010
,
0100
0001
1000
0000
1000
0000
0001
0000
,
0001
0010
0100
1000
0000
0001
0010
0001
,
2000
0100
0100
3100
,
1000
1000
0000
0001
0100
0100
0000
0001
,
1000
0000
0010
0100
0001
0010
0001
1000
,
0200
0000
0000
0310
0100
1000
0010
0100
,
0010
0000
0000
0010
0100
0000
0000
0100
0001
0000
0000
0001
1000
0000
0000
0000
,
1001
0001
0000
0100
1000
1000
0000
0100
,
0001
0000
0000
0010
0001
1000
0100
0010
,
0200
0000
0000
1300
0010
0100
0001
1000
,
0001
0000
0000
1000
0100
0000
0000
0100
0010
0000
0000
0000
0011
0000
0000
0000
,
0102
0000
0000
0013
0100
0010
0001
0100
,
0001
1000
0010
0000
0100
0000
0101
0000
,
0001
0100
0010
1000
0000
0001
0100
0001
,
1000
0000
0000
0010
0100
0000
0000
0001
1000
0000
0000
0000
1100
0000
0000
0000
,
0012
0000
0000
0103
0010
0100
0001
0010
,
0001
1000
0100
0000
0010
0000
0011
0000
,
1000
0100
0010
0001
0000
0000
0011
0000
,
2200
0000
3300
0000
1000
1000
0001
0001
,
2002
0000
0000
0000
,
3003
0000
0000
0000
;
