#TITLE:Here I Go Again;
#ARTIST:NM feat. Malaya;
#BANNER:Here I Go Again.png;
#BACKGROUND:Here I Go Again-bg.png;
#CDTITLE:./CDTITLES/Dance Dance Revolution HOTTEST PARTY.png;
#MUSIC:Here I Go Again.ogg;
#SAMPLESTART:43.291;
#SAMPLELENGTH:15;
#DISPLAYBPM:97;
#BPMS:0=97.2,8=97;

//---------------dance-single - ----------------
#NOTES:
     dance-single:
     :
     Beginner:
     1:
     :
0000
0000
0000
0000
,
0000
0000
0000
0000
,
0000
0000
0000
0000
,
0000
0000
0000
0000
,
0000
0000
0000
0000
,
0000
0000
0000
0000
,
0010
0000
0000
0000
,
0000
0000
0000
0000
,
0010
0000
0000
0000
,
0000
0000
0000
0000
,
0100
0000
0000
0000
,
0000
0000
0000
0000
,
0100
0000
0000
0000
,
1000
0000
0000
0000
,
0001
0000
0010
0000
,
0100
0000
1000
1000
,
0000
0000
0000
0001
,
1000
1000
0000
0000
,
1000
0000
1000
0000
,
0001
0000
0001
0000
,
0010
0000
0000
0000
,
0100
0000
0000
0000
,
1000
0000
1000
0000
,
0001
0000
0001
0000
,
0010
0000
0000
0000
,
0100
0000
0000
0000
,
0110
0000
0000
0000
,
0000
0000
0010
1000
,
0001
0001
0000
0000
,
0010
0100
0010
0000
,
0110
0000
0000
0000
,
0000
0000
0010
1000
,
0001
0001
0000
0000
,
0001
0010
0100
1000
,
0000
0010
0000
1000
,
0000
0010
0000
0001
,
0000
0010
0000
1000
,
0100
0000
0010
0000
,
1000
0000
0000
0000
;

//---------------dance-single - ----------------
#NOTES:
     dance-single:
     :
     Easy:
     3:
     :
0000
0000
0000
0000
,
0000
0000
0000
0000
,
0000
0000
0000
0000
,
0000
0000
0000
0000
,
0000
0000
0000
0000
,
0000
0000
0002
0000
,
0103
0000
0000
0010
,
0000
0100
0000
0010
,
0000
0100
0000
0001
,
0000
0100
0000
1000
,
1000
0010
0000
0100
,
0000
0010
0000
0100
,
0000
0010
0000
0001
,
0001
0010
0000
1001
,
0001
0010
0100
1000
,
0010
0100
0020
0030
,
0000
0000
0000
2000
,
0002
0000
3003
0000
,
0200
0300
0001
0000
,
0020
0030
1000
0000
,
0002
0000
0000
0003
,
0000
0000
0110
0000
,
0200
0300
1000
0000
,
0020
0030
0001
0000
,
2000
0000
0000
3000
,
1001
0000
1000
1001
,
0110
0000
2000
3000
,
0000
0001
0100
0001
,
1001
0000
0000
0000
,
0100
0001
1001
0100
,
0110
0000
2000
3000
,
0000
1000
0100
0001
,
0011
0000
0000
0000
,
1000
0100
0010
0001
,
0200
0300
0000
0001
,
0000
1000
0000
0001
,
2001
0000
0000
3001
,
0020
0030
0000
0000
,
1000
0000
0000
0000
;

//---------------dance-single - ----------------
#NOTES:
     dance-single:
     :
     Medium:
     4:
     :
0000
0000
0000
0000
,
0000
0000
0000
0000
,
0000
0000
0000
0000
,
0000
0000
0000
0000
,
0000
0000
0000
0000
,
0000
0000
2000
0000
,
3010
0000
0000
0000
0001
0001
0100
0000
,
0010
0000
0000
0000
1000
1000
0100
0000
,
0010
0000
0000
0000
0001
0001
1000
0000
,
1100
0000
0010
0000
1000
0001
1001
0000
,
0100
0000
0000
0000
1000
1000
0010
0000
,
0100
0000
0000
0000
0001
0001
0010
0000
,
0100
0000
0000
0000
1000
1000
0001
0000
,
0011
1000
0001
0110
,
1000
0100
0010
0001
,
0100
0000
0010
1000
0200
0000
0300
0000
,
0010
1000
0010
0000
1000
0100
0002
0000
,
2000
0000
3003
0000
,
0020
0030
1000
0100
,
0200
0300
0001
1000
,
2000
0010
0001
3100
,
0001
1000
0001
0000
0110
0000
0000
0000
,
0020
0030
0001
0100
,
0200
0300
1000
0001
,
0002
0010
1000
0103
,
1000
0001
1000
0000
0010
0000
0001
0000
,
0100
0000
0000
0002
0000
0000
0003
0000
,
0000
0000
0000
0000
0010
0010
1000
0001
,
0001
0000
0000
0000
,
0010
0010
1000
0001
0001
1000
1000
0010
,
0100
0000
0002
0003
,
0000
0000
0000
0000
0010
0010
1000
0001
,
0001
0000
0000
0000
,
0001
0010
0100
1000
0001
0000
0101
0000
,
0020
0000
0030
0000
0000
1000
1000
0000
,
0200
0300
0000
0010
,
0001
0000
0100
0010
0010
1000
0001
0000
,
0200
0300
0010
0000
,
1000
0000
0000
0000
;

//---------------dance-single - ----------------
#NOTES:
     dance-single:
     :
     Hard:
     6:
     :
0000
0000
0000
0000
,
0000
0000
0000
0000
,
0000
0000
0000
0000
,
0000
0000
0000
0000
,
0010
0001
0010
0100
0000
1000
0000
0010
,
0001
0010
0100
1000
0000
2001
0000
0010
,
3001
0000
0000
0000
0100
0000
1000
0010
0000
0001
0100
0000
1000
0000
0000
0000
,
1000
0000
0000
0000
1100
0000
0001
0010
0000
1000
0100
0000
0001
0000
0000
0000
,
0001
0000
0000
0000
0011
0000
1000
0100
0000
0001
0010
0000
1000
0000
0000
0000
,
1000
0010
0100
0001
0000
1000
0000
0001
,
0001
0000
0010
0000
1000
0000
0100
0010
0000
0001
1000
0000
0100
0000
0000
0000
,
1000
0000
0010
0000
0001
0000
0100
0010
0000
1000
0001
0000
0100
0000
0000
0000
,
0001
0000
0100
0000
1000
0000
0010
0100
0000
0001
1000
0000
0010
0000
0010
0000
,
0100
1000
0100
0001
0220
0000
0330
0000
,
1000
1100
0010
0011
,
0001
1000
0100
0001
0100
1000
1010
0000
,
0100
0000
0101
0000
0010
0100
1000
0000
,
0020
0032
2003
3200
,
0310
0000
0010
0100
0100
1000
0100
0001
,
0100
0000
0100
0010
0010
0001
0010
1000
,
0100
1010
0010
0101
,
0101
0100
1100
0000
0010
0010
0110
0000
,
0010
0100
0010
0100
0100
1000
0100
0001
,
0100
0010
0100
0010
0010
0001
0010
1000
,
0010
0101
0100
1010
,
0101
0100
1100
0001
0010
0010
0110
1000
,
2000
0000
0000
3200
0000
0302
0000
0200
,
0003
0000
0000
0302
0000
0000
0000
0000
,
0203
0000
0000
0000
0000
2300
0000
0000
,
3020
0000
0000
0000
0000
0230
0000
0000
,
0302
0000
0000
0023
0000
2030
0000
0020
,
3000
0000
0000
2030
0000
0000
0000
0000
,
3020
0000
0000
0000
0000
0032
0000
0000
,
1003
0000
0000
0000
0101
0000
0000
2200
0000
0000
0000
0000
3300
0000
0000
0000
,
0010
0010
1000
1000
0010
0001
0010
1000
,
1001
0001
0100
0100
0001
0010
0110
0000
,
2000
3002
0103
0110
,
0101
0000
1010
0000
0001
0010
0100
1000
,
1100
0000
0000
0000
;
