#TITLE:Heavens and the Earth;
#ARTIST:The Lonely Hearts;
#BANNER:Heavens and the Earth.png;
#BACKGROUND:Heavens and the Earth-bg.png;
#CDTITLE:./CDTitles/DDR HOTTEST PARTY.png;
#MUSIC:Heavens and the Earth.ogg;
#SAMPLESTART:47.983;
#SAMPLELENGTH:15;
#BPMS:0=70;

//---------------dance-single - ----------------
#NOTES:
     dance-single:
     :
     Beginner:
     2:
     :
0000
0000
0000
0000
,
0000
0000
0000
0000
,
0000
0000
0000
0000
,
0000
0000
0000
0000
,
0100
0000
1000
0000
,
1000
0000
0010
0000
,
0100
0000
1000
0000
,
0001
0000
0100
0000
,
0001
0000
0010
0000
,
1001
0000
0000
0000
,
0000
0000
1000
1000
,
1000
0000
0001
0001
,
0001
0000
0010
0010
,
0010
0000
0000
0000
,
0010
0000
0001
0000
,
0001
0000
0100
0000
,
1000
0000
1000
0000
,
0100
0000
0010
0000
,
0001
0000
1000
0000
,
1000
0000
0001
0000
,
0001
0000
0000
0100
,
0010
0000
0000
0000
,
0010
0000
1000
0000
,
0010
0000
1000
0000
,
0010
0000
0010
0001
,
0100
0000
0110
0000
,
0000
0000
1000
0001
,
1000
0000
0001
1000
,
0001
0000
0100
0010
,
0100
0000
0000
0000
,
0100
0000
1000
0000
,
0001
0000
0010
0000
,
0100
0000
0010
1000
,
0001
1000
0100
1000
,
0010
0000
0000
0000
;

//---------------dance-single - ----------------
#NOTES:
     dance-single:
     :
     Easy:
     3:
     :
0000
0000
0000
0000
,
0000
0000
0000
0000
,
0000
0000
0000
0000
,
0000
0000
0000
0000
,
0200
0300
0010
0100
,
0020
0030
0010
1000
,
0200
0300
1000
0001
,
0001
0010
0200
0300
,
0002
0003
0010
0100
,
0002
0003
0100
1000
,
0002
0003
2000
0000
,
3000
0000
0020
0000
,
0030
0000
2000
0000
,
3000
0000
0000
0000
,
0020
0030
0002
0003
,
2000
3000
0200
0300
,
0002
0003
0200
0300
,
1000
0100
0010
0001
,
0002
0003
2000
3000
,
0020
0030
0002
0003
,
0200
0300
0000
0010
,
0200
0000
0300
0000
,
0020
0030
2000
3000
,
0020
0030
2000
3000
,
0020
0030
0001
0001
,
0100
0000
0200
0300
,
0020
0030
2000
3001
,
0020
0030
0002
1003
,
0200
0300
0020
0030
,
2000
3000
0002
0003
,
0200
0300
2000
3000
,
0002
0013
0020
0130
,
0200
0300
0010
2000
,
3002
1003
0100
1001
,
0020
0000
0030
0000
;

//---------------dance-single - ----------------
#NOTES:
     dance-single:
     :
     Medium:
     5:
     :
0000
0000
0000
0000
,
0000
0000
0000
0000
,
0000
0000
0000
0000
,
0000
0000
0000
0000
,
0200
0000
0300
0010
0010
0100
0100
0001
,
0020
0000
0030
0010
0200
0300
0002
0003
,
2000
0000
3000
1000
0100
0010
0001
0010
,
0002
0000
0000
0000
0023
0000
0000
0000
0230
0000
0000
0310
0000
0000
2000
0000
,
0002
0000
3003
0000
0010
0001
0100
1000
,
0002
0000
0000
0023
0000
0000
0000
0000
0230
0000
0000
0000
1300
0000
2000
0000
,
0002
0000
0000
0000
3003
0000
0000
0000
0010
0000
1000
0001
0000
0000
0000
2002
,
0000
0000
0000
0000
3003
0000
0100
0100
0010
0000
1000
0000
0001
0000
0000
2002
,
0000
0000
0000
0000
3003
0000
0000
0100
0010
0000
1000
0000
0001
0000
0000
2002
,
0000
0000
3003
0000
,
0020
0000
0000
0000
0030
0000
0010
0000
0002
0000
0003
2000
0000
3000
0002
0000
,
2000
0000
0000
0000
3003
0000
0010
0010
2000
0000
3000
0002
0000
0003
2000
0000
,
0002
0000
0000
0000
3003
0000
0000
0000
0001
0000
0000
0010
0000
0000
0100
0000
,
1000
0000
0000
0010
0000
0000
0001
0000
0001
0000
0000
0000
0200
0000
0000
0000
,
0301
0000
0000
0000
0000
1000
1000
0000
0001
0000
0000
0010
0000
0000
0110
0000
,
0200
0000
0000
0000
0300
1000
1000
0000
0001
0000
0000
0001
0000
0000
0100
0000
,
0100
0000
1000
1000
0000
0000
0000
0000
0000
0000
0000
0000
0010
0000
0010
0000
,
0200
0000
0000
0000
0300
0001
1000
0001
0000
0000
0000
0000
0000
0000
0010
0000
,
0020
0000
0030
1000
0001
1000
0001
0100
,
0020
0000
0030
0010
1000
1000
0001
0010
,
0200
0000
0300
1000
1000
0001
0010
0100
,
1000
0000
0000
0100
0000
0000
1000
0000
0020
0000
0230
0000
0302
0000
0003
0000
,
0020
0000
0030
0002
2003
0000
3002
0003
,
0020
0000
0030
0200
2300
0000
3020
0030
,
0200
0000
0300
2000
3020
0000
0032
0003
,
2000
0000
3000
1000
0002
0000
0023
0030
,
0200
0000
0300
1000
2000
0000
3200
0300
,
0002
0000
0000
0000
0203
0000
0000
0000
2300
0000
0000
3001
0000
0000
0001
0000
,
0200
0000
0000
0300
0010
0100
1000
0100
,
0002
0000
0000
1000
0003
0000
0200
0000
0320
0000
0000
0000
1030
0000
0100
0000
,
0020
0000
0000
0000
0000
0030
0000
0000
;

//---------------dance-single - ----------------
#NOTES:
     dance-single:
     :
     Hard:
     8:
     :
0000
0000
0000
0000
,
0000
0000
0000
0000
,
0000
0000
0000
0000
,
0000
0000
0000
0000
,
1010
0000
0100
0000
0001
0000
1000
0010
1000
0000
0100
0000
0001
0000
0100
0000
,
0011
0000
0100
0000
1000
0000
0001
0010
0001
0000
0100
0000
1000
0000
0100
0000
,
1100
0010
0001
1000
0010
0001
0010
1000
,
1100
0000
0010
0000
1000
0000
0001
0000
0020
0000
0000
0130
0000
0000
1000
0000
,
1002
0000
1003
0000
0001
0010
1000
0010
,
0002
0000
0000
0013
0000
0000
0100
0000
1001
0000
0000
0000
0100
0000
0010
0000
,
1010
0000
1000
0000
0010
0000
0100
0000
0010
0000
0100
0001
0000
0000
0001
0100
,
0000
0000
0001
0000
0100
0000
0010
0100
0100
0000
0010
0000
1000
0000
1000
0010
,
0000
0000
1000
0000
0010
0000
0100
0000
0010
0000
0100
0000
0001
0000
0001
0100
,
0000
1000
0100
0010
2002
0000
3003
0000
,
1010
0010
0100
0010
1000
0010
0100
0001
,
0110
0000
0100
0000
1000
0000
0100
0001
0100
0000
0010
0000
0100
0000
0001
0000
,
0101
0100
0010
0110
0010
1000
1010
0100
,
0101
0100
1010
1000
2002
3003
0000
0000
,
0011
0000
0001
0000
0000
0010
1000
0010
0001
0000
0100
0000
0010
0000
1000
0000
,
1100
0000
1000
0000
0000
0100
0001
0100
1000
0000
0010
0000
0100
0000
0001
0000
,
1010
0000
1000
0010
0000
0000
0100
0000
0001
0000
1000
0000
0010
0000
0100
0000
,
0200
0301
0001
0100
0020
1030
1001
0000
,
1010
1000
0010
0100
0101
0100
0010
0100
,
0101
0000
0110
0010
1100
0100
0010
0100
,
0011
0000
0110
0100
1010
0010
0101
0010
,
1010
0010
0110
0100
0202
0000
0303
0010
,
2000
0010
3010
0001
0100
1000
0100
0001
,
0200
1000
0301
1000
0010
0001
0010
1000
,
0200
0001
1300
0001
1000
0010
0100
0001
,
0022
0000
0033
0100
0010
1000
0010
0001
,
0220
0000
0330
0010
0100
0001
0100
1000
,
1001
0000
0011
0000
0101
0000
0011
1001
,
2002
0000
3003
0000
0010
1000
0100
0010
,
0001
0100
0010
0000
0000
0000
0110
0000
1000
0010
0100
0000
0001
0000
0100
0000
,
2200
0000
0000
3300
;
