#TITLE:Gypsy woman;
#ARTIST:neo-GRUV;
#BANNER:Gypsy woman.png;
#BACKGROUND:Gypsy woman-bg.png;
#CDTITLE:./CDTITLES/Dance Dance Revolution HOTTEST PARTY.png;
#MUSIC:Gypsy woman.ogg;
#SAMPLESTART:43.996;
#SAMPLELENGTH:15;
#BPMS:0=120;
#STOPS:126=0.5;

//---------------dance-single - ----------------
#NOTES:
     dance-single:
     :
     Beginner:
     1:
     :
0000
0000
0000
0000
,
0000
0000
0000
0000
,
0000
0000
0000
0000
,
0000
0000
0000
0000
,
0000
0000
0000
0000
,
0000
0000
0000
0000
,
0100
0000
0100
0000
,
0100
0000
0100
0000
,
0000
0000
0000
0000
,
0000
0000
0000
0000
,
0010
0000
0010
0000
,
1000
0000
0001
0000
,
0000
0000
0000
0000
,
0000
0000
0000
0000
,
1000
0000
0000
0000
,
0000
0000
1000
0000
,
0100
0000
0000
0000
,
1000
0000
0000
0000
,
0001
0000
0000
0000
,
0000
0000
1000
0000
,
0010
0000
0000
0000
,
0001
0000
0000
0000
,
1000
0000
0000
0000
,
0000
0000
0000
0000
,
0010
0000
0000
0000
,
0000
0000
0000
0000
,
0001
0000
0000
0000
,
0000
0000
0000
0000
,
0000
0000
0001
0000
,
0000
0000
1000
0000
,
0000
0000
0010
0000
,
0000
0000
1001
0000
,
0000
0001
0000
0000
,
0000
1000
0000
0000
,
0000
0001
0000
0000
,
0000
0100
0000
2000
,
0000
0000
0000
0000
,
3000
0000
0000
0000
,
0000
1001
0000
0000
,
0000
0110
0000
0000
,
1000
0000
0001
0000
,
1000
0000
0010
0000
,
0100
0000
0100
0000
,
0010
0000
0010
0000
,
0010
0000
0010
0010
,
0000
0000
0000
0000
,
0001
1000
0000
0000
,
1000
0001
0000
0000
;

//---------------dance-single - ----------------
#NOTES:
     dance-single:
     :
     Easy:
     3:
     :
0000
0000
0000
0000
,
0000
0000
0000
0000
,
0000
0000
0000
0000
,
0000
0000
0000
0000
,
0000
0000
0000
0000
,
0000
0000
0000
0000
,
0100
0100
0100
0100
,
0100
0100
0100
0100
,
1000
0000
0000
0000
,
0001
0000
0000
0000
,
0010
0100
0010
1000
,
0010
0100
0010
0001
,
1000
0000
0000
0000
,
0001
0000
0000
0000
,
1000
1000
0001
0001
,
1000
0000
1000
0001
,
0100
0100
0000
0000
,
0100
0001
0000
0000
,
0001
0001
1000
1000
,
0001
0000
0001
1000
,
0100
0100
0000
0000
,
0100
1000
0000
0000
,
2000
0000
0000
0000
,
0000
0000
0000
3000
,
0020
0000
0000
0000
,
0000
0000
0000
0030
,
0002
0000
0000
0000
,
0000
0000
0000
0003
,
0002
0003
1000
0000
0001
0000
0000
0000
,
0200
0300
0001
0000
0100
0000
0000
0000
,
2000
3000
0000
0000
1001
0000
0000
0000
,
0002
0003
0000
0000
1001
0000
0200
0300
,
0001
0000
0100
0000
0000
0000
2000
3000
,
0010
0000
0001
0000
0000
0000
0020
0030
,
1000
0000
0010
0000
0000
0000
0020
0030
,
1000
0100
0000
2000
,
0000
0100
0000
0100
,
3000
0000
0000
0000
0000
0000
2000
3000
,
0000
0000
1001
0000
0000
0000
0200
0300
,
0100
0100
0000
1000
,
0001
0100
0000
0001
,
1000
0100
0000
0100
,
0000
0100
0000
0001
,
1000
0001
0000
0010
,
0100
0010
0000
1001
,
0000
0000
0000
0000
0000
0000
2000
3000
,
0001
0000
1000
0000
0000
0000
0002
0003
,
1000
0001
0000
0000
;

//---------------dance-single - ----------------
#NOTES:
     dance-single:
     :
     Medium:
     5:
     :
0000
0000
0000
0000
,
0000
0000
0000
0000
,
0000
0000
0000
0000
,
0000
0000
0000
0000
,
0000
0000
0000
0000
,
0000
0000
0000
0000
,
1000
1000
1000
0000
,
0001
1000
0001
0000
,
1000
1100
1000
0000
,
1000
1100
1000
0000
,
0100
1001
0100
0000
,
0010
1001
0010
0000
,
1000
1100
1000
0000
,
1000
1100
0000
0000
,
1000
0100
0010
0001
,
1000
0001
0000
0000
1000
0000
0010
0000
,
0100
0100
0000
0000
,
1000
1000
0000
0000
,
0001
0010
0100
1000
,
1000
0001
0000
0000
1000
0000
0100
0000
,
0010
0010
0000
0000
,
0001
0001
0000
0000
,
1000
0000
1000
0000
0001
0000
0001
0200
,
0000
0300
0001
0010
,
0010
0100
0000
0000
,
0010
1000
0000
0000
,
0000
0001
1000
0001
,
0001
0000
0010
0100
0010
0000
1000
0000
,
0002
0003
0100
0010
1000
0000
0001
0000
,
0200
0300
0001
1000
0100
0000
0100
0000
,
2000
3000
0001
0000
1001
0000
0010
0000
,
0002
0003
1000
0000
1001
0000
0200
0300
,
0001
1000
0100
0000
0001
0000
2000
3000
,
0010
0100
0001
0000
1000
0000
0020
0030
,
1000
0001
0010
0000
0100
0000
0020
0030
,
1000
0001
0100
0000
1000
0000
2000
0100
,
0100
0000
0000
0000
0000
0000
0100
0100
,
3100
0000
0000
0000
0010
0000
2000
3000
,
0010
0010
1001
0000
0100
0000
0200
0300
,
0100
0000
0100
0000
0000
0000
1000
0100
,
1000
0000
1000
0000
1000
0000
0001
0010
,
0001
0000
0001
0000
0001
1000
0100
0000
,
0010
0100
0010
0001
,
1000
0001
1000
0010
,
0100
0010
0100
1001
,
0110
0000
0100
0100
0100
0000
2000
3000
,
0001
0001
0001
0000
1000
0000
0002
0003
,
1000
1000
1000
0000
0000
0000
0000
0000
;

//---------------dance-single - ----------------
#NOTES:
     dance-single:
     :
     Hard:
     7:
     :
0000
0000
0000
0000
,
0000
0000
0000
0000
,
0000
0000
0000
0000
,
0000
0000
0000
0000
,
0001
0001
0001
0000
0000
0000
0000
0000
,
1000
1000
1000
0000
0000
0000
0000
0000
,
1000
1000
1000
1000
,
0001
0001
0001
0001
,
0010
0100
1100
0000
0100
0010
0011
0000
,
0010
0100
1010
0000
0100
0010
0101
0000
,
0100
1000
0100
1000
0100
1000
0100
1000
,
0001
0010
0001
0010
0001
0010
0001
0010
,
0010
0100
1100
0000
0100
0010
0011
0000
,
0010
0100
1010
0000
0100
0010
0101
0000
,
1000
0000
0100
1000
0010
0100
0001
0000
,
1000
0001
0000
0000
1000
0100
0010
0000
,
0010
0001
0100
0000
0100
0010
1000
0000
,
1000
0100
0010
0000
0010
0001
0100
0000
,
0001
0000
0010
0001
0100
0010
1000
0000
,
1000
0001
1000
0000
1000
0000
0100
0000
,
0100
1000
0010
0000
0010
0100
0001
0000
,
0001
0010
0100
0000
0100
1000
0010
0000
,
1000
0001
1000
0000
1000
0100
1000
0020
,
0000
0030
0001
0010
,
0010
0001
0100
0000
0010
1000
0100
0000
,
0010
0001
1000
0000
0010
1000
0001
0000
,
0000
0000
0001
0000
0001
1000
0001
0000
,
0001
0010
0001
0100
0010
0000
1000
0100
,
0002
0003
0100
1000
0010
0000
0001
0010
,
0200
0300
0001
1000
0100
0000
0100
1000
,
2010
3000
0001
1000
1001
0000
0010
0001
,
0102
0003
1000
0001
1001
0000
0200
0300
,
0001
1000
0100
0000
0001
0010
2000
3000
,
0010
0001
0100
0000
1000
0100
0020
0030
,
1000
0001
0010
0000
0100
1000
0020
0030
,
1000
0001
0100
0000
1000
0010
2000
0100
,
0100
0000
0100
0100
0010
0000
0100
0100
,
3001
0000
0100
0100
0010
1001
2010
3000
,
0010
1001
0010
0000
0000
0000
0000
0000
,
0000
0000
0000
0000
0000
0000
0010
0100
,
1000
0100
1000
0000
0010
0000
0100
0000
0001
0010
0001
0000
0010
0000
0100
0000
,
1000
0100
1000
0000
0010
0000
0100
0000
0001
0010
0001
0000
0010
0000
0000
0000
,
0001
0010
0001
1000
,
0001
0000
1000
0000
0001
0100
0110
0000
,
0001
0000
0010
0000
0100
0100
1001
0000
,
0110
0000
0100
0100
0001
0001
2000
3000
,
1000
1000
0001
0000
1000
1000
0002
0003
,
0001
0001
1000
0000
0000
0000
0000
0000
;
