#TITLE:Finally;
#ARTIST:CLUB 90's;
#BANNER:Finally.png;
#BACKGROUND:Finally-bg.png;
#CDTITLE:./CDTITLES/Dance Dance Revolution HOTTEST PARTY.png;
#MUSIC:Finally.ogg;
#SAMPLESTART:25.851;
#SAMPLELENGTH:15;
#DISPLAYBPM:130;
#BPMS:0=129.8,8=130;
#STOPS:200=0.694;

//---------------dance-single - ----------------
#NOTES:
     dance-single:
     :
     Beginner:
     1:
     :
0000
0000
0000
0000
,
0000
0000
0000
0000
,
0000
0000
0000
0000
,
0000
0000
0000
0000
,
0001
0000
0000
0000
,
1000
0000
0000
0000
,
0001
0000
0001
0000
,
0001
0000
0000
0000
,
1000
0000
1000
0000
,
1000
0000
0000
0000
,
0001
0001
0001
0000
,
1000
0000
0001
0000
,
1000
0000
0001
0000
,
2000
0000
0000
3000
,
1000
1000
1000
0000
,
0001
0000
1000
0000
,
0001
0000
1000
0000
,
0001
0000
0001
0000
,
1001
0000
0000
0000
,
1000
0000
0000
0000
,
1000
0000
0000
0000
,
0001
0001
0001
0001
,
1000
0000
0000
0000
,
0001
0000
0000
0000
,
1000
1000
1000
1000
,
0001
0001
0001
0001
,
2000
0000
0000
3000
,
1000
0000
1000
0000
,
0002
0000
0000
0003
,
0001
0000
0000
0000
,
2000
0000
0000
3000
,
1000
0000
0000
0000
,
1001
0000
0000
0000
,
1000
0001
1000
1000
,
0001
0000
0001
0000
,
1000
0000
0001
0000
,
1000
0000
0001
0000
,
2000
0000
0000
3000
,
1000
0000
1000
0000
,
0001
0000
1000
0000
,
0001
0000
1000
0000
,
0001
0000
0001
0000
,
1000
0000
0001
0000
,
2000
0000
0000
3000
,
1000
1000
1000
1000
,
0001
0001
0001
0001
,
1000
0000
1000
0000
,
0002
0000
0000
0003
,
0001
0001
0001
0001
,
1000
1000
1000
1000
,
0002
0000
0000
0003
,
0001
0000
0000
0000
;

//---------------dance-single - ----------------
#NOTES:
     dance-single:
     :
     Easy:
     4:
     :
0000
0000
0000
0000
,
0000
0000
0000
0000
,
0000
0000
0000
0000
,
0000
0000
0000
0000
,
0002
0000
0003
0000
,
2000
0000
3000
0000
,
0010
0100
0010
0000
,
0010
0000
0010
0000
,
0001
1001
0001
0000
,
1000
1000
1000
0000
,
0001
1000
0100
0000
,
0010
0100
0010
0000
,
0001
0100
1000
0000
,
0100
0010
0100
0000
,
1000
0001
0010
0000
,
0100
0010
0100
0000
,
1000
0010
0001
0000
,
0010
0100
0010
0000
,
1001
0000
0010
0000
,
1000
0100
0100
0000
,
0001
0000
1000
1000
,
0001
0100
0100
0000
,
1000
0000
0001
0000
,
0100
0010
0010
0000
,
1000
0100
1000
1001
,
0100
0010
0100
0000
,
2000
0000
0000
3000
,
0010
0100
0010
0000
,
0200
0300
0020
0030
,
1000
0100
0001
0000
,
0020
0000
0000
0030
,
0001
0100
1000
0000
,
0020
0000
0000
0030
,
1000
0001
1001
0000
,
0010
0100
0010
0000
,
1000
0100
0001
0000
,
0001
0100
1000
0000
,
0001
1000
0001
0000
,
0100
0010
0100
0000
,
0001
0100
1000
0000
,
1000
0100
0001
0000
,
1000
0001
1000
0000
,
0001
0101
1000
1100
,
0002
0000
0000
0003
,
1000
1000
0010
0010
,
0100
0100
0001
0000
,
1000
1100
0001
0101
,
2000
0000
0000
3000
,
0001
0001
0010
0010
,
0100
0100
1000
0100
,
1001
0000
2002
0000
0000
3003
0000
0000
,
0220
0000
0000
0330
0000
0000
0000
0000
;

//---------------dance-single - ----------------
#NOTES:
     dance-single:
     :
     Medium:
     5:
     :
0000
0000
0000
0000
,
0000
0000
0000
0000
,
0000
0000
0000
0000
,
0000
0000
0000
0000
,
0001
0001
1000
0000
,
0100
0100
0010
0000
,
0100
0010
0200
0300
,
0010
0100
0020
0030
,
1000
1001
2000
3000
,
0001
1001
0002
0003
,
1000
0010
2000
3000
,
0001
0100
0002
0003
,
1000
0100
2000
3000
,
0001
0010
0002
0003
,
1000
0010
0200
0310
,
1000
0010
0200
0301
,
1000
0100
0020
0130
,
0001
0100
0020
0130
,
0210
0000
0301
0001
,
0011
0001
0100
0000
,
0210
0000
1300
1000
,
0010
1000
1001
0000
,
0010
1000
1100
1000
,
0010
0001
0101
0001
,
0001
0010
0001
1001
,
0100
1000
1001
0000
,
0220
0000
0330
0000
,
0120
0130
1001
0000
,
0102
1003
1100
0000
,
1010
0000
0011
0000
,
2001
3010
0110
0000
,
0100
1000
0001
1000
,
1001
0000
0110
0000
,
0020
2030
3001
1001
,
0001
0010
0002
0003
,
1000
0100
2000
3000
,
0001
0100
0002
0003
,
1000
0010
2000
3000
,
0001
0010
0200
1300
,
0001
1000
0020
1030
,
0100
0001
0200
0301
,
0010
0001
2000
3010
,
1000
0000
0100
0000
1000
0100
1000
0000
,
0001
0100
0001
0000
0100
0001
0100
0000
,
0110
0000
1000
0000
0001
1000
0001
0000
,
0010
0000
0100
0000
0010
0100
0010
0000
,
1001
0000
0010
0000
0001
0010
0001
0000
,
1000
0010
1000
0000
0010
1000
0010
0000
,
0110
0000
0001
0000
1000
0001
1000
0000
,
0100
0000
0010
0000
0100
0010
0100
0000
,
1001
0000
0020
0000
0000
2030
0000
0000
,
3001
0000
0000
1001
0000
0000
0000
0000
;

//---------------dance-single - ----------------
#NOTES:
     dance-single:
     :
     Hard:
     8:
     :
0000
0000
0000
0000
,
0000
0000
0000
0000
,
0000
0000
0000
0000
,
0000
0000
0000
0000
,
0002
0003
2000
3000
,
0200
0300
0020
0030
,
0110
0010
0100
0010
,
0001
1001
0001
0101
,
1000
0001
1000
0001
,
0010
0100
0010
1000
,
0010
0000
1001
0000
0010
1000
0100
0000
,
0010
0000
0110
0000
0010
0001
0100
0000
,
1000
0100
1000
0000
0001
0100
0001
0000
,
0010
0001
0010
0000
1000
0010
1000
0000
,
0010
0000
1001
0000
0100
0010
0100
0000
,
0001
0000
0110
0000
1000
0001
0100
0000
,
0010
1000
0001
0000
0001
1000
0100
0000
,
0010
0001
0100
0000
0010
1000
0001
0200
,
0010
0000
0010
0000
0010
0000
0310
2000
,
0100
0000
0100
0000
0100
0000
3100
0020
,
0001
0000
0001
0000
0001
0000
0031
1000
,
0100
0000
0100
1000
0002
0000
0013
0000
,
0110
0000
0001
0100
0010
0000
0110
0000
,
1000
0000
0100
1000
0010
0000
0110
0000
,
0001
0010
0100
0000
1000
0100
0010
0000
,
0001
0100
0010
1000
0002
0000
1003
0000
,
0010
0100
1000
0100
0020
0000
0031
0000
,
0100
0010
1000
0010
0200
0000
0301
0000
,
1000
0000
0000
0100
0010
0000
0000
0001
0100
0000
0000
0010
1000
0000
0000
0100
,
0010
0001
0100
0010
0100
0000
0010
0000
,
0001
0100
1000
0100
0020
0000
1030
0000
,
0001
0100
0010
1000
0100
0001
0100
0000
,
2000
0000
3000
0001
0200
0000
0310
0000
,
1000
0100
1000
0000
0100
0010
0100
0000
0010
0000
0001
0000
0001
0000
0001
0000
,
1001
0000
0010
0100
2000
0000
3010
2000
,
0000
3100
0020
0001
0000
0031
0100
0020
,
0000
1030
0001
0020
0000
0130
1000
0002
,
0000
0103
0010
2000
0000
3001
0000
0000
,
0001
1000
0100
0010
0002
0000
0103
0000
,
1000
0010
0100
0001
2000
0000
3010
0000
,
0001
0100
0010
0000
1000
0100
0010
0000
,
0001
1000
0100
0000
0001
1000
0010
0000
,
1000
0001
0100
1000
0100
0010
1000
0100
,
0010
0010
0001
0001
0100
0100
0010
0010
,
2000
0000
3001
0000
0010
0001
0100
0000
,
0010
1000
0100
0000
0010
0100
1000
0000
,
0001
1000
0100
0001
0100
0010
0001
0100
,
0010
0010
1000
1000
0100
0100
0010
0010
,
0002
0000
1003
0000
0100
1000
0010
0000
,
0100
0001
0010
0000
0100
0010
0001
0000
,
1001
0000
0000
0000
0010
0001
0010
0001
0000
0000
1000
0010
1000
0010
0000
0000
,
0100
0010
0100
0010
0000
0000
1001
0000
0000
0000
0000
0000
0000
0000
0000
0000
;
