#TITLE:Far Away;
#ARTIST:Traveler;
#BANNER:Far Away.png;
#BACKGROUND:Far Away-bg.png;
#CDTITLE:./CDTITLES/Dance Dance Revolution HOTTEST PARTY.png;
#MUSIC:Far Away.ogg;
#SAMPLESTART:3.611;
#SAMPLELENGTH:15;
#DISPLAYBPM:133;
#BPMS:0=132.4,4=133;

//---------------dance-single - ----------------
#NOTES:
     dance-single:
     :
     Beginner:
     1:
     :
0000
0000
0000
0000
,
0000
0000
0000
0000
,
0000
0000
0000
0000
,
0000
0000
0000
0000
,
0000
0000
0000
0000
,
0000
0000
0000
0000
,
0000
0000
0001
0000
,
0000
0000
1000
0000
,
0000
0000
0001
0000
,
0000
0000
0100
0000
,
0000
0000
0001
0000
,
0000
0000
1000
0000
,
0000
0000
0100
0000
,
0000
0000
0000
0100
,
0000
0000
0001
0000
,
0000
0000
1000
0000
,
0000
0000
0010
0000
,
0000
0000
0100
0000
,
0010
0000
0000
0000
,
0100
0000
0000
0000
,
0010
0000
0000
0000
,
0110
0000
1001
0000
,
0000
0000
0010
0000
,
1000
0000
0000
0000
,
0000
0000
0001
0000
,
1000
0000
0010
0000
,
0000
0000
0010
0000
,
1000
0000
0000
0000
,
0000
0000
0001
0000
,
1000
0000
0100
0000
,
0000
0000
0010
0010
,
0000
0000
0100
0100
,
0000
0000
0010
0010
,
0000
0000
1000
1000
,
0000
0000
0001
0001
,
0000
0000
0010
0010
,
0000
0000
0100
0100
,
0000
0000
1000
1000
,
0000
0000
0001
0000
,
1000
0000
0000
0000
,
0000
0000
0001
0000
,
0100
0000
0000
0000
,
0000
0000
0001
0000
,
1000
0000
0000
0000
,
0010
0000
0010
0000
,
0100
0000
0000
0000
,
0010
0000
0000
0000
,
0010
0000
0000
0000
,
0100
0000
0000
0000
,
0110
0000
0000
0000
,
1001
0000
0000
0000
;

//---------------dance-single - ----------------
#NOTES:
     dance-single:
     :
     Easy:
     3:
     :
0000
0000
0000
0000
,
0000
0000
0000
0000
,
0000
0000
0000
0000
,
0000
0000
0000
0000
,
0000
0000
0000
0000
,
0010
1000
0001
1001
,
0000
0000
0001
0001
,
0000
0000
1000
1000
,
0000
0000
0001
0001
,
0000
0000
0100
1001
,
0000
0000
0001
0001
,
0000
0000
1000
1000
,
0000
0000
0010
1000
,
0000
0001
1000
0110
,
0000
0001
0010
1000
,
0000
1000
0010
0001
,
0000
0001
0100
1000
,
0000
1000
0100
0001
,
0000
0010
0000
0010
,
0000
0001
0000
0001
,
0000
1000
0010
1000
,
0010
0000
0010
0000
0001
1000
0001
1000
,
0000
0000
0010
0001
,
2000
0000
0000
3000
,
0000
0000
0001
0001
,
0000
1000
0000
0100
,
0000
0000
0010
0001
,
2000
0000
0000
3000
,
0000
0000
0001
0001
,
0000
1000
0000
0100
,
0000
0010
1000
0001
,
0000
0010
0000
0100
,
0000
0010
1000
0001
,
0000
1000
0000
0001
,
0000
0000
0001
0001
,
0000
1000
0000
0100
,
0000
0001
0100
1000
,
0000
0001
0000
1000
,
0000
0000
0010
0001
,
2000
0000
0000
3000
,
0000
0000
0001
0001
,
0000
1000
0000
0100
,
0000
0000
0010
0001
,
2000
0000
0000
3000
,
0010
0010
0010
0010
,
1001
0000
0000
0000
,
0010
0001
0010
0000
,
0100
1000
0100
0000
,
0100
0001
0100
1000
,
0010
1000
0001
1001
;

//---------------dance-single - ----------------
#NOTES:
     dance-single:
     :
     Medium:
     6:
     :
0000
0000
0000
0000
,
0000
0000
0000
0000
,
0000
0000
0000
0000
,
0000
0000
0000
0000
,
0000
0000
0000
0000
,
1000
0100
0001
0100
1000
0100
0001
0100
,
1000
0000
0001
1000
,
0000
0000
1000
0001
,
0000
0000
0010
0100
,
0000
0000
0000
0000
0100
0000
1000
0010
,
1000
0000
1000
1000
,
0000
0000
0001
1000
,
0000
0000
1000
1000
,
0000
0000
0001
1000
0000
0011
0000
1100
,
0000
0000
0001
0010
1000
0000
0010
0010
,
0000
0000
0001
0010
1000
0000
0010
0100
,
0000
0000
0000
0000
0010
0000
0010
0100
,
0000
0000
0010
1000
0000
1100
0000
0011
,
0000
0010
0100
0101
,
1010
0000
0100
0011
,
1100
0000
0010
0100
,
0010
0000
1000
0000
0001
0000
0100
0000
0010
1000
0010
0000
0001
0100
0001
0000
,
0000
0000
0000
0011
0010
0000
0001
0001
,
0000
2000
0000
0000
0000
0000
3000
0000
,
0000
0000
0000
0000
0011
0000
0001
0001
,
0000
0000
1000
1100
0000
0000
0100
0110
,
0000
0000
0000
0011
0010
0000
0001
0001
,
0000
2000
0000
0000
0000
0000
3000
0000
,
0000
0000
0000
0010
0010
0000
0001
0011
,
0000
0000
1000
1100
0000
0100
0000
0100
,
0000
0020
2030
3001
,
0101
0020
2030
3001
,
0101
0002
1003
1000
,
0011
0000
1000
0000
0001
0010
0100
1000
,
0001
0000
0002
2003
,
3010
0110
0002
2003
,
3010
0110
0000
2002
,
0000
0000
3003
0000
0001
0010
0100
1000
,
0002
0000
0003
1000
1000
0000
0010
0100
,
0000
0002
0000
0000
0000
0000
0003
0000
,
0000
0000
0000
1000
1000
0000
0100
0010
,
0000
0000
0001
1000
0000
0010
0000
0100
,
0000
0000
0000
1000
1000
0000
0010
0100
,
0000
0002
0000
0000
0000
0000
0003
0000
,
0001
0000
1000
0000
0001
0000
1000
0000
0001
0000
1000
0000
0010
0100
0010
0100
,
0010
0000
0001
1001
0000
0110
0000
1001
,
0000
0000
0000
0000
0000
0000
0010
1000
,
0010
0000
1000
0000
0001
0000
0010
1000
,
0010
0000
1000
0000
0001
0000
1000
0001
,
1000
0000
0001
0100
0010
1000
0001
0000
,
1001
0000
0000
0000
;

//---------------dance-single - ----------------
#NOTES:
     dance-single:
     :
     Hard:
     8:
     :
0000
0000
0000
0000
,
0000
0000
0000
0000
,
0000
0000
0000
0000
,
0000
0000
0000
0000
,
0000
0000
0000
0000
,
0010
0001
0010
0100
0010
1000
0110
0000
,
0000
0100
0001
0010
0010
1000
0100
0001
,
0000
0100
0000
0010
0000
1000
0000
0001
,
0000
0010
0001
0100
0100
1000
0010
0001
,
0000
0010
0000
0100
0000
1000
0100
0001
,
0000
0100
1000
0010
0010
0001
0100
1000
,
0000
0100
0000
0010
0000
0001
0000
1000
,
0000
0010
0000
0100
0100
0010
0100
0001
,
0000
0000
0010
0100
0000
0101
0000
1010
,
0000
0000
0011
0000
1100
0000
0010
0100
,
0000
0000
1010
0000
0101
0000
0100
0010
,
0000
0000
0000
0000
0110
0000
0100
0010
,
0000
0000
0100
0100
0000
1100
0000
0101
,
0000
0010
0100
0101
,
0010
0100
0010
0000
0010
0000
1100
0000
,
0011
0000
0100
0010
0100
0000
1010
0000
,
0100
0000
0000
0000
0010
0000
0000
0000
0001
1000
0001
1000
0001
1000
0001
1000
,
0001
0000
0000
1000
0100
1000
0010
0100
,
0010
2000
0000
0000
0001
0000
3001
0000
,
1100
0000
0000
0000
0100
1000
0010
2100
,
0000
0000
3200
0010
0000
0000
0301
1001
,
0000
0000
0000
0001
0100
0001
0010
0100
,
0010
0002
0000
0000
1000
0000
1003
0000
,
0101
0000
0000
0001
0100
0001
0010
0012
,
0000
0000
0023
0100
0000
1000
0030
0100
,
0000
0000
1000
0100
0002
0000
0203
0000
,
2300
3002
0023
0230
,
2300
0000
3200
0000
0301
0010
0011
0000
,
1010
0000
0100
0001
0100
0010
0100
1000
,
0100
0000
0101
0000
0001
0010
2000
0000
,
3020
0032
2003
3200
,
0320
0000
0032
0000
0023
0000
1030
0100
,
0101
0000
0010
1000
0010
0100
0010
0000
,
1010
0000
0100
0001
0100
1000
0100
0000
,
0001
0000
0010
0100
1000
0100
0010
0000
,
0001
0000
0010
1000
0010
0001
0010
1000
,
0010
0000
0010
0110
0000
0101
0000
1010
,
0000
0000
0010
0001
0010
1000
0010
0001
,
0001
0000
0100
0010
1000
0010
0100
0100
,
0100
1000
0100
1000
0001
0010
0001
0010
,
0100
0000
0100
0110
0000
1010
0000
0101
,
0000
0000
1000
0100
0010
0000
0010
0100
,
1000
0000
1000
0010
0001
0000
0001
0010
,
1000
0000
1000
0100
0001
0000
0001
0100
,
1000
0001
0001
0010
0100
1000
1000
0001
,
0202
0000
0000
0000
,
0303
0000
0000
0000
;
