#TITLE:Disco Inferno;
#ARTIST:OK・OK・OK;
#ARTISTTRANSLIT:OK-OK-OK;
#BANNER:Disco Inferno.png;
#BACKGROUND:Disco Inferno-bg.png;
#CDTITLE:./CDTITLES/Dance Dance Revolution HOTTEST PARTY.png;
#MUSIC:Disco Inferno.ogg;
#SAMPLESTART:36.688;
#SAMPLELENGTH:15;
#DISPLAYBPM:130;
#BPMS:0=129.6,4=130;

//---------------dance-single - ----------------
#NOTES:
     dance-single:
     :
     Beginner:
     1:
     :
0000
0000
0000
0000
,
0000
0000
0000
0000
,
0000
0000
0000
0000
,
0000
0000
0000
0000
,
0000
0000
0000
0000
,
0000
0000
0000
0000
,
1000
0000
0001
0000
,
0000
0000
0000
0000
,
0001
0000
1000
0000
,
0000
0000
0000
0000
,
1000
0000
0001
0000
,
0000
0000
0100
0000
,
0001
0000
0010
0000
,
0001
0000
0000
0000
,
1000
0000
0010
0000
,
1000
0000
0000
0000
,
0010
0000
0000
0000
,
0001
0000
0000
0000
,
1000
0000
0010
0000
,
0100
0000
0001
0000
,
1000
0000
0001
0000
,
0000
0000
0000
0000
,
0001
0000
1000
0000
,
0000
0000
0000
0000
,
1000
0000
0001
0000
,
0000
0000
0000
0000
,
0001
0000
1000
0000
,
0010
0000
0100
0000
,
1000
0000
1000
0000
,
0001
0000
0000
0000
,
0001
0000
0001
0000
,
1000
0000
0000
0000
,
0100
0000
0100
0000
,
0010
0000
0000
0000
,
0010
0000
0010
0000
,
0100
0000
0100
0000
,
0001
0000
1000
0000
,
0010
0000
1000
0000
,
0001
0000
1000
0000
,
0100
0000
1000
0000
,
0001
0000
1000
0000
,
0010
0000
1000
0000
,
0001
0000
1000
0000
,
0100
0000
0010
0000
,
2000
0000
3000
0000
,
0002
0000
0003
0000
,
2000
0000
3000
0000
,
0200
0000
0000
0300
;

//---------------dance-single - ----------------
#NOTES:
     dance-single:
     :
     Easy:
     3:
     :
0000
0000
0000
0000
,
0000
0000
0000
0000
,
0000
0000
0000
0000
,
0000
0000
0000
0000
,
0000
0000
0000
0000
,
0000
0000
0000
0000
,
1000
0001
0010
0000
,
1000
0000
0001
0000
,
1000
0001
0010
0000
,
1000
0000
0001
0000
,
1000
0001
0010
0000
,
1000
0000
0000
0000
0001
1000
0000
0000
,
0001
0000
0010
0000
,
0001
0000
0000
0000
,
1000
0000
0010
0000
,
1000
0000
0000
0000
,
0100
0000
0000
0010
,
0001
0000
0000
0000
,
1000
0000
1001
0000
,
1000
0000
0000
0000
,
1000
0001
0010
0000
,
1000
0000
0001
0000
,
1000
0001
0010
0000
,
0010
0000
0100
0000
,
1000
0001
0010
0000
,
1000
0000
0001
0000
,
1000
0001
0010
0000
,
0010
0000
0100
0000
,
0000
0100
0010
1000
,
0001
0000
0010
0100
,
1000
0010
0010
0000
,
0000
0000
0000
0000
,
0000
0100
0010
1000
,
0001
0000
0010
0100
,
1000
0010
0010
0000
,
0100
0100
0100
0000
,
0001
1000
0100
0000
,
0001
0000
1000
0000
,
0001
1000
0100
0000
,
0100
0000
0010
0000
,
0001
1000
0100
0000
,
0001
0000
1000
0000
,
0001
1000
0100
0000
,
0100
0000
0000
0000
0010
0000
0000
2000
,
0000
0000
0000
0000
3000
0000
0000
0002
,
0000
0000
0000
0000
0003
0000
0000
2000
,
0000
0000
3000
0000
,
2002
0000
0000
3003
;

//---------------dance-single - ----------------
#NOTES:
     dance-single:
     :
     Medium:
     5:
     :
0000
0000
0000
0000
,
0000
0000
0000
0000
,
0000
0000
0000
0000
,
0000
0000
0000
0000
0000
0000
0000
1000
,
0000
1000
0001
1000
0010
0000
0000
0000
,
0010
0000
0000
0000
0100
0000
0000
1000
,
0000
1000
0001
1000
0010
0000
0000
0000
,
0100
0000
0000
0000
0010
0000
0000
1000
,
0000
1000
0001
1000
0010
0000
0000
0000
,
0010
0000
0000
0000
0100
0000
0000
1000
,
0000
1000
0001
1000
0010
0000
0000
0000
,
0000
0000
0000
0000
0011
1100
0000
0000
,
0002
0000
0003
0000
0020
0000
0030
0002
,
0000
0000
0003
0011
,
0001
0010
1000
0010
0001
0010
1000
0000
,
0010
1000
0010
0100
0010
1000
0001
0000
,
0100
0100
0000
0000
0000
0010
0010
0000
,
0002
0000
0023
0000
0030
0000
0100
0100
,
2000
0000
0000
0000
3002
0000
1003
1000
,
0000
0010
0200
0000
0000
0000
0300
1000
,
0000
1000
0001
1000
0010
0000
0000
0000
,
0011
0000
0000
0000
1100
0000
0000
1000
,
0000
1000
0001
1000
0010
0000
1000
1000
,
0002
0000
2003
0000
3000
0000
0000
1000
,
0000
1000
0001
1000
0010
0000
0000
0000
,
0011
0000
0000
0000
1100
0000
0000
1000
,
0000
1000
0001
1000
0010
0000
1000
1000
,
0002
0000
1003
0000
1010
0101
0000
0000
,
0000
0000
0100
0100
0010
0000
2000
0000
,
3002
0003
0010
0100
,
1000
0100
0010
0001
0020
0000
0000
0000
,
0000
0000
0000
0030
,
0000
0010
0100
0002
,
2003
3000
0100
0010
,
0001
0010
0100
1000
0200
0000
0000
0000
,
0020
0000
0000
0000
0000
0000
0330
0001
,
0000
0001
1000
0001
0100
0000
0000
0000
,
1100
0000
0000
0000
0011
0000
0000
0001
,
0000
0001
1000
0001
0100
0000
0002
0000
,
0013
0000
0100
0000
1000
0000
0000
0001
,
0000
0001
1000
0001
0100
0000
0000
0000
,
1100
0000
0000
0000
0011
0000
0000
0001
,
0000
0001
1000
0001
0100
0000
0001
0001
,
2000
0000
3001
0000
0000
0000
0000
2000
,
0000
0010
3010
0000
0100
0001
0100
2000
,
0000
0010
3010
0000
0100
0001
0100
2000
,
0000
0010
3010
0000
0100
0001
0100
0000
,
2002
0000
0000
0000
,
3003
0000
0000
0000
;

//---------------dance-single - ----------------
#NOTES:
     dance-single:
     :
     Hard:
     8:
     :
0000
0000
0000
0000
,
0000
0000
0000
0000
,
0000
0000
0000
0000
,
0000
0000
0000
0000
0000
0000
0000
1000
,
0010
0100
0010
0100
1100
0000
0010
0100
,
0100
0010
0001
0000
1010
0000
0100
1000
,
0100
0010
0100
0010
0011
0000
0000
0100
,
0010
0100
1000
0000
0101
0000
0010
1000
,
0010
0100
0010
0100
1100
0000
0000
0100
,
0100
0010
0001
0000
1010
0000
0100
1000
,
0100
0010
0100
0010
0011
0000
0000
0100
,
0001
1000
0001
0000
0110
0110
0000
0000
,
1001
0000
1000
0100
0010
0001
0010
0001
,
0010
0100
0010
0100
1000
0001
1001
0000
,
0010
0100
1000
0010
0100
0001
1001
0000
,
0010
1000
0100
0010
0001
1000
0100
0010
,
0001
0001
1001
0000
1000
1000
1001
0000
,
0010
0010
1010
0010
0100
0100
0101
0100
,
1000
0100
1100
0000
0001
0010
0011
0000
,
0010
0001
1000
0100
0011
0110
1100
1000
,
0100
0010
0100
0010
1010
0000
0000
0000
,
0001
0101
0010
1010
0100
0101
1000
0001
,
0010
0100
0010
0100
0101
0000
0010
0001
,
0100
0010
2000
0000
0001
0000
3001
1000
,
0100
0010
0100
0010
1010
0000
0000
0000
,
0001
0011
0100
1100
0010
0011
1000
0001
,
0010
0100
0010
0100
0101
0000
0010
0001
,
1000
0100
0010
0000
0110
0110
0000
1001
,
0000
0000
0010
0001
0100
0010
1000
0001
,
0002
0000
0003
0000
0010
0010
0100
0100
,
1000
0100
0010
0100
2000
0000
0000
0000
,
0010
0010
0001
3001
,
1100
0000
0100
1000
0010
0100
0001
1000
,
2000
0000
3000
0000
0100
0100
0010
0010
,
0001
0010
0100
0010
0002
0000
0000
0000
,
0103
0000
1000
0000
1000
0000
0100
0010
0000
0010
0000
0001
0000
0000
1000
0000
,
0010
0000
0100
0000
0010
0000
1000
0001
1000
0000
0000
0000
1010
0000
0001
0000
,
0001
0000
0010
0000
0100
0000
1000
0001
1000
0000
0000
0000
0101
0000
1000
0000
,
0100
0010
0100
0010
1010
0000
0002
0010
,
0013
0100
0100
2000
0000
3010
0000
0000
,
0100
0000
0010
0000
0100
0000
0001
1000
0001
0000
0000
0000
0101
0000
1000
0000
,
1000
0000
0100
0000
0010
0000
0001
1000
0001
0000
0000
0000
1010
0000
0001
0000
,
0010
0100
1000
0100
0101
0000
0010
0001
,
1000
0100
0010
0000
0110
0110
0000
1001
,
0000
0000
1000
0000
1000
0000
0100
0010
0000
0010
0000
0001
1000
0000
1001
0000
,
0000
0000
1000
0000
1000
0000
0010
0100
0000
0100
0000
0001
1000
0000
1001
0000
,
0000
0000
0001
0000
0001
0000
0010
0100
0000
0100
0000
1000
0001
0000
1001
0000
,
2002
0000
0000
0000
,
3003
0000
0000
0000
;
