#TITLE:Confession;
#ARTIST:trance star;
#BANNER:Confession.png;
#BACKGROUND:Confession-bg.png;
#CDTITLE:./CDTITLES/Dance Dance Revolution HOTTEST PARTY.png;
#MUSIC:Confession.ogg;
#SAMPLESTART:33.616;
#SAMPLELENGTH:15;
#DISPLAYBPM:150;
#BPMS:0=150;

//---------------dance-single - ----------------
#NOTES:
     dance-single:
     :
     Beginner:
     1:
     :
0000
0000
0000
0000
,
0000
0000
0000
0000
,
0000
0000
0000
0000
,
0000
0000
0000
0000
,
0001
0000
0000
0000
,
0001
0000
0000
0000
,
1000
0000
1000
0000
,
0001
0000
0000
0000
,
0001
0000
0000
0000
,
0001
0000
0000
0000
,
1000
0000
1000
0000
,
0001
0000
0000
0000
,
0100
0000
0000
0000
,
0010
0000
0000
0000
,
0100
0000
0000
0000
,
0001
0000
0000
0000
,
0100
0000
0000
0000
,
1000
0000
1000
0000
,
0010
0000
0000
0000
,
0001
0000
0000
0000
,
2000
0000
0000
3000
,
0000
0000
0000
0000
,
0001
0000
0000
0000
,
1000
0000
0010
0000
,
1000
0000
0000
0000
,
0001
0000
0100
0000
,
0010
0000
0000
0000
,
1000
0000
0000
0000
,
0100
0000
0000
0000
,
0000
0000
0000
0000
,
0001
0000
0000
0000
,
1000
0000
0010
0000
,
1000
0000
0000
0000
,
0001
0000
0100
0000
,
0010
0000
0000
0000
,
0001
0000
1000
0000
,
0100
0000
0000
0000
,
0000
0000
0000
0000
,
0010
0000
0000
0000
,
0000
0000
0000
0000
,
0001
0000
0000
0000
,
0000
0000
0000
0000
,
1000
0000
0000
0000
,
0100
0000
0000
0000
,
0000
0000
0000
0000
,
0100
0000
0000
0000
,
0000
0000
0000
0000
,
0100
0000
0000
0000
,
0000
0000
0000
0000
,
0001
0000
0000
0000
,
1000
0000
0010
0000
,
1000
0000
0000
0000
,
0001
0000
0100
0000
,
0010
0000
0000
0000
,
1000
0000
0000
0000
,
0100
0000
0000
0000
,
0000
0000
0000
0000
,
0001
0000
0000
0000
,
1000
0000
0010
0000
,
1000
0000
0000
0000
,
0001
0000
0100
0000
,
0200
0000
0300
0000
,
0001
0000
0100
0000
,
0002
0000
0000
0000
,
0000
0000
0003
0000
,
1001
0000
0000
0000
;

//---------------dance-single - ----------------
#NOTES:
     dance-single:
     :
     Easy:
     3:
     :
0000
0000
0000
0000
,
0000
0000
0000
0000
,
0000
0000
0000
0000
,
0000
0000
0000
0000
,
0010
1000
0010
0000
,
0010
0000
0010
0000
,
1000
0000
0001
0001
,
1001
0000
0000
0000
,
0010
0001
0010
0000
,
0010
0000
0010
0000
,
0001
0000
1000
1000
,
1001
0000
0000
0000
,
0100
0000
0000
1000
,
0100
0000
0000
0000
,
0100
0000
0000
0010
,
0100
0000
0000
0000
,
0100
0000
0000
0100
,
0001
0000
0000
0000
,
0110
0000
0000
0000
,
0010
0000
0100
0000
,
2002
0000
0000
3003
,
0000
0000
0000
1001
,
0001
0000
1000
0000
,
0010
0000
2000
3000
,
1000
0000
0001
0000
,
0100
0000
0002
0003
,
0010
0001
0010
0000
0001
0000
0001
0000
,
0100
1000
0100
0000
1000
0000
1000
0000
,
2002
0000
0000
3003
,
0000
0000
0000
1001
,
0001
0000
1000
0000
,
0010
0000
2000
3000
,
1000
0000
0001
0000
,
0100
0000
0002
0003
,
0200
0000
0300
0000
,
0001
0001
1000
1000
,
0020
0000
0000
0030
,
0000
0000
0000
0000
,
0200
0000
0000
0300
,
0000
0000
0000
1000
,
0020
0000
0000
0030
,
0000
0000
0000
0000
,
0200
0000
0000
0300
,
0110
0000
0000
0000
,
0000
0000
0000
1001
,
0100
0000
0000
0000
,
0100
0000
0000
0000
,
0100
0000
0000
0000
,
0100
0000
0000
0000
,
0001
0000
0001
1000
,
0001
0000
0200
0300
,
1000
0000
1000
0001
,
1000
0000
0020
0030
,
0010
0100
0010
0000
0001
0000
0000
0000
,
0001
1000
0001
0000
1000
0000
0000
0000
,
0110
0000
0000
0000
,
0000
1000
0001
1000
,
0001
0000
0001
1000
,
0001
0000
0200
0300
,
1000
0000
1000
0001
,
1000
0000
0020
0030
,
0200
0000
0300
0000
,
0010
1000
0001
0100
,
0002
0000
0000
0000
,
0000
0000
0000
0003
,
1001
0000
0000
0000
;

//---------------dance-single - ----------------
#NOTES:
     dance-single:
     :
     Medium:
     6:
     :
0000
0000
0000
0000
,
0000
0000
0000
0000
,
0000
0000
0000
0000
,
0000
0000
0000
0000
,
1000
0000
0001
0100
,
0001
0100
1000
0100
,
1000
0000
0001
0100
,
0020
0030
0000
1001
,
1000
0000
0001
0010
,
0001
0010
1000
0010
,
0020
0000
0230
0000
,
0310
0000
0110
1001
,
0000
0010
0000
0100
,
0001
1000
0001
0110
,
0000
0100
0000
0010
,
0020
0000
0130
0000
,
0000
0010
0000
0100
,
1000
0001
1000
0100
,
0022
0033
0200
0300
,
2200
3300
0020
0030
,
1000
0000
0001
0000
1000
0001
1000
0001
,
0000
1000
0001
1001
,
0000
0001
0100
1000
,
1000
0001
2000
3000
,
0000
1000
0100
0001
,
0001
1000
0002
0003
,
1000
0000
0001
0000
0001
0010
0100
0000
,
0100
0000
0010
0000
0010
1000
0001
0000
,
2000
0000
0002
3003
,
0000
0001
1000
1001
,
0000
1000
0010
0001
,
0001
1000
0002
0003
,
1000
0001
0100
1000
,
1000
0100
0001
0000
2000
0000
3000
0000
,
0200
0000
0300
0000
,
2000
0000
3200
0000
,
0302
0000
0003
0000
,
0000
1100
0000
1001
,
0000
0110
0000
1010
,
0000
1010
0000
1001
,
0000
0110
0000
0101
,
0000
0110
0000
1001
,
0000
1100
0000
0101
,
0000
0000
0100
0010
0100
0000
1001
0000
,
0000
0000
0000
0110
,
2000
3000
0002
0003
,
2000
0000
3010
0101
,
0020
0030
0200
0300
,
0002
0000
0103
0000
,
0010
0001
0010
0000
0010
1000
0010
0000
,
0010
0100
0200
0300
,
0100
1000
0100
0000
0100
0001
0100
0000
,
0100
0010
0020
0030
,
1000
0100
0010
0000
0010
0000
0001
0000
,
0010
0100
1000
0000
1000
0000
0010
0000
,
0020
0030
2002
0000
,
3003
1000
0100
1001
,
1000
1000
0001
0000
0010
0000
0100
0000
,
1000
0001
1000
0000
0002
0000
0003
0000
,
0001
0001
1000
0000
0100
0000
0010
0000
,
0001
1000
0001
0000
2000
0000
3000
0000
,
0200
0000
0300
0000
,
0001
0011
0100
1100
,
0002
0000
0000
0000
,
0000
0000
0000
0003
,
1000
0000
0000
1000
0000
0000
0100
0000
0000
0010
0000
0000
0010
0000
0100
0000
,
0010
0000
0000
0001
0000
0000
1000
0000
0000
0000
0000
0000
0000
0000
0000
0000
;

//---------------dance-single - ----------------
#NOTES:
     dance-single:
     :
     Hard:
     9:
     :
0000
0000
0000
0000
,
0000
0000
0000
0000
,
0000
0000
0000
0000
,
0000
0000
0000
0000
,
1000
0000
0101
0000
0010
0100
1000
0000
,
0001
0000
1100
0000
0010
0100
0001
0000
,
0010
1010
0100
0101
,
1000
0100
0010
0001
1000
0100
0010
0001
,
1000
0000
0011
0000
0100
0010
1000
0000
,
0001
0000
1010
0000
0100
0010
0001
0000
,
0002
1003
0020
0130
,
0001
0110
0000
1100
0000
0011
0000
1100
,
0001
0010
1000
0000
1000
0010
0001
0000
,
0101
0000
1010
0000
0100
0010
0110
0000
,
1000
0010
0001
0000
0001
0010
1000
0000
,
1010
0000
0000
0101
0000
0000
0110
0000
,
0001
0100
1000
0000
1000
0100
0001
0000
,
0001
0000
0000
0010
0000
0000
0100
0000
1000
0000
0000
0100
0000
0000
1000
0000
,
0001
0010
0001
0100
0001
1000
0001
0010
,
0100
0010
0100
1000
0100
0001
0100
0000
,
0001
0000
0000
0110
0000
0000
1010
0000
0100
0000
0000
0100
1000
0100
1000
0000
,
0000
1000
0001
1001
,
0100
1100
0010
0011
,
0100
0000
1001
0000
0010
0010
0110
0000
,
0010
1010
0100
0101
,
0010
0000
1001
0000
0100
0100
0110
0000
,
1000
0100
0001
0000
0001
0010
0100
0000
,
1000
0100
0010
0001
1000
0010
0100
0010
,
2001
0000
0000
0001
0002
0000
3003
0000
,
0000
0001
1000
1001
,
0100
0101
0010
1010
,
0100
0000
1001
0000
0010
0010
0110
0000
,
0010
0011
0100
1100
,
0010
0000
1001
0000
0100
0100
0110
0000
,
1000
0100
1000
0010
0100
0001
0010
0001
,
0002
0023
0230
2300
,
3001
0000
0000
0000
0010
0000
0000
0000
0001
1000
0000
0100
0000
0000
0100
0000
,
0000
0010
0000
0000
0100
0000
0010
0000
0001
1000
0000
0100
0000
0000
0100
0000
,
0001
0000
0000
0000
0010
0000
0000
0000
0100
0010
0000
1000
0000
0000
0100
0000
,
0000
1000
0000
0000
0010
0000
1000
0000
0100
0010
0000
0001
0000
0000
0100
0000
,
1000
0000
0000
0000
0010
0000
0000
0000
1000
0001
0000
0100
0000
0000
0100
0000
,
0000
0010
0000
0000
0100
0000
0010
0000
1000
0001
0000
0100
0000
0000
0100
0000
,
0001
0000
0000
0000
0010
0000
0000
0000
0100
0010
0000
1000
0000
0000
0100
0000
,
0000
0001
0000
0000
0001
0000
0001
0000
1100
0000
0000
0110
0000
0000
0101
0000
,
0000
1000
0001
1001
,
0002
0000
2000
3003
,
0200
0000
2000
3300
,
0020
0000
0200
0330
,
0002
0000
0100
1003
,
2000
0000
0000
0100
0000
0000
3010
0000
0002
0000
0000
0100
0000
0000
1003
0000
,
0200
0000
0000
1000
0000
0000
0301
0000
0020
0000
0000
0000
0030
0000
0000
0000
,
0002
0000
0000
0010
0000
0000
0103
0000
2000
0000
0000
0010
0000
0000
3001
0000
,
0020
0000
0000
0001
0000
0000
1030
0000
0200
0000
0000
0000
0300
0000
0000
0000
,
0001
0010
1000
0000
1000
0100
0010
0000
,
1000
0100
0010
0001
1000
0010
0100
0010
,
0200
0000
0300
2000
0002
0000
0000
0000
,
3003
1000
0100
1001
,
2000
0000
0000
0100
0000
0000
3010
0000
0002
0000
0000
0100
0000
0000
1003
0000
,
2010
0000
0000
0100
0000
0000
3001
0000
0022
0000
0000
0000
0033
0000
0000
0000
,
2000
0000
0000
0010
0000
0000
3100
0000
0002
0000
0000
0010
0000
0000
1003
0000
,
0020
0000
0000
1000
0000
0000
0031
0000
0200
0000
0010
0000
0300
0000
1000
0000
,
0020
0000
0000
0000
0030
0000
0000
0001
,
0002
0023
0230
2300
,
3002
0000
0000
0000
,
2000
0000
0000
3003
,
1000
0000
0000
0001
0000
0000
1000
0000
0010
0100
0000
0000
0010
0000
0100
0000
,
1100
0000
0000
0011
0000
0000
0110
0000
0000
0000
0000
0000
0000
0000
0000
0000
;

//---------------dance-single - ----------------
#NOTES:
     dance-single:
     :
     Challenge:
     9:
     :
0000
0000
0000
0000
,
0000
0000
0000
0000
,
0000
0000
0000
0000
,
0000
0000
0000
0000
,
1000
0000
0100
0001
0000
0010
0100
0010
,
0001
0000
0100
1000
0000
0010
0100
0010
,
1000
0000
0100
0001
0000
0010
0100
0020
,
0000
0000
0030
0000
0000
1000
0100
0010
,
1000
0000
0010
0001
0000
0100
0010
0100
,
0001
0000
0010
1000
0000
0100
0010
0100
,
0002
2003
3200
0302
,
1003
0110
0000
1100
0000
0011
0000
1001
,
0001
0000
0000
0011
0000
0000
0000
0000
1000
0000
0000
1100
0000
0000
0000
0000
,
0101
0000
0000
0110
0000
0000
1100
0000
0000
0000
0000
0000
0000
0000
0000
0000
,
1000
0000
0000
1010
0000
0000
0000
0000
0001
0000
0000
0101
0000
0000
1000
0000
,
0220
0000
0330
0110
0000
0000
1001
0000
,
0001
0000
0000
0011
0000
0000
0000
0000
1000
0000
0000
1100
0000
0000
0000
0000
,
0001
0000
0000
0010
0000
0000
0100
0000
1000
0000
0000
0100
0000
0000
1000
0000
,
0022
0000
0000
0000
0033
0000
1000
0000
0100
0000
0000
0100
0000
0000
0001
0000
,
1000
0000
0000
0010
0000
0000
0010
0000
0001
0000
0000
1000
0000
0000
0100
0000
,
0010
0000
0000
0001
0000
0000
0100
0000
0010
0000
1000
0100
1000
0100
1000
0000
,
0000
1000
0001
1001
,
0100
1000
0000
0001
0000
0000
0001
0000
0100
0010
0000
1000
0000
0000
1000
0000
,
1000
0100
0000
0010
0000
0000
0010
0000
2000
0000
0000
0000
3000
0000
0000
0000
,
0010
1000
0000
0001
0000
0000
0001
0000
0010
0100
0000
1000
0000
0000
1000
0000
,
1000
0010
0000
0100
0000
0000
0100
0000
2000
0000
0000
0000
3000
0000
0000
0000
,
1000
0000
0000
0100
0000
0000
0010
0000
0100
0000
0000
1000
0000
0000
0001
0000
,
1000
0000
0000
0100
0000
0000
0010
0000
0001
0000
0000
0010
0000
0000
0100
0000
,
2001
0000
0000
0001
0002
0000
3003
0000
,
0000
0001
1000
1001
,
0010
0001
0000
1000
0000
0000
1000
0000
0010
0100
0000
0001
0000
0000
0001
0000
,
0001
0010
0000
0100
0000
0000
0100
0000
0002
0000
0000
0000
0003
0000
0000
0000
,
0100
1000
0000
0001
0000
0000
0001
0000
1000
0100
0000
0010
0000
0000
0010
0000
,
0001
0100
0000
0010
0000
0000
0010
0000
2000
0000
0001
0000
3000
0000
1000
0000
,
0200
0000
0000
0000
0300
0000
0000
0001
,
0002
0023
0230
2300
,
3001
0000
0000
0000
0010
0000
0000
0000
0001
1000
0000
0100
0000
0000
0100
0000
,
0000
0010
0000
0000
0100
0000
0010
0000
0001
1000
0000
0100
0000
0000
0100
0000
,
0001
0000
0000
0000
0010
0000
0000
0000
0100
0010
0000
1000
0000
0000
0100
0000
,
0000
1000
0000
0000
0010
0000
1000
0000
0100
0010
0000
0001
0000
0000
0100
0000
,
1000
0000
0000
0000
0010
0000
0000
0000
1000
0001
0000
0100
0000
0000
0100
0000
,
0000
0010
0000
0000
0100
0000
0010
0000
1000
0001
0000
0100
0000
0000
0100
0000
,
0001
0000
0000
0000
0010
0000
0000
0000
0100
0010
0000
1000
0000
0000
0100
0000
,
0000
0001
0000
0000
0001
0000
0001
0000
0100
0010
0000
0100
0000
0000
0100
0000
,
0000
1000
0001
1001
,
1000
0000
0000
0100
1000
0000
0100
0000
0001
0000
0000
0100
0001
0000
0100
0000
,
1000
0000
0000
0100
1000
0000
0100
0000
0002
0000
0000
0000
0003
0000
0000
0000
,
1000
0000
0000
0100
1000
0000
0100
0000
0001
0000
0000
0100
0001
0000
0100
0000
,
1000
0000
0000
0100
1000
0000
0100
0000
0002
0000
0000
0000
1003
0000
0000
0000
,
2000
0000
0000
0100
0000
0000
3010
0000
0002
0000
0000
0100
0000
0000
1003
0000
,
0200
0000
0000
1000
0000
0000
0301
0000
0020
0000
0000
0000
0030
0000
0000
0000
,
2000
0000
0000
0100
0000
0000
3010
0000
0002
0000
0000
0100
0000
0000
1003
0000
,
0200
0000
0000
1000
0000
0000
0301
0000
0020
0000
0000
0000
0030
0000
0000
0000
,
1000
0000
0000
0100
0000
0000
0010
0000
0001
0000
0000
0010
0000
0000
0100
0000
,
1000
0000
0000
0100
0000
0000
0010
0000
0001
0000
0000
0010
0000
0000
0100
0000
,
0200
0000
0300
2000
0002
0000
0000
0000
,
3003
1000
0100
1001
,
2000
0000
0000
0100
0000
0000
3010
0000
0002
0000
0000
0100
0000
0000
1003
0000
,
0200
0000
0000
1000
0000
0000
0301
0000
0020
0000
0000
0000
0030
0000
0000
0000
,
2000
0000
0000
0100
0000
0000
3010
0000
0002
0000
0000
0100
0000
0000
1003
0000
,
0200
0000
0000
1000
0000
0000
0301
0000
0020
0000
0100
0000
0030
0000
1000
0000
,
0200
0000
0000
0000
0300
0000
0000
0001
,
0002
0023
0230
2300
,
3002
0000
0000
0000
,
2000
0000
0000
3003
,
1000
0000
0001
0000
0010
0000
1000
0100
0000
1000
0000
0100
0010
0000
0100
0000
,
1100
0000
0000
0011
0000
0000
0110
0000
0000
0000
0000
0000
0000
0000
0000
0000
;
