#TITLE:Clocks;
#ARTIST:T.R.MASTER MC;
#BANNER:Clocks.png;
#BACKGROUND:Clocks-bg.png;
#CDTITLE:./CDTITLES/Dance Dance Revolution HOTTEST PARTY.png;
#MUSIC:Clocks.ogg;
#SAMPLESTART:24.831;
#SAMPLELENGTH:15;
#DISPLAYBPM:145;
#BPMS:0=144.68,8=145;

//---------------dance-single - ----------------
#NOTES:
     dance-single:
     :
     Beginner:
     1:
     :
0000
0000
0000
0000
,
0000
0000
0000
0000
,
0000
0000
0000
0000
,
0000
0000
0000
0000
,
0000
0000
0000
0000
,
0000
0000
0000
0000
,
0000
0000
0000
0000
,
1000
0000
0000
0000
,
0100
0000
0000
0000
,
1000
0000
0000
0000
,
0100
0000
0000
0000
,
0001
0000
0000
0000
,
0010
0000
0000
0000
,
0001
0000
0000
0000
,
0010
0000
0000
0000
,
0100
0000
0000
0000
,
0100
0000
0000
0000
,
0010
0000
0000
0000
,
0010
0000
0000
0000
,
0001
0000
0000
0000
,
0001
0000
0000
0000
,
1000
0000
0000
0000
,
1000
0000
0000
0000
,
0010
0000
0000
0000
,
0100
0000
0000
0000
,
0010
0000
0000
0000
,
0100
0000
0000
0000
,
0001
0000
0000
0000
,
1000
0000
0000
0000
,
0001
0000
0000
0000
,
1000
0000
0000
0000
,
0100
0000
0100
0000
,
0100
0000
0000
0000
,
0010
0000
0000
0000
,
0010
0000
0000
0000
,
0001
0000
0001
0000
,
0001
0000
0000
0000
,
1000
0000
0000
0000
,
1000
0000
0000
0000
,
0010
0000
0000
0000
,
1000
0000
0000
0000
,
0001
0000
0000
0000
,
0100
0000
0100
0000
,
0100
0000
0000
0000
,
0001
0000
0000
0000
,
1000
0000
0000
0000
,
0010
0000
0010
0000
,
0010
0000
0000
0000
,
1000
0000
0000
0000
,
0001
0000
0000
0000
,
0100
0000
0100
0000
,
0100
0000
0000
0000
,
0001
0000
0000
0000
,
1000
0000
0000
0000
,
0010
0000
0010
0000
,
0020
0000
0000
0030
,
0010
0000
0000
0000
,
0200
0000
0000
0300
,
0100
0000
0000
0000
,
1001
0000
0000
0000
;

//---------------dance-single - ----------------
#NOTES:
     dance-single:
     :
     Easy:
     2:
     :
0000
0000
0000
0000
,
0000
0000
0000
0000
,
0000
0000
0000
0000
,
0000
0000
0000
0000
,
0000
0000
0000
0000
,
0000
0000
0000
0000
,
0000
0000
0000
0000
,
2000
0000
3000
0000
,
0002
0000
0003
0000
,
2000
0000
3000
0000
,
0002
0000
0003
0000
,
0010
0000
0010
0000
,
0100
0000
0100
0000
,
1000
0000
1000
0000
,
0001
0000
0001
0000
,
0010
0000
0001
0000
,
2000
0000
3000
0000
,
0100
0000
1000
0000
,
0002
0000
0003
0000
,
1000
0000
0010
0000
,
0200
0000
0300
0000
,
0001
0000
0010
0000
,
0200
0000
0300
0000
,
1000
0000
1000
0000
,
0001
0000
0001
0000
,
0010
0000
0010
0000
,
0100
0000
0000
0000
,
0010
0000
0010
0000
,
0001
0000
0001
0000
,
1000
0000
1000
0000
,
0100
0000
0000
0000
,
0010
0000
0001
0000
,
0200
0000
0300
0000
,
0010
0000
1000
0000
,
0200
0000
0300
0000
,
1000
0000
0001
0000
,
0020
0000
0030
0000
,
0001
0000
1000
0000
,
0020
0000
0030
0000
,
1000
0000
0001
0000
,
1000
0000
0001
0000
,
0200
0000
0300
0000
,
0020
0000
0030
0000
,
1000
0000
0001
0000
,
1000
0000
0001
0000
,
0200
0000
0300
0000
,
0020
0000
0030
0000
,
1000
0000
0100
0000
,
0001
0000
0100
0000
,
0002
0000
0003
0000
,
2000
0000
3000
0000
,
0001
0000
0010
0000
,
1000
0000
0010
0000
,
2000
0000
3000
0000
,
0002
0000
0003
0000
,
1000
0000
0100
0000
,
0001
0000
0100
0000
,
1000
0000
0100
0000
,
0001
0000
0100
0000
,
1001
0000
0000
0000
;

//---------------dance-single - ----------------
#NOTES:
     dance-single:
     :
     Medium:
     4:
     :
0000
0000
0000
0000
,
0000
0000
0000
0000
,
0000
0000
0000
0000
,
0000
0000
0000
0000
,
0000
0000
0000
0000
,
0000
0000
0000
0000
,
0000
0000
0000
0000
,
0000
1000
0000
1001
,
0000
0001
0000
1001
,
0000
0010
0000
0110
,
0000
0100
0000
0110
,
0000
1000
0001
1001
,
0000
0001
1000
1001
,
0000
0010
0100
0110
,
0000
0100
0010
0110
,
1000
0010
0100
0001
,
0010
0100
1000
0000
,
0001
0010
0100
1000
,
0010
0100
0001
0000
,
1000
0100
0010
0001
,
0100
0010
1000
0000
,
0001
0100
0010
1000
,
0100
0010
0001
0000
,
1000
0000
0100
0000
,
0010
0001
0101
0000
,
0001
0000
0100
0000
,
0010
1000
1100
0000
,
1000
0001
0100
0000
,
0001
1000
1010
0000
,
0001
1000
0100
0000
,
1000
0001
0011
0000
,
0020
0000
0130
0000
,
1000
0001
1000
0000
1001
0000
0000
0000
,
0020
0000
0130
0000
,
0001
1000
0001
0000
1001
0000
0000
0000
,
0200
0000
0301
0000
,
1000
0010
1000
0000
0110
0000
0000
0000
,
0200
0000
1300
0000
,
0001
0010
0001
0000
0110
0000
0000
0000
,
1000
0000
0001
0000
,
2000
0000
3002
0000
,
0013
0001
0100
1000
,
0010
0001
0100
1000
,
0001
0000
1000
0000
,
0002
0000
2003
0000
,
3010
1000
0100
0001
,
0010
1000
0100
0001
,
0010
0000
0100
0000
,
0020
0000
0230
0000
,
0301
0010
1000
0010
,
0001
0100
1000
0100
,
0010
0000
0100
0000
,
0020
0000
0230
0000
,
1300
0010
0001
0010
,
1000
0100
0001
0100
,
1000
1000
1000
0000
0100
0000
0000
0000
,
0001
0001
0001
0000
0100
0000
0000
0000
,
0010
0010
0100
0100
,
0001
1000
0001
1000
,
0110
0000
0000
0000
;

//---------------dance-single - ----------------
#NOTES:
     dance-single:
     :
     Hard:
     6:
     :
0000
0000
0000
0000
,
0000
0000
0000
0000
,
0000
0000
0000
0000
,
0000
0000
0000
0000
,
0000
0000
0000
0000
,
0000
0000
0000
0000
,
0000
0000
0000
0000
,
1000
0100
0010
0001
,
0100
0010
0100
0010
,
1000
0010
0100
0001
,
0010
0100
0010
0100
,
1000
0000
0000
0001
0100
0000
0000
0000
0010
0000
0000
1000
0001
0000
0000
0000
,
0010
0000
0000
0100
1000
0000
0000
0000
0001
0000
0000
1000
0010
0000
0000
0000
,
0100
0000
0000
0001
0010
0000
0000
0000
0100
0000
0000
1000
0001
0000
0000
0000
,
0010
0100
0010
0100
,
2000
0000
3002
0000
2003
0000
3000
1000
,
0100
0010
0001
0200
0000
0000
0300
0000
,
0010
1000
0001
0000
0100
0000
0100
0000
,
0001
1000
0000
1001
0000
0000
0000
0000
,
0002
0000
2003
0000
3002
0000
0003
0001
,
0100
0010
1000
0200
0000
0000
0300
0000
,
0010
0001
1000
0000
0100
0000
0100
0000
,
1000
0001
0000
1001
0000
0000
0000
0000
,
1000
0100
0010
0000
0001
0000
0100
0000
,
0010
1000
0100
0000
1001
0000
0000
0000
,
0001
1000
0001
1000
0100
0000
0010
0000
,
0001
1000
0110
0000
,
0010
1000
0100
0000
0010
0000
0100
0000
,
0010
0001
0100
0000
1001
0000
0000
0000
,
0010
1000
0100
0001
0100
0000
1000
0000
,
0010
0100
1001
0000
,
0100
0000
0000
0010
0000
0000
0001
0000
0000
0000
0000
0000
1000
0000
0000
0000
,
0010
0000
0000
0100
0000
0000
0001
0000
0000
0000
0000
0000
0010
0000
0000
0000
,
0100
0000
0000
1000
0000
0000
0010
0000
0000
0000
0000
0000
1000
0000
0000
0000
,
0001
0000
0000
0010
0000
0000
0100
0000
0000
0000
0000
0000
0010
0000
0001
0000
,
0100
0000
0000
0010
0000
0000
1000
0000
0000
0000
0000
0000
0001
0000
1000
0000
,
0010
0000
0000
0100
0000
0000
0001
0000
0000
0000
0000
0000
0010
0000
0001
0000
,
0100
0000
0000
0010
0000
0000
1000
0000
0000
0000
0000
0000
0001
0000
0010
0000
,
0100
0000
0000
1000
0000
0000
0010
0000
0000
0000
0000
0000
0100
0000
0001
0000
,
1000
1000
0001
0001
,
1000
0100
0010
0001
,
0100
1000
0100
0000
0001
0010
0001
0000
,
1000
0010
1000
0000
0100
0001
0100
0000
,
1000
1000
0001
0001
,
1000
0001
0010
0100
,
0010
0001
0010
0000
1000
0010
1000
0000
,
0010
0001
0100
0000
1000
0100
0001
0010
,
0100
1000
0000
0001
0000
0010
0000
0001
,
0000
0100
0000
0010
0000
1000
0000
0010
,
1000
0001
1000
0000
0001
0100
0001
0000
,
0010
0000
0100
0000
0010
0000
0001
1000
,
0001
0100
0000
0010
0000
1000
0000
0100
,
0000
0010
0000
0001
0000
0100
0000
0010
,
1000
0100
1000
0000
0001
0100
0001
0000
,
0010
0010
0010
0010
,
0100
0000
0000
1000
0000
0000
0001
0000
0000
0000
0000
0000
0100
0000
0000
0000
,
0010
0000
0000
1000
0000
0000
0001
0000
0000
0000
0000
0000
0010
0000
0000
0000
,
0100
0000
0000
0010
0000
0000
0001
0000
0000
0000
0000
0000
1000
0000
0000
0000
,
1010
0101
0011
1100
,
1001
0000
0000
0000
;
