#TITLE:Caught Up;
#ARTIST:Stopped Cold;
#BANNER:Caught Up.png;
#BACKGROUND:Caught Up-bg.png;
#CDTITLE:./CDTITLES/Dance Dance Revolution HOTTEST PARTY.png;
#MUSIC:Caught Up.ogg;
#SAMPLESTART:51.771;
#SAMPLELENGTH:15;
#DISPLAYBPM:110;
#BPMS:0=109.81,8=110.1;

//---------------dance-single - ----------------
#NOTES:
     dance-single:
     :
     Beginner:
     1:
     :
0000
0000
0000
0000
,
0000
0000
0000
0000
,
0000
0000
0000
0000
,
0000
0000
0000
0000
,
0001
0000
0000
0000
,
1000
0000
0000
0000
,
0001
0000
0000
0000
,
0000
0000
0000
0000
,
0001
0000
0000
0000
,
0001
0000
0000
0000
,
0001
0000
0000
0000
,
0000
0000
0000
0000
,
1000
0000
0000
0000
,
1000
0000
0000
0000
,
1000
0000
0000
0000
,
0000
0000
0000
0000
,
0001
0000
0000
0000
,
0001
0000
0000
0000
,
1000
0000
0000
0000
,
0000
0000
0000
0000
,
0001
0000
0000
0000
,
0001
0000
0000
0000
,
1000
0000
0000
0000
,
0000
0000
0000
0000
,
1001
0000
0000
0000
,
0000
0000
0000
0000
,
1000
0000
0000
0000
,
1000
0000
0000
0000
,
1001
0000
0000
0000
,
0000
0000
0000
0000
,
0001
0000
0000
0000
,
0001
0000
0000
0000
,
1001
0000
0000
0000
,
0000
0000
0000
0000
,
1000
0000
0000
0000
,
1000
0000
0000
0000
,
1001
0000
0000
0000
,
0000
0000
0000
0000
,
0001
0000
0000
0000
,
0001
0000
0000
0000
,
1001
0000
0000
0000
,
0001
0000
0000
0000
,
1000
0000
0000
0000
;

//---------------dance-single - ----------------
#NOTES:
     dance-single:
     :
     Easy:
     3:
     :
0000
0000
0000
0000
,
0000
0000
0000
0000
,
0000
0000
0000
0000
,
0000
0000
0000
0000
,
0000
0000
0000
0000
,
0000
0000
0000
0000
,
0100
0000
0100
0000
,
0100
0100
0000
1000
,
0100
0000
0000
0000
,
1000
0000
0001
0000
,
0001
0000
0000
1000
,
1000
0000
0000
1000
,
0001
0000
0000
0000
,
0001
0000
0001
0000
,
0010
0000
0000
1000
,
1000
0000
1000
0000
,
0200
0000
0001
0000
,
0001
0000
0300
0000
,
0010
0000
0010
0000
,
0100
0000
0100
0000
,
0200
0000
1000
0000
,
1000
0000
0300
0000
,
0000
0000
0000
0000
,
0001
0010
0100
1000
,
1000
0000
1000
0000
,
0001
0000
0001
0000
,
0010
0000
0000
0000
,
0100
0000
0000
0000
,
0100
0000
0100
0000
,
0010
0000
0010
0000
,
1000
0000
0000
0000
,
0001
0000
0000
0000
,
1000
0000
1000
0000
,
0001
0000
0001
0000
,
0010
0000
0000
0000
,
0100
0000
0000
0000
,
0100
0000
0100
0000
,
0010
0000
0010
0000
,
1000
0000
0000
0000
,
0001
0000
0000
0000
,
0010
0000
1000
1000
,
0100
0000
0001
0010
,
0001
0100
0000
0100
,
0000
0100
0000
0100
;

//---------------dance-single - ----------------
#NOTES:
     dance-single:
     :
     Medium:
     5:
     :
0000
0000
0000
0000
,
0000
0000
0000
0000
,
0000
0000
0000
0000
,
0000
0000
0000
0000
,
0000
0001
0000
0001
,
0000
1000
0000
1000
,
0100
0100
0100
0100
,
0100
0000
0100
0010
0100
0001
1000
0001
,
0100
0000
0000
0000
,
1000
0001
1000
0010
,
0100
0000
0000
0000
0000
0000
0001
2000
,
0000
0000
3000
0000
0000
0000
1000
0001
,
0100
0000
0000
0000
,
1000
0001
1000
0010
,
0100
0000
0000
0000
0000
0000
0001
2000
,
0000
0000
3000
0000
1000
0001
0010
0100
,
0000
0000
0001
0001
0000
0000
0010
0010
,
0000
0000
1000
1000
0000
0001
1000
0100
,
0000
0000
0000
0000
,
0010
0000
0100
0010
0000
0001
1000
0100
,
0000
0000
1000
1000
0000
0000
0010
0010
,
0000
0000
0001
0001
0000
0010
0001
0100
,
0000
0000
0000
0000
0000
0000
0010
0100
,
0001
1000
0001
2000
0000
3010
1000
0001
,
0000
0000
0000
0001
1000
0000
0000
0000
,
0000
0000
0000
1000
0001
0000
0000
0000
,
0010
0001
0010
0000
0010
0001
0010
0000
,
1000
0100
1000
0000
1000
0100
1000
0002
,
0000
0000
0003
0010
0100
0000
0000
0000
,
0000
0000
0000
0100
0010
0000
0000
0000
,
0010
1000
0010
0000
0010
1000
0010
0000
,
0001
0100
0001
0000
0001
0100
0001
0100
,
0000
0000
0000
0001
1000
0000
0000
0000
,
0000
0000
0000
1000
0001
0000
0000
0000
,
0010
0001
0010
0000
0010
0001
0010
0000
,
1000
0100
1000
0000
1000
0100
1000
0002
,
0000
0000
0003
0010
0100
0000
0000
0000
,
0000
0000
0000
0100
0010
0000
0000
0000
,
0010
1000
0010
0000
0010
1000
0010
0000
,
0001
0100
0001
0000
0001
0100
0001
1000
,
0010
0000
0010
0000
1000
0001
1000
0000
,
0100
0000
0100
0000
0001
1000
0010
0100
,
0001
0100
0000
0100
,
0000
0000
0100
0000
0000
0000
0100
0001
;

//---------------dance-single - ----------------
#NOTES:
     dance-single:
     :
     Hard:
     7:
     :
0000
0000
0000
0000
,
0000
0000
0000
0000
,
0000
0000
0000
0000
,
0000
0000
0000
0000
,
1000
1100
0100
0011
,
0001
0011
0010
1100
,
0011
1010
0101
1100
,
1000
0100
0010
0001
0110
0000
1001
0000
,
1100
0100
0110
0000
0000
0000
0110
0000
,
0001
0010
1100
0000
0000
0000
1100
0100
,
0100
0000
0000
0000
0101
0000
0000
0000
0010
0000
0000
0000
1000
0000
1000
0001
,
0000
1100
0000
1100
,
0011
0010
0110
0000
0000
0000
0110
0000
,
1000
0100
0011
0000
0000
0000
0011
0010
,
0010
0000
0000
0000
1010
0000
0000
0000
0100
0000
0000
0000
0001
0000
0001
1000
,
0000
0000
0011
0000
1100
0000
0011
0200
,
0000
0001
0000
2000
,
3000
0000
0002
0300
0003
0000
0000
0000
,
0000
0000
0000
1000
0100
1000
0000
0000
0010
0001
0010
0000
0100
0000
0000
0000
,
0010
0100
0010
0001
0000
0010
0100
0200
,
0000
1000
0000
0002
,
0003
0000
2000
0300
3000
0000
0000
0000
,
0000
0000
0010
0001
0010
0001
0000
0000
0100
1000
0100
0000
0010
0000
0100
0000
,
0001
1000
0001
0100
0000
0010
1000
0001
,
1010
0000
0000
0001
1000
0000
1010
0000
,
0110
0000
0000
1000
0001
0000
0110
0000
,
0010
0001
0100
0000
1000
0100
0010
0000
,
0010
1000
0100
0000
0001
0100
1100
0000
,
0101
0000
0000
1000
0001
0000
0101
0000
,
0110
0000
0000
0001
1000
0000
0110
0000
,
0010
0010
0110
0000
0001
0000
1000
0000
,
0100
0100
0110
0000
1000
0000
0001
0000
,
1001
0000
0000
0100
0010
0000
1001
0000
,
0110
0000
0000
0010
0100
0000
0110
0000
,
0100
1000
0010
0000
0001
0010
0100
0000
,
0100
0001
0010
0000
1000
0010
0011
0000
,
1001
0000
0000
0010
0100
0000
1001
0000
,
0110
0000
0000
0100
0010
0000
0110
0000
,
0100
0100
0110
0000
1000
0000
0001
0000
,
0010
0010
0110
0000
0001
0000
1000
0000
,
1000
0000
0000
0000
1010
0000
0000
0010
0100
0000
0000
0100
0001
0000
0000
0000
,
0001
0000
0000
0000
0101
0000
0000
0100
0010
0000
0000
0010
1000
0000
0000
0000
,
0000
0010
0000
0010
0000
0010
0000
0010
,
0000
0100
0000
0100
0000
0100
0000
0100
;

//---------------dance-single - Expert (as intended)----------------
#NOTES:
     dance-single:
     Expert (as intended):
     Edit:
     7:
     :
0000
0000
0000
0000
,
0000
0000
0000
0000
,
0000
0000
0000
0000
,
0000
0000
0000
0000
,
1000
1100
0100
0011
,
0001
0011
0010
1100
,
0011
1010
0101
1100
,
1000
0100
0010
0001
0110
0000
1001
0000
,
1100
0100
0110
0000
0000
0000
0110
0000
,
0001
0010
1100
0000
0000
0000
1100
0100
,
0100
0000
0000
0000
0101
0000
0000
0000
0010
0000
0000
0000
1000
0000
1000
0001
,
0000
1100
0000
1100
,
0011
0010
0110
0000
0000
0000
0110
0000
,
1000
0100
0011
0000
0000
0000
0011
0010
,
0010
0000
0000
0000
1010
0000
0000
0000
0100
0000
0000
0000
0001
0000
0001
1000
,
0000
0000
0011
0000
1100
0000
0011
0200
,
0000
0002
0003
2000
,
3000
0000
0002
0300
0003
0000
0000
0000
,
0000
0000
0000
1000
0100
1000
0000
0000
0010
0001
0010
0000
0100
0000
0000
0000
,
0010
0100
0010
0001
0000
0010
0100
0200
,
0000
2000
3000
0002
,
0003
0000
2000
0300
3000
0000
0000
0000
,
0000
0000
0010
0001
0010
0001
0000
0000
0100
1000
0100
0000
0010
0000
0100
0000
,
0001
1000
0001
0100
0000
0010
1000
0001
,
1010
0000
0000
0001
1000
0000
1010
0000
,
0110
0000
0000
1000
0001
0000
0110
0000
,
0010
0001
0100
0000
1000
0100
0010
0000
,
0010
1000
0100
0000
0001
0100
1100
0000
,
0101
0000
0000
1000
0001
0000
0101
0000
,
0110
0000
0000
0001
1000
0000
0110
0000
,
0010
0010
0110
0000
0001
0000
1000
0000
,
0100
0100
0110
0000
1000
0000
0001
0000
,
1001
0000
0000
0100
0010
0000
1001
0000
,
0110
0000
0000
0010
0100
0000
0110
0000
,
0100
1000
0010
0000
0001
0010
0100
0000
,
0100
0001
0010
0000
1000
0010
0011
0000
,
1001
0000
0000
0010
0100
0000
1001
0000
,
0110
0000
0000
0100
0010
0000
0110
0000
,
0100
0100
0110
0000
1000
0000
0001
0000
,
0010
0010
0110
0000
0001
0000
1000
0000
,
1000
0000
0000
0000
1010
0000
0000
0010
0100
0000
0000
0100
0001
0000
0000
0000
,
0001
0000
0000
0000
0101
0000
0000
0100
0010
0000
0000
0010
1000
0000
0000
0000
,
0000
0010
0000
0010
0000
0010
0000
0010
,
0000
0100
0000
0100
0000
0100
0000
0100
;
