#TITLE:Call On Me;
#ARTIST:2000's STARS;
#BANNER:Call On Me.png;
#BACKGROUND:Call On Me-bg.png;
#CDTITLE:./CDTITLES/Dance Dance Revolution HOTTEST PARTY.png;
#MUSIC:Call On Me.ogg;
#SAMPLESTART:53.649;
#SAMPLELENGTH:15;
#DISPLAYBPM:170;
#BPMS:0=169.65,8=170;

//---------------dance-single - ----------------
#NOTES:
     dance-single:
     :
     Beginner:
     2:
     :
0000
0000
0000
0000
,
0000
0000
0000
0000
,
0000
0000
0000
0000
,
0000
0000
0000
0000
,
0000
0000
0000
0000
,
0000
0000
0000
0000
,
1000
0000
0000
0000
,
0100
0000
0000
0000
,
0010
0000
0010
0000
,
0010
0000
0000
0000
,
0001
0000
0000
0000
,
0100
0000
0000
0000
,
0010
0000
0010
0000
,
0010
0000
0000
0000
,
1000
0000
0000
0000
,
0001
0000
0000
0000
,
0010
0000
0010
0000
,
0010
0000
0000
0000
,
0001
0000
0000
0000
,
1000
0000
0000
0000
,
0100
0000
0100
0000
,
0100
0000
0000
0000
,
1000
0000
0000
0000
,
0001
0000
0000
0000
,
0100
0000
0000
0000
,
0001
0000
0001
0000
,
1000
0000
0000
0000
,
0001
0000
0000
0000
,
0010
0000
0000
0000
,
0001
0000
0001
0000
,
0100
0000
0100
0000
,
0100
0000
0000
0000
,
0010
0000
0000
0000
,
1000
0000
0000
0000
,
0001
0000
0001
0000
,
0001
0000
0000
0000
,
0010
0000
0000
0000
,
0100
0000
0000
0000
,
2000
0000
0000
3000
,
1000
0000
0000
0000
,
0001
0000
0000
0000
,
0100
0000
0000
0000
,
0010
0000
0010
0000
,
1000
0000
1000
0000
,
0001
0000
0001
0000
,
1000
0000
1000
0000
,
0100
0000
0000
0000
,
0010
0000
0000
0000
,
0001
0000
0000
0000
,
1000
0000
0000
0000
,
0010
0000
0010
0000
,
0100
0000
0100
0000
,
0001
0000
0000
0000
,
1000
0000
0000
0000
,
0001
0000
0000
0000
,
0010
0000
0000
0000
,
0100
0000
0100
0000
,
0100
0000
0000
0000
,
1000
0000
0000
0000
,
0010
0000
0000
0000
,
0100
0000
0100
0000
,
0100
0000
0000
0000
,
0001
0000
0000
0000
,
1000
0000
0000
0000
,
0100
0000
0100
0000
,
0100
0000
0000
0000
,
1000
0000
0000
0000
,
0001
0000
0000
0000
,
0010
0000
0010
0000
,
0010
0000
0000
0000
;

//---------------dance-single - ----------------
#NOTES:
     dance-single:
     :
     Easy:
     5:
     :
0000
0000
0000
0000
,
0000
0000
0000
0000
,
0000
0000
0000
0000
,
0000
0000
0000
0000
,
0000
0000
0000
0000
,
0000
0000
0000
0000
,
1001
0000
1000
0100
,
0100
0000
0001
0100
,
0100
0000
0010
0000
,
0000
0000
0000
0000
,
0001
0001
0010
0010
,
1000
1000
0010
0010
,
0001
0000
1000
0000
,
0001
0000
0000
0100
,
0100
0000
0000
1000
,
1000
0000
0000
0010
,
0010
0000
0100
0000
,
0010
0000
0000
0001
,
0001
0000
0000
1000
,
1000
0000
0000
0100
,
0100
0000
0010
0000
,
0001
0000
1000
0001
,
1000
0000
0000
0000
,
0001
0001
0100
0000
,
1000
1000
0100
0000
,
0001
0000
1000
0000
,
0100
0000
0000
0000
,
0001
0001
0010
0000
,
1000
1000
0010
0000
,
0001
0000
1000
0000
,
0001
0000
0100
0000
,
0010
0000
0100
0000
,
0001
0000
1000
0000
,
0100
0000
0010
0000
,
0100
0000
1000
0000
,
0001
0000
1000
0000
,
0002
0000
0003
0000
,
1000
1000
1000
0000
,
0020
0000
0030
0100
,
0100
0000
0000
0000
,
1000
0000
0100
0000
,
0001
0000
0100
0000
,
1000
0000
0010
0000
,
1000
0000
0001
0001
,
0010
0000
0001
0000
,
1000
0000
0010
0000
,
0100
0000
0001
0000
,
0100
0000
1000
0000
,
0100
0000
0001
0000
,
1000
0000
0001
0001
,
1000
0000
0100
0000
,
0001
0000
0100
0000
,
1000
0000
0001
0000
,
0200
0000
0300
0000
,
1001
0000
0001
0010
,
0010
0000
1000
0010
,
0010
0000
0100
0000
,
0001
0000
0000
0000
,
1000
0000
0100
0100
,
0001
0000
0100
0100
,
1000
0000
0001
0000
,
1000
0000
0000
0010
,
0010
0000
0000
0001
,
0001
0000
0000
0100
,
0100
0000
0010
0000
,
0100
0000
0000
1000
,
1000
0000
0000
0001
,
0001
0000
0000
0010
,
0010
0000
0100
0000
,
1000
0000
0001
0001
;

//---------------dance-single - ----------------
#NOTES:
     dance-single:
     :
     Medium:
     6:
     :
0000
0000
0000
0000
,
0000
0000
0000
0000
,
0000
0000
0000
0000
,
0000
0000
0000
0000
,
0000
0000
0000
0000
,
0000
0000
0000
0000
,
0010
0100
0001
0000
,
0010
0100
1000
1000
,
0010
0000
0000
0100
0000
0000
0002
0000
,
0000
0000
0003
0000
,
1000
0100
0010
0000
,
0001
0101
0010
0000
,
1000
0000
0000
0100
0000
0000
0020
0000
,
0000
0000
0030
0110
,
0110
0000
0000
1001
,
1001
1001
0000
0011
,
0200
0000
0000
2300
0000
0000
3002
0000
,
0000
0003
0000
0000
0000
0000
0101
0000
,
0101
0001
0000
1010
,
1010
1000
0000
1001
,
0200
0000
0000
0302
0000
0000
0013
0000
,
0100
0100
0100
0000
,
1001
0000
0000
0100
,
1000
1000
0001
0001
,
0100
0000
0000
1000
0000
0000
0100
0000
,
0000
0001
0000
1000
,
1001
0000
0000
0010
,
0001
0001
1000
1000
,
0010
0000
0000
0001
0000
0000
0010
0000
,
0000
1000
0000
0001
,
0010
0010
0100
0100
,
1000
1000
0001
0000
,
0100
0100
0010
0010
,
1000
1000
0001
0000
,
1000
1000
0001
0001
,
0010
0010
0100
0100
,
1001
0000
0000
0000
0000
0010
0000
0100
,
0000
0001
0000
1000
0000
0001
0000
0000
,
0010
0100
1000
0100
,
0010
0001
1000
1001
,
0101
0000
0000
0010
0000
0000
0100
0000
,
0000
0000
0001
1000
,
0100
0000
1000
0100
1000
0000
0100
0000
,
1000
0000
0001
0100
0001
0000
0100
0000
,
0001
0000
1000
0010
1000
0000
0010
0000
,
1000
0000
0001
0010
0000
0100
0000
1000
,
1000
0010
0100
0010
,
1000
1001
0101
0001
,
0020
0030
0200
0300
,
2000
3000
0002
0003
,
0100
0010
1000
0010
,
0100
0001
1000
0001
,
0000
1100
0000
0101
,
2002
0000
0000
3003
,
0100
0010
1000
0000
,
0100
0010
0001
0000
,
0100
0000
0000
0010
0000
0000
2000
0000
,
0000
0000
3000
0000
,
0001
0010
0100
0000
,
1000
0010
0100
0000
,
0001
0000
0000
1000
0000
0000
0020
0000
,
0000
0000
0030
0110
,
0110
0000
0000
1001
,
1001
1000
0000
1100
,
0200
0000
0000
0320
0000
0000
0032
0000
,
0000
0003
0000
0000
0000
0000
1010
0000
,
1010
0010
0100
0101
,
0101
0001
1000
1001
,
0020
0000
0000
2030
0000
0000
3100
0000
,
0010
0010
0010
0000
;

//---------------dance-single - ----------------
#NOTES:
     dance-single:
     :
     Hard:
     9:
     :
0000
0000
0000
0000
,
0000
0000
0000
0000
,
0000
0000
0000
0000
,
0000
0000
0000
0000
,
0000
0000
0000
0000
,
0000
0000
0000
0000
,
1001
0000
0010
0001
1000
0100
0010
0100
,
1000
0000
0001
0010
0100
0010
0001
0000
,
2020
0000
3030
0022
0000
0033
2002
0000
,
3003
0100
1000
0001
0000
0100
0001
1000
,
1001
0000
0100
0001
1000
0010
0100
0010
,
1000
0000
1001
0000
0100
0010
0100
0001
,
2200
0000
3300
0202
0000
0303
1001
0000
,
1100
0101
1100
0102
,
2003
0000
3001
0100
0010
0100
0002
0000
,
2003
0000
3100
1000
0001
1000
0200
0000
,
0320
0000
0031
1000
0000
1000
0001
0000
,
0010
1100
0010
0102
,
2003
0000
3001
0010
0100
0010
0002
0000
,
2003
0000
3010
1000
0001
1000
0010
0000
,
1001
0000
0001
0101
0000
1000
1100
0000
,
0001
0010
0100
1000
0001
0000
1001
0000
,
1020
1000
1030
0001
,
0201
0000
0001
0000
0301
0000
0001
0200
,
0010
0000
0320
1000
0000
1030
0002
0000
,
0013
0100
1000
0000
0001
0000
1001
0000
,
0021
0001
0031
0100
,
1200
0000
1000
0000
1300
0000
1000
0002
,
0100
0000
0203
0010
0000
0310
2000
0000
,
3001
0100
0010
0000
1000
0000
0101
0000
,
0001
0011
0010
0110
,
0100
0000
1000
0010
1000
0000
0010
0100
,
0010
0110
0100
0101
,
0001
0000
0010
0100
0010
0000
0100
1000
,
0100
0000
1100
0000
1000
0001
0100
0000
,
0101
0000
0001
1000
0010
0000
1010
0100
,
0001
0000
0001
1000
0000
1010
0000
0101
,
0000
1001
0000
0110
0000
1001
0000
0000
,
0220
0000
0000
0000
0300
0000
0130
0100
,
0000
0001
1000
0010
0100
0010
1000
0000
,
1001
0101
1000
1100
,
0010
0001
1000
0100
0010
0001
1000
0000
,
0101
0000
0010
0100
0001
0100
0010
1000
,
1000
0000
0001
0100
0010
0100
0001
1000
,
1000
0000
0001
0010
0100
1000
0010
0100
,
0001
1100
0101
1100
,
1001
0000
0100
0001
1000
0001
0100
0010
,
0010
0000
0100
1000
0001
1000
0100
0010
,
0010
0011
1000
1001
,
0101
0000
0101
0000
1000
0001
0100
0010
,
0100
0000
0010
1000
0001
1000
0010
0100
,
0100
0000
0010
0001
1000
0001
0010
0100
,
0100
2002
3003
0220
,
0330
0000
1000
0010
0100
0001
1000
0001
,
1001
0000
0010
0001
1000
0001
0010
0100
,
1000
0000
0001
0010
0001
1000
0100
0000
,
2200
0000
3300
0022
0000
0033
2002
0000
,
3003
0100
1000
0010
0000
0100
0001
0010
,
0001
0000
0100
0001
1000
0010
0100
0010
,
1000
0000
0001
0100
0000
0010
0100
0001
,
2200
0000
3300
0202
0000
0303
1001
0000
,
0101
0011
1100
1002
,
2003
0000
3001
0100
0010
0100
0002
0000
,
2003
0000
3100
1000
0001
1000
0200
0000
,
0320
0000
0031
1000
0000
1000
0001
0000
,
0010
1100
0010
0102
,
2003
0000
3001
0010
0100
0010
0002
0000
,
2003
0000
3010
1000
0001
1000
0010
0000
,
1001
0000
0001
0101
0000
1000
1100
0000
,
0001
0010
0100
1000
0000
0001
1000
0110
;
