#TITLE:Buried a Lie;
#ARTIST:COOLS K;
#BANNER:Buried a Lie.png;
#BACKGROUND:Buried a Lie-bg.png;
#CDTITLE:./CDTITLES/Dance Dance Revolution HOTTEST PARTY.png;
#MUSIC:Buried a Lie.ogg;
#SAMPLESTART:47.562;
#SAMPLELENGTH:15;
#DISPLAYBPM:164;
#BPMS:0=163.9,8=164;

//---------------dance-single - ----------------
#NOTES:
     dance-single:
     :
     Beginner:
     2:
     :
0000
0000
0000
0000
,
0000
0000
0000
0000
,
0000
0000
0000
0000
,
0000
0000
0000
0000
,
0000
0000
0000
0000
,
1000
0000
0000
0000
,
1000
0000
0000
0000
,
1000
0000
0000
0000
,
1000
0000
0000
0000
,
0001
0000
0000
0000
,
0001
0000
0000
0000
,
0001
0000
0000
0000
,
0001
0000
0000
0000
,
1000
0000
1000
0000
,
1000
0000
0000
0000
,
0001
0000
0001
0000
,
0001
0000
0000
0000
,
0100
0000
0100
0000
,
0100
0000
0000
0000
,
0010
0000
0010
0000
,
0010
0000
0000
0000
,
0010
0000
0010
0000
,
0010
0000
0000
0000
,
0100
0000
0100
0000
,
0100
0000
0000
0000
,
2000
0000
0000
3000
,
1000
0000
0000
0000
,
0002
0000
0000
0003
,
0001
0000
0000
0000
,
2000
0000
0000
3000
,
1000
0000
0000
0000
,
1001
0000
0000
0000
,
0000
0000
0000
0000
,
0010
0000
0000
0000
,
0100
0000
0000
0000
,
0110
0000
0000
0000
,
0000
0000
0000
0000
,
0001
0000
0000
0000
,
1000
0000
0000
0000
,
1001
0000
0000
0000
,
0000
0000
0000
0000
,
0010
0000
0010
0000
,
0010
0000
0000
0000
,
0100
0000
0100
0000
,
0100
0000
0000
0000
,
0001
0001
0001
0000
,
0001
0000
0000
0000
,
1000
1000
1000
0000
,
1000
0000
0000
0000
,
0000
0010
0000
0010
,
0000
0010
0000
0000
,
0000
1000
0000
1000
,
0000
1000
0000
0000
,
0000
0100
0000
0100
,
0000
0100
0000
0000
,
0000
1000
0000
1000
,
0000
1000
0000
0000
,
0000
0001
0000
0001
,
0000
0001
0000
0000
,
0000
0100
0000
0100
,
0000
0100
0000
0000
,
0001
0001
0001
0000
,
0001
0000
0001
0000
,
1000
1000
1000
0000
,
1000
0000
1000
0000
,
0010
0000
0010
0000
,
0010
0000
0010
0000
,
0000
0100
0000
0100
,
0000
0100
0000
0100
;

//---------------dance-single - ----------------
#NOTES:
     dance-single:
     :
     Easy:
     4:
     :
0000
0000
0000
0000
,
0000
0000
0000
0000
,
0000
0000
0000
0000
,
0000
0000
0000
0000
,
0000
0000
0000
0000
,
1000
0001
0100
0001
,
0000
0001
0000
0001
,
0100
0000
0100
0000
,
1001
0000
0000
0000
,
0001
1000
0100
1000
,
0000
1000
0000
1000
,
0100
0000
0100
0000
,
1001
0000
0000
0000
,
0010
0000
0010
0000
,
0100
0000
0100
0000
,
0001
0001
0001
0000
,
1000
1000
1000
0000
,
0010
0000
0100
0000
,
0010
0000
0100
0000
,
0001
0000
1000
0000
,
0002
0000
0000
0003
,
0100
0000
0100
0000
,
0010
0000
0010
0000
,
0100
0000
0100
0000
,
0020
0100
0100
0130
,
0100
0000
0000
0000
,
0020
0000
0130
0000
,
0100
0000
0000
0000
,
0200
0000
0310
0000
,
0001
0000
0010
0000
,
0002
0000
0103
0000
,
2000
0000
3100
0000
,
0000
0000
0000
0000
,
0010
0000
0010
0000
,
0100
0000
0100
0000
,
0010
0001
1000
0100
,
0000
0000
0000
0000
,
0001
0000
0001
0001
,
1000
0000
1000
1000
,
0010
1000
0001
0100
,
0000
0000
0000
0000
,
0100
0000
0100
0000
,
0010
0000
0010
0000
,
0100
0001
1000
0010
,
0000
0000
0000
0000
,
1000
0000
1000
1000
,
0001
0000
0001
0001
,
0100
1000
0001
0010
,
0000
0000
0000
0000
,
0010
0001
1000
0000
,
1000
0000
1000
0000
,
0100
1000
0001
0000
,
0001
0000
0001
0000
,
0010
0001
0100
0001
,
0100
0000
0100
0000
,
0010
1000
0100
1000
,
0100
0000
0100
0000
,
0010
0001
0010
0001
,
0010
0000
0100
0000
,
1000
0100
1000
0100
,
1000
0000
0000
0000
,
0010
0000
0010
0000
,
0100
0000
0100
0000
,
0001
0000
0001
0000
,
0010
0000
0010
0000
,
1001
0000
0100
0000
,
0110
0000
0100
0000
,
0010
0010
0010
0010
,
1000
0000
0001
0000
1000
0000
2002
3003
;

//---------------dance-single - ----------------
#NOTES:
     dance-single:
     :
     Medium:
     5:
     :
0000
0000
0000
0000
,
0000
0000
0000
0000
,
0000
0000
0000
0000
,
0000
0000
0000
0000
,
0000
0000
0000
0000
,
0010
0000
0000
0001
0000
0000
1000
0000
,
0000
0001
0000
1000
,
0100
0100
0100
0100
,
0000
0000
0000
0000
,
0010
0000
0000
1000
0000
0000
0001
0000
,
0000
1000
0000
0001
,
0100
0100
0100
0100
,
0000
0000
0000
0000
,
0001
0000
1001
0000
,
1000
0000
1001
0000
,
0010
0000
0110
0000
,
0100
0000
0110
0000
,
1000
0000
0001
1000
,
0000
0010
0100
0010
,
0000
0100
0010
0100
,
0001
0001
0001
0001
,
1000
0000
0100
0000
,
1000
0000
0100
0000
,
0001
0000
0100
0000
,
0010
0010
0010
0010
,
2000
0000
3001
0001
,
2000
0000
3001
0001
,
0020
0000
0130
0000
,
0020
0000
0130
0000
,
0010
0100
1000
0000
,
0010
0100
0001
0000
,
2000
0000
3001
0001
,
1000
0100
0001
0100
,
0010
0001
0010
0001
,
0000
0100
0001
0100
,
0010
1000
0010
1000
,
0000
0001
1000
0001
,
0010
0100
0010
0100
,
0000
1000
0001
1000
,
0010
0100
0010
0100
,
0000
0001
0100
0001
,
0100
0010
1000
1000
,
0000
1000
0100
1000
,
0100
0010
0001
0001
,
0000
1000
0001
0100
,
0001
1000
0010
1000
,
0000
0001
1000
0010
,
1000
0001
0100
0001
,
0000
0010
1000
0100
,
1000
0000
0001
0000
0100
0001
0100
0000
,
0001
0000
0010
0000
,
0100
0000
1000
0000
0010
1000
0010
0000
,
0100
0000
0000
0000
,
0001
0100
1000
0100
,
0001
0010
1000
0010
,
0001
1000
0100
0010
,
0000
0000
0000
0000
,
1000
0010
0001
0010
,
1000
0100
0001
0100
,
1000
0001
0010
0100
,
0000
0010
0100
0010
,
0110
0000
0110
0000
,
1000
0001
1000
0000
,
1001
0000
1001
0000
,
0100
0010
0100
0000
,
0110
0000
0110
0000
,
0001
1000
0001
0000
,
1000
0100
1000
0100
,
0010
0001
0010
0001
;

//---------------dance-single - ----------------
#NOTES:
     dance-single:
     :
     Hard:
     7:
     :
0000
0000
0000
0000
,
0000
0000
0000
0000
,
0000
0000
0000
0000
,
0000
0000
0000
0000
,
0000
0000
0000
0000
,
0001
0100
0010
1000
,
0002
0010
0100
1003
,
0010
1000
0100
1100
,
0010
0010
0010
0010
,
1000
0100
0010
0001
,
2000
0100
0010
3001
,
0010
0001
0100
0110
,
0000
0000
0000
0000
,
1000
0100
1000
0000
0100
1000
0100
0000
,
0010
0100
0010
0000
0001
0000
0101
0000
,
0001
0100
0001
0000
0100
0001
0100
0000
,
0010
0100
0010
0000
1000
0000
1100
0000
,
1001
1000
0001
0100
,
0010
1000
0010
0000
0100
0001
0100
0000
,
0010
1000
0100
0001
,
0010
1000
0100
0001
,
0010
0001
0100
0000
0001
0000
1000
0000
,
0010
1000
0100
0000
1000
0000
0001
0000
,
0010
0100
1000
0000
0010
0000
0100
0000
,
0001
0001
0001
0001
,
1000
0100
1000
0000
0100
1000
0100
0000
,
0001
0010
0001
0000
0010
0001
0010
0000
,
1000
1010
0001
0011
,
0002
0000
0103
0000
0010
1000
0100
0000
,
0001
0010
0001
0000
0010
0001
0010
0000
,
0100
1000
0100
0000
1000
0100
1000
0000
,
0001
0101
1000
1100
,
0220
0000
0000
0330
,
1000
0010
0010
0010
1000
0100
1000
0000
,
0010
0100
0001
0000
0001
0100
0010
0000
,
1000
0100
0100
0100
0010
0001
1000
0000
,
0001
0100
0010
0000
0010
0100
0001
0000
,
0010
0001
0100
0100
0010
1000
0100
0000
,
0010
0100
1000
0000
1000
0100
0010
0000
,
0010
0001
0100
0100
0010
1000
0100
0000
,
0100
1000
0100
0000
1100
0000
0101
0000
,
1000
0001
0100
0000
0001
1000
0100
0000
,
0010
0001
0100
0001
1000
0001
0100
0000
,
0010
1000
0001
0000
0001
1000
0100
0000
,
0100
1000
0010
1000
0001
1000
0100
0000
,
0010
0000
1001
0000
0001
0100
0010
0000
,
1000
0000
1001
0000
1000
0100
0010
0000
,
0001
0100
0010
0000
0100
0001
0010
0000
,
0100
1000
0010
0100
0001
0010
0100
1000
,
1001
0000
0001
0000
0100
0001
0100
0000
,
0010
0000
1010
0000
0001
0100
0010
0000
,
1000
0000
1010
0000
0010
1000
0100
0000
,
0010
0000
0011
0000
0010
0100
1000
0000
,
2000
0010
0001
3010
,
0002
0100
1000
0103
,
1000
0100
0010
0000
1000
0100
0010
0000
,
0001
0010
0100
1000
,
0020
1000
0100
1030
,
0200
0001
0010
0301
,
0010
1001
0100
1001
,
0011
1001
1100
1001
,
0100
0000
0101
0000
0100
0001
1000
0000
,
0100
0000
1100
0000
0100
1000
0010
0000
,
0100
0000
0110
0000
0100
0010
1000
0000
,
0001
0000
1001
0000
0001
1000
0100
0000
,
0100
1000
0010
0100
0001
0100
0010
0000
,
0010
1000
0100
1000
0010
1000
0001
0000
,
0001
0100
0010
1000
0100
1000
0010
1000
,
0001
0100
0010
1000
0001
0100
0001
1000
;
