#TITLE:Blue Monday;
#ARTIST:wg;
#BANNER:Blue Monday.png;
#BACKGROUND:Blue Monday-bg.png;
#CDTITLE:./CDTITLES/Dance Dance Revolution HOTTEST PARTY.png;
#MUSIC:Blue Monday.ogg;
#SAMPLESTART:14.255;
#SAMPLELENGTH:15;
#DISPLAYBPM:130;
#BPMS:0=130.5,8=130.545;

//---------------dance-single - ----------------
#NOTES:
     dance-single:
     :
     Beginner:
     1:
     :
0000
0000
0000
0000
,
0000
0000
0000
0000
,
0000
0000
0000
0000
,
0000
0000
0000
0000
,
0000
0000
0000
0000
,
0000
0000
0000
0000
,
0001
0000
0000
0000
,
0001
0000
0000
0000
,
1000
0000
0000
0000
,
0000
0000
0000
0000
,
1000
0000
0000
0000
,
0000
0000
0000
0000
,
1000
0000
0000
0000
,
0000
0000
0000
0000
,
0001
0000
0000
0000
,
0000
0000
0000
0000
,
0001
0000
0000
0000
,
0000
0000
0000
0000
,
1000
0000
0000
0000
,
0000
0000
0000
0000
,
0001
0000
0000
0000
,
0000
0000
0000
0000
,
1000
0000
0000
0000
,
0000
0000
0000
0000
,
1000
0000
0000
0000
,
1000
0000
0000
0000
,
0001
0000
0000
0000
,
0001
0000
0000
0000
,
1000
0000
0000
0000
,
1000
0000
0000
0000
,
0001
0000
0000
0000
,
0001
0000
0000
0000
,
1000
0000
0000
0000
,
0000
0000
0000
0000
,
0000
0000
0000
0000
,
0000
0000
0000
0000
,
0001
0000
0000
0000
,
0001
0000
0000
0000
,
1000
0000
0000
0000
,
1000
0000
0000
0000
,
0001
0000
0000
0000
,
0000
0000
0000
0000
,
1000
0000
0000
0000
,
0000
0000
0000
0000
,
0001
0000
0000
0000
,
0000
0000
0000
0000
,
1000
0000
0000
0000
,
0000
0000
0000
0000
,
0001
0000
0000
0000
,
0000
0000
0000
0000
,
1000
0000
0000
0000
,
0000
0000
0000
0000
,
0001
0000
0000
0000
;

//---------------dance-single - ----------------
#NOTES:
     dance-single:
     :
     Easy:
     3:
     :
0000
0000
0000
0000
,
0000
0000
0000
0000
,
0000
0000
0000
0000
,
0000
0000
0000
0000
,
0100
0000
0100
0000
,
0001
0000
0000
0001
,
0010
0000
1000
0001
,
0200
0000
0300
1001
,
0001
0000
0000
0000
,
0000
1000
0000
1000
,
0001
0000
0000
0000
,
0000
1000
0000
0001
,
0001
0000
0000
0000
,
0000
1000
0000
0001
,
0001
0000
0000
0001
,
1000
0000
0000
0000
,
0100
0000
0010
0000
,
1000
0000
0000
0000
,
0100
0000
0010
0000
,
0001
0000
0000
0000
,
0010
0000
0100
0000
,
1000
0000
0000
0000
,
0010
0000
0001
0000
,
1000
0000
0000
0000
,
1000
0100
0010
0001
,
0000
0000
0000
0000
,
0000
0000
0000
0100
0000
0010
0000
0001
,
0000
0000
0000
0000
,
0001
0010
0100
1000
,
0000
0000
0000
0000
,
0000
0000
0000
0010
0000
0100
0000
1000
,
0000
0000
0000
0000
,
0210
0000
0000
0000
,
0000
0000
0000
0000
,
0000
0000
0000
0000
,
0300
0000
0000
0000
,
0010
0000
0010
0000
,
1000
0001
1000
0001
,
2000
3000
0002
0003
,
0020
0000
0000
0130
,
0000
0010
0000
0010
,
0000
1000
0000
1000
,
0000
0100
0000
0100
,
0000
0001
0000
0001
,
1000
0000
0000
0000
,
0001
0000
0000
0000
,
1000
0000
0000
0000
,
0001
0000
0000
0000
,
0010
0000
0000
0000
,
0100
0000
0000
0000
,
0010
0000
0000
0000
,
0100
0000
0000
0000
;

//---------------dance-single - ----------------
#NOTES:
     dance-single:
     :
     Medium:
     5:
     :
0000
0000
0000
0000
,
0000
0000
0000
0000
,
0000
0000
0000
0000
,
0000
0000
0000
0000
,
0100
0100
0100
0100
,
1001
0000
0100
0010
0100
0000
1001
0000
,
0010
0100
0010
0100
0200
0000
0000
0300
,
0100
0000
0000
0010
0000
0000
0001
0000
0000
1000
0000
0000
1001
0000
0000
0000
,
0001
0000
0000
1000
,
1000
0000
0000
0000
,
0001
0000
0000
1000
,
0001
0000
0000
0000
,
0001
0000
0000
1000
,
0001
0000
0000
0000
,
0001
0010
0001
0000
0001
0000
0001
1000
,
0000
0000
0000
0000
,
0100
0100
0010
0010
,
1000
0000
0000
0000
,
0100
0100
0010
0010
,
0001
0000
0000
0000
,
0100
0010
0010
0100
,
0010
0000
0000
0000
,
0100
1000
0001
0010
,
0100
0000
0000
0000
,
2000
0000
3000
0010
0200
0000
0300
0001
,
0020
0030
0000
0000
,
0000
0000
0000
1000
0000
0100
0000
0010
,
1100
0000
0000
0000
,
0002
0000
0003
0100
0020
0000
0030
1000
,
0200
0300
0000
0000
,
0000
0000
0000
0001
0000
0010
0000
0100
,
0011
0000
0000
0000
,
0210
0000
0000
0000
,
0001
0000
0000
0000
,
0010
0000
0000
0000
,
0300
0000
0000
0000
,
0100
0000
1001
0000
0010
0100
0010
0100
,
0100
1001
0100
1001
,
2000
0000
3000
0001
2000
0000
3000
0002
,
0000
0003
0200
0000
0300
1000
1000
0000
,
0000
0010
0000
0010
,
1000
0010
1000
0010
,
0000
0100
0000
0100
,
0001
0100
0001
0100
,
0002
0010
0000
0013
,
2000
0100
0000
3100
,
0002
0010
0000
0013
,
0200
0001
0000
0301
,
2000
0100
0000
3100
,
0002
0010
0000
0013
,
2000
0100
0000
3100
,
0020
1000
0000
1030
,
0200
0000
0000
0300
,
2000
0000
0000
3000
;

//---------------dance-single - ----------------
#NOTES:
     dance-single:
     :
     Hard:
     7:
     :
0000
0000
0000
0000
,
0000
0000
0000
0000
,
0000
0000
0000
0000
,
0000
0000
0000
0000
,
0100
0100
0100
0100
,
1001
0000
0100
1100
0100
0000
1001
0000
,
0010
0000
0010
0000
0010
0000
0010
0000
1000
0001
1000
0001
1000
0001
1000
0000
,
0100
0000
0000
0010
0000
0000
0001
0000
0000
1000
0000
0000
1001
0000
0000
0000
,
0001
0000
0001
0100
1000
0000
1000
0100
,
0001
1000
0001
1000
0100
0010
0100
0010
,
1000
0000
1000
0100
0001
0000
0001
0100
,
1000
0001
1000
0001
0010
0100
0010
0001
,
0001
0000
0001
0010
1000
0000
1000
0010
,
0001
1000
0001
1000
0100
0010
0100
1000
,
0001
0010
0001
0000
0001
0100
0001
1000
,
0000
0000
0001
0010
,
0100
0000
0100
0000
0010
0001
1000
0100
,
0000
1000
0000
0000
1000
0000
0100
0000
,
0010
0000
0010
0000
0100
1000
0001
0010
,
0000
0001
0000
0000
0001
0000
0010
0100
,
1000
0000
0100
0000
0010
0001
1000
0100
,
1000
0000
0000
0000
0001
0000
0010
0100
,
1000
0000
0100
0000
0010
0001
1000
0100
,
0000
0000
0001
0010
,
1000
0100
1000
0010
0100
0001
0010
0002
,
0000
0003
1000
0100
,
0010
0000
0000
1100
0000
0110
0000
0011
,
1100
0000
0001
0010
,
0001
0010
0001
0100
0010
1000
0100
2000
,
0000
3000
1000
0100
,
0010
0000
0000
0011
0000
0110
0000
1100
,
0011
0000
0000
0000
,
0210
0010
0010
0010
,
0010
0001
0010
0001
,
0010
1000
0010
1000
,
0310
0000
0000
0000
,
0000
0000
0000
0000
1001
0000
0000
0000
0100
1000
0100
1000
0010
1000
0010
1000
,
0100
1001
0100
1001
,
1000
0100
1000
0100
1000
0000
0001
0000
1000
0100
1000
0100
1000
0000
0001
0010
,
0001
0010
0001
0000
0100
0010
0100
0010
0100
0000
1000
0000
1000
0000
0000
0000
,
0001
0110
1000
0110
,
1000
1100
1000
1100
,
1000
0110
0001
0110
,
0001
0011
0001
0011
,
0002
0000
0010
0000
0000
0000
0013
0001
,
2000
0000
0100
0000
0000
0000
3100
1000
,
0002
0000
0010
0000
0000
0000
0013
0001
,
0200
0001
0000
0301
,
2000
0000
0100
0000
0000
0000
3100
1000
,
0002
0000
0010
0000
0000
0000
0013
0001
,
2000
0000
0100
0000
0000
0000
3100
1000
,
0020
1000
0000
1030
,
1000
0100
0010
0001
0010
0100
2000
0000
,
0000
0000
0000
3000
;
