#TITLE:BRE∀K DOWN! (World Version);
#ARTIST:ELE ROCKS;
#TITLETRANSLIT:BREAK DOWN! (World Version);
#BANNER:BREAK DOWN! (World Version).png;
#BACKGROUND:BREAK DOWN! (World Version)-bg.png;
#CDTITLE:./CDTITLES/Dance Dance Revolution HOTTEST PARTY.png;
#MUSIC:BREAK DOWN! (World Version).ogg;
#SAMPLESTART:64.424;
#SAMPLELENGTH:15;
#DISPLAYBPM:190;
#BPMS:0=189.6,8=190;
#STOPS:204=0.947;

//---------------dance-single - ----------------
#NOTES:
     dance-single:
     :
     Beginner:
     1:
     :
0000
0000
0000
0000
,
0000
0000
0000
0000
,
0000
0000
0000
0000
,
0000
0000
0000
0000
,
0000
0000
0000
0000
,
0000
0000
0000
0000
,
1000
0000
0000
0000
,
1000
0000
0000
0000
,
0001
0000
0000
0000
,
0001
0000
0000
0000
,
0010
0000
0010
0000
,
0010
0000
0000
0000
,
0100
0000
0000
0000
,
1000
0000
0000
0000
,
0010
0000
0000
0000
,
0100
0000
0000
0000
,
0001
0000
0000
0000
,
0010
0000
0000
0000
,
0100
0000
0000
0000
,
1000
0000
0000
0000
,
0010
0000
0000
0000
,
1000
0000
0000
0000
,
0100
0000
0000
0000
,
0010
0000
0000
0000
,
0001
0000
0000
0000
,
0100
0000
0000
0000
,
0010
0000
0000
0000
,
1000
0000
0000
0000
,
0002
0000
0000
0003
,
0001
0000
0000
0000
,
0100
0000
0100
0000
,
0100
0000
0000
0000
,
2000
0000
0000
3000
,
1000
0000
0000
0000
,
0100
0000
0100
0000
,
0100
0000
0000
0000
,
1001
0000
0000
0000
,
0100
0000
0000
0000
,
0010
0000
0000
0000
,
0100
0000
0100
0000
,
0100
0000
0000
0000
,
0010
0000
0000
0000
,
0100
0000
0000
0000
,
0010
0000
0010
0000
,
0010
0000
0000
0000
,
1000
0000
0000
0000
,
0001
0000
0000
0000
,
1000
0000
0000
0000
,
0100
0000
0000
0000
,
0010
0000
0000
0000
,
0100
0000
0000
0000
,
0000
1001
0000
0000
,
0000
0010
0000
0000
,
0000
0100
0000
0000
,
0000
0010
0000
0010
,
0000
0010
0000
0000
,
0000
0100
0000
0000
,
0000
0010
0000
0000
,
0000
0100
0000
0100
,
0000
0100
0000
0000
,
0000
0001
0000
0000
,
0000
1000
0000
0000
,
0000
0001
0000
0000
,
0000
0010
0000
0000
,
0000
0100
0000
0000
,
0000
0010
0000
0000
,
0000
0100
0000
0000
,
0000
1001
0000
0000
;

//---------------dance-single - ----------------
#NOTES:
     dance-single:
     :
     Easy:
     4:
     :
0000
0000
0000
0000
,
0000
0000
0000
0000
,
0000
0000
0000
0000
,
0000
0000
0000
0000
,
0000
0000
0000
0000
,
0000
0000
0000
0000
,
2000
3000
0000
0000
,
0002
0003
0000
0000
,
0010
0000
0100
0000
,
0010
0000
0010
0000
,
0200
0300
0020
0030
,
0100
0000
0000
0000
,
0001
1000
0100
0000
,
0000
0000
0000
0000
,
1000
0010
0100
0000
,
0000
0000
0000
0000
,
1000
0100
0100
0000
,
0001
0100
0100
0000
,
1000
0000
0010
0000
,
0100
0000
0001
0000
,
1000
0001
0100
0000
,
0000
0000
0000
0000
,
0001
0010
0100
0000
,
0000
0000
0000
0000
,
0001
0100
0100
0000
,
1000
0100
0100
0000
,
0001
0000
0010
0000
,
0100
0000
1000
0000
,
0010
0000
0000
0000
,
0200
0000
0300
0000
,
1000
0000
0001
0000
,
1000
0001
1000
0000
,
0010
0000
0000
0000
,
0200
0000
0300
0000
,
0001
0000
0000
0000
,
0000
0000
0000
1000
,
1001
0001
0000
0000
,
1000
0001
1000
0001
,
1000
0000
0000
0000
,
0010
0100
0010
0100
,
0010
0000
0000
0000
,
0000
0000
0000
0000
,
0001
0000
1000
0000
,
0010
0001
0100
1000
,
1001
0000
0000
0000
,
0001
1000
0001
1000
,
0001
0000
0000
0000
,
1000
0001
1000
0001
,
1000
0000
0000
0000
,
0010
0000
0001
0000
,
0100
0000
1000
0000
,
0000
0001
1000
0100
,
0000
0000
0000
0000
,
0000
1000
0010
0100
,
0000
0000
0000
0000
,
0000
1000
0100
0100
,
0000
0001
0100
0100
,
0000
1000
0000
0010
,
0000
0100
0010
0100
,
0010
0100
0000
1000
,
0000
0100
0010
0100
,
0010
0100
0000
0001
,
0000
0100
0000
0000
,
0000
0001
0000
0010
,
0000
1000
0000
0010
,
0000
0001
0000
0100
,
0000
1000
0000
0000
,
1000
1001
0000
0000
;

//---------------dance-single - ----------------
#NOTES:
     dance-single:
     :
     Medium:
     7:
     :
0000
0000
0000
0000
,
0000
0000
0000
0000
,
0000
0000
0000
0000
,
0000
0000
0000
0000
,
0000
0000
0000
0000
,
0000
0000
0000
0000
,
0010
0000
0001
0000
0100
0000
0100
0001
,
0010
0000
0001
0000
0100
0000
0100
0001
,
0010
0200
0000
0000
1000
0000
0000
0000
,
1000
0000
0000
1300
0000
0001
0000
0000
,
2000
3000
0002
0003
,
2002
0000
0000
3003
,
1000
0100
0010
0100
,
1000
0000
0100
0020
0000
0000
0030
0000
,
0001
0100
0010
0100
,
0001
0000
0100
0020
0000
0000
0030
0000
,
1000
0010
0001
0010
,
1000
0000
0010
0100
0000
0000
0001
1000
,
0001
0000
0000
1000
0000
0001
0100
0000
,
2002
0000
0000
3003
,
0001
0100
0010
0100
,
0001
0000
0100
0020
0000
0000
0030
0000
,
1000
0100
0010
0100
,
1000
0000
0100
0020
0000
0000
0030
0000
,
0001
0010
1000
0010
,
0001
0000
0010
0100
0000
0000
1000
0001
,
1000
0000
0000
0001
0000
1000
0100
0020
,
0000
0000
0000
0030
,
0200
0000
0000
0300
0000
0000
0010
0000
,
0001
1100
1000
0101
,
2000
0000
3002
0000
,
0013
0000
0001
0100
0000
0000
0000
0000
,
0020
0000
0000
0030
0000
0000
1000
0000
,
0010
0110
0100
0110
,
0010
1000
0100
0001
,
0010
1000
0100
1001
,
1001
0010
1000
0001
,
0010
0001
1000
0100
,
0010
0001
1000
0010
,
0100
0001
1000
0010
,
0100
0001
1000
0100
,
1000
0010
0100
0001
,
2000
3000
0002
0003
,
0011
1010
0101
1100
,
1001
0010
0001
1000
,
0010
1000
0001
0200
,
0310
1000
0001
0010
,
0100
1000
0001
0020
,
0130
1000
0001
0100
,
0001
0010
0100
2000
,
3002
0003
2000
3000
,
0000
1001
0100
0010
,
0001
1000
0010
0100
,
0001
1000
0010
0000
1000
0000
0100
0000
,
0010
0100
1000
0001
,
0100
0010
1000
0000
0001
0000
1000
0000
,
0100
0010
0001
0100
,
0001
1000
0200
0000
0300
0000
0020
0000
,
0030
0011
1010
0101
,
1100
0000
1001
0000
0000
0000
0000
0001
,
0100
0001
0010
0000
0001
1000
0000
0001
,
0000
0010
0000
0000
0000
0000
0000
0100
,
0010
0100
1000
0000
0001
1000
0000
0010
,
0000
0100
0000
0000
0000
0000
0000
0010
,
1000
0010
0100
0000
0001
0010
0000
0001
,
0000
1001
0000
0110
,
0000
0001
0010
0100
,
1000
1001
0000
0000
;

//---------------dance-single - ----------------
#NOTES:
     dance-single:
     :
     Hard:
     8:
     :
0000
0000
0000
0000
,
0000
0000
0000
0000
,
0000
0000
0000
0000
,
0000
0000
0000
0000
,
0000
0000
0000
0000
,
0000
0000
0000
0000
,
0001
0000
1000
0001
0000
1000
0100
0010
,
0001
0100
0100
0010
0000
0100
0010
1000
,
0100
0100
0000
0000
0010
0000
0000
0000
,
0001
0000
0000
1000
0000
1001
0000
0000
,
0001
0001
0001
0000
1000
1000
1000
0000
,
0001
0001
0010
0010
0100
0100
1000
1000
,
0010
0100
0001
0010
1000
0010
0100
1000
,
0010
0100
0001
0020
0000
0000
0031
0100
,
1000
0100
0010
1000
0100
1000
0010
0100
,
0001
0010
0001
0200
0000
0000
0310
1000
,
0001
0010
0100
0010
0001
1000
0010
0100
,
0010
1000
0100
0010
0000
0001
0010
0100
,
1000
0000
0001
0010
0000
0001
0100
0000
,
1002
0023
0230
2300
,
3001
0100
0010
0001
0010
1000
0100
1000
,
0010
0100
0001
0020
0000
0000
0031
1000
,
0100
1000
0010
0100
0001
0010
0100
1000
,
0010
0100
0001
2000
0000
0000
3010
0100
,
0001
1000
0100
0010
0001
1000
0100
1000
,
0010
0100
0001
0010
0000
0001
0010
0100
,
1000
0000
0001
0100
0000
0001
1000
0200
,
0000
0000
0000
0000
0000
1300
1000
0100
,
0100
1000
0001
1000
0000
0001
0010
0100
,
1000
0100
1000
0000
0001
0100
0001
0100
,
0010
1000
0100
0000
0010
0001
0100
0000
,
0020
0000
0100
0130
0000
0001
1000
0001
,
1000
0100
0010
0100
0000
1000
0100
0010
,
0001
1000
0100
0000
1000
0001
0100
0000
,
0010
1000
0100
0001
0100
1000
0010
0100
,
0000
0001
1000
0001
0010
0000
0110
0000
,
1001
0000
1000
0010
0001
0000
0001
0010
,
1000
0000
1000
0100
0001
0100
1000
0000
,
1001
0000
0001
0010
1000
0000
1000
0010
,
0001
0000
0001
0100
1000
0100
0001
0000
,
1000
0100
1000
0100
0010
0001
0010
0001
,
0100
0001
0100
0001
1000
0010
1000
0010
,
0200
0300
0020
0030
,
1002
0023
0230
1300
,
1001
0000
1000
0100
0001
0000
0001
0100
,
1000
0000
1000
0010
0001
0010
1000
0000
,
1001
0000
0001
0100
1000
0000
1000
0100
,
0001
0000
0001
0010
1000
0010
0001
0000
,
1000
0010
1000
0010
0100
0001
0100
0001
,
0010
0001
0010
0001
1000
0100
1000
0100
,
0020
0030
0200
0000
,
0000
0000
1300
0001
1000
0001
0100
0010
,
0100
0000
0001
0010
0001
1000
0010
1000
,
0100
0000
0010
0001
0010
0001
0100
1000
,
0100
0000
0001
0010
1000
0010
1000
0010
,
0100
1000
1100
0001
,
0101
1000
1010
0001
,
0011
2000
3001
0002
,
1003
1002
0023
0230
,
2300
0000
3001
0010
0001
0100
0010
1000
,
0010
0000
1000
0001
1000
0100
0010
0100
,
0010
0000
0001
1000
0010
1000
0010
0100
,
0010
0000
1000
0100
1000
0100
0010
1000
,
0010
0001
0101
1000
,
1100
0001
0011
1000
,
1010
0020
0000
0230
,
0000
0000
0000
0000
,
0310
1001
0000
0000
;
