#TITLE:99 Red Balloons;
#ARTIST:M-CREW project;
#BANNER:99 Red Balloons.png;
#BACKGROUND:99 Red Balloons-bg.png;
#CDTITLE:./CDTITLES/Dance Dance Revolution HOTTEST PARTY.png;
#MUSIC:99 Red Balloons.ogg;
#SAMPLESTART:32.502;
#SAMPLELENGTH:15;
#DISPLAYBPM:192;
#BPMS:0=191.6,8=192;

//---------------dance-single - ----------------
#NOTES:
     dance-single:
     :
     Beginner:
     2:
     :
0000
0000
0000
0000
,
0000
0000
0000
0000
,
0000
0000
0000
0000
,
0000
0000
0000
0000
,
0000
0000
0000
0000
,
0000
0000
0000
0000
,
1000
0000
0000
0000
,
0100
0000
0000
0000
,
0001
0000
0000
0000
,
0100
0000
0000
0000
,
1000
0000
0100
0000
,
1000
0000
0100
0000
,
0020
0000
0000
0030
,
0010
0000
0001
0000
,
0100
0000
0001
0000
,
0100
0000
0001
0000
,
2000
0000
0000
3000
,
1000
0000
0001
0000
,
0010
0000
0100
0000
,
0010
0000
0100
0000
,
1000
0000
1000
0000
,
0001
0000
0001
0000
,
0100
0000
0010
0000
,
0100
0000
0010
0000
,
1000
0000
0001
0000
,
1000
0000
0001
0000
,
0100
0000
0001
0000
,
1000
0000
0000
0000
,
1000
0000
0001
0000
,
0010
0000
0100
0000
,
1000
0000
0010
0000
,
0100
0000
0000
0000
,
0100
0000
0001
0000
,
1000
0000
0100
0000
,
0010
0000
0001
0000
,
1000
0000
0000
0000
,
0100
0000
0001
0000
,
1000
0000
0100
0000
,
0010
0000
0001
0000
,
0100
0000
0000
0000
,
0010
0000
1000
0000
,
0001
0000
1000
0000
,
0002
0000
0000
0003
,
0001
0000
0100
0000
,
2000
0000
0000
3000
,
1000
0000
0100
0000
,
0020
0000
0000
0030
,
0010
0000
1000
0000
,
0200
0000
0000
0300
,
0100
0000
0010
0000
,
0100
0000
0001
0000
,
1000
0000
0000
0000
,
1000
0000
0001
0000
,
0010
0000
0100
0000
,
1000
0000
0010
0000
,
0100
0000
0000
0000
,
0100
0000
0001
0000
,
1000
0000
0100
0000
,
0010
0000
0001
0000
,
1000
0000
0000
0000
,
0100
0000
0001
0000
,
1000
0000
0100
0000
,
0010
0000
0001
0000
,
0100
0000
0000
0000
,
0010
0000
1000
0000
,
0001
0000
1000
0000
,
0001
0000
0010
0000
,
0001
0000
0010
0000
,
0200
0000
0000
0300
,
0100
0000
1000
0000
,
0010
0000
1000
0000
,
0010
0000
1000
0000
,
0002
0000
0000
0003
,
0001
0000
1000
0000
,
2002
0000
0000
0000
0000
3003
0000
0000
;

//---------------dance-single - ----------------
#NOTES:
     dance-single:
     :
     Easy:
     5:
     :
0000
0000
0000
0000
,
0000
0000
0000
0000
,
0000
0000
0000
0000
,
0000
0000
0000
0000
,
0000
0000
0000
0000
,
0000
0000
0000
0000
,
0000
1000
0000
0001
,
0000
1000
0000
0001
,
0000
0100
0000
0010
,
0000
0100
0000
0010
,
1000
0001
1000
0001
,
0010
0100
2000
3000
,
0100
1000
0001
0000
,
1000
0001
0000
0010
,
1000
0001
1000
0001
,
0100
0010
2000
3000
,
0001
0100
0001
0000
,
1001
0000
0110
0000
,
0100
1000
0100
1000
,
0001
0010
0200
0300
,
1000
0001
0000
0100
,
0000
0010
0000
0100
,
0001
0010
0001
0010
,
0100
1000
0020
0030
,
2000
3000
0002
0003
,
1000
1000
0001
0001
,
0100
0000
0001
0000
,
1000
0100
0100
0000
,
1000
0000
0001
0000
,
0100
0100
0001
0000
,
1000
0000
0010
0000
,
0001
0010
0010
0000
,
1000
0000
0100
0000
,
0001
0001
0100
0000
,
1000
1000
0010
0000
,
0100
0100
0001
0000
,
0010
0010
0002
0003
,
2000
3000
0200
0300
,
1000
0010
0010
0000
,
0100
0001
0001
0000
,
1000
0000
0001
0000
,
1000
0001
1000
0001
,
2000
0000
3100
0000
,
0002
0000
0013
0000
,
1000
0100
1000
0100
,
0010
0001
0010
0001
,
0200
0000
0301
0000
,
0020
0000
1030
0000
,
0001
0000
1000
0000
,
0001
1000
0001
1000
,
0010
0000
1000
0000
,
0001
0010
0010
0000
,
0001
0000
1000
0000
,
0010
0010
1000
0000
,
0001
0000
0100
0000
,
1000
0100
0100
0000
,
0001
0000
0010
0000
,
1000
1000
0010
0000
,
0001
0001
0100
0000
,
0010
0010
1000
0000
,
0100
0100
1000
0000
,
0001
0001
0010
0000
,
0001
0100
0100
0000
,
0010
1000
1000
0000
,
0001
0000
1000
0000
,
0010
0100
0010
0100
,
0001
1000
0001
1000
,
0100
0010
0002
0003
,
0010
0001
1000
0000
,
0001
0000
1000
0000
,
0001
1000
0001
1000
,
0010
0100
0002
0003
,
1000
0001
1000
0000
,
1001
0000
0110
0000
,
2002
0000
0000
0000
0000
3003
0000
0000
;

//---------------dance-single - ----------------
#NOTES:
     dance-single:
     :
     Medium:
     7:
     :
0000
0000
0000
0000
,
0000
0000
0000
0000
,
0000
0000
0000
0000
,
0000
0000
0000
0000
,
0000
0000
0000
0000
,
0000
0000
0000
0000
,
0010
1000
0010
1000
,
0001
0100
0001
0100
,
0010
1000
0001
0100
,
0010
0000
1000
0000
0001
1000
0001
0000
,
1000
0000
0100
0020
0000
0000
0031
0000
,
1000
0000
0100
0020
0000
0000
0031
0000
,
0100
0100
0001
1001
,
1000
1000
0100
0110
,
0001
0000
0100
0020
0000
0000
1030
0000
,
0001
0000
0100
0020
0000
0000
1030
0000
,
0100
0100
0010
0010
,
0001
1001
1000
1001
,
0001
0000
0010
0200
0000
0000
1300
0000
,
0001
0000
0010
0200
0000
0000
1300
0000
,
0010
0010
1000
1001
,
0001
0001
0010
0110
,
1000
0000
0010
0200
0000
0000
0301
0000
,
1000
0000
0010
0200
0000
0000
0301
0000
,
1001
0000
0110
0000
,
1000
1001
0001
1001
,
0100
1000
0001
0001
,
0100
0001
1000
1000
,
0020
0030
0200
0300
,
0002
0003
2000
3000
,
0010
1000
0001
0001
,
0010
0100
1000
1000
,
0002
0003
0020
0030
,
0200
0300
2000
3000
,
0001
0000
0001
0200
0000
0000
0310
0000
,
1000
0000
1000
0200
0000
0000
0310
0000
,
0002
0003
2000
3000
,
0010
0010
0100
0100
,
0001
0000
0001
0020
0000
0000
0130
0000
,
1000
0000
1000
0020
0000
0000
0130
0000
,
0220
0000
0330
0000
,
2000
3002
2003
3002
,
0013
0000
0010
0100
0000
0000
0100
0000
,
1000
0000
1000
0001
0000
0000
0001
0000
,
0100
0000
0100
0010
0000
0000
0010
0000
,
1000
0000
1000
0100
0000
0000
0100
0000
,
0010
0000
0010
0002
0000
0003
0001
0000
,
0100
0000
0100
0020
0000
0030
0010
0000
,
2002
0000
3003
0000
,
0200
0320
0230
0320
,
2030
0000
0000
3100
0000
0000
1000
0000
,
0002
0000
0000
0103
0000
0000
0001
0000
,
0020
0000
0000
0130
0000
0000
1000
0000
,
0020
0000
0000
0130
0000
0000
0001
1000
,
0002
0000
0000
0023
0000
0000
0031
0000
,
2000
0000
0000
3020
0000
0000
1030
0000
,
0200
0000
0000
0320
0000
0000
0031
0000
,
0200
0000
0000
0320
0000
0000
1030
0000
,
0100
0000
1000
0001
0000
0100
0000
0000
,
0001
0000
0100
0010
0000
0000
1000
0000
,
0100
0010
0000
0001
0000
0010
0000
0001
,
1000
0000
1000
0001
0000
0000
1000
0000
,
0100
0100
0100
0010
,
0001
0001
0001
1000
,
1100
0000
0101
0000
,
1001
0001
1001
1000
,
0001
0000
0010
0200
0000
0000
1300
0000
,
0001
0000
0010
0200
0000
0000
1300
0000
,
0010
0010
1000
1001
,
0001
0001
0010
0110
,
1000
0000
0010
0200
0000
0000
0301
0000
,
1000
0000
0010
0200
0000
0000
0301
0000
,
0010
0010
0100
0100
,
1000
0000
0001
1000
0000
0010
0100
0002
,
0000
0000
0000
0003
;

//---------------dance-single - ----------------
#NOTES:
     dance-single:
     :
     Hard:
     8:
     :
0000
0000
0000
0000
,
0000
0000
0000
0000
,
0000
0000
0000
0000
,
0000
0000
0000
0000
,
0000
0000
0000
0000
,
0000
0000
0000
0000
,
0100
0001
1000
1000
,
0001
0100
0010
0010
,
1000
0001
0100
0100
,
0001
1000
0100
0010
0001
0000
1100
0000
,
2000
0000
3100
0020
0000
0031
2000
0000
,
3100
0000
1000
0001
0010
0000
1001
0000
,
0100
0000
2000
0001
0000
3001
1000
0000
,
0200
1000
0000
0010
0000
1300
0001
0010
,
0002
0000
0103
0020
0000
1030
0002
0000
,
0103
0000
0001
1000
0010
0000
1001
0000
,
0100
0000
0002
1000
0000
1003
0001
0000
,
0100
0001
1000
0001
0100
0010
1000
0001
,
2000
0000
3100
0020
0000
0031
2000
0000
,
3100
0000
1000
0001
0100
0000
1001
0000
,
0010
0000
2000
0100
0000
3100
1000
0000
,
0002
1000
0000
0100
0000
1003
0010
0100
,
0002
0000
0103
0020
0000
1030
0002
0000
,
0103
0000
0001
1000
0100
0000
1001
0000
,
0001
0002
0000
0003
1000
2000
0000
3000
,
0100
1000
0001
1000
0100
0010
0001
1000
,
0001
1100
0001
1100
,
0100
1000
0001
0010
0001
0000
1001
0000
,
1000
0101
1000
0101
,
1000
0010
0100
0001
0100
0000
1001
0000
,
0001
1010
0001
1010
,
0100
0001
1000
0010
1000
0000
1001
0000
,
1000
0011
1000
0011
,
1000
0100
1000
0001
0010
0001
1000
0000
,
0010
0100
0001
1000
0001
0100
0010
0000
,
1000
1001
0100
0110
,
0001
1000
0010
0100
0010
1000
0001
0000
,
0010
1001
0100
0101
,
0010
1000
0100
0010
0100
1000
0010
0000
,
0100
1001
0100
1100
,
0001
1000
0100
0010
0100
1000
0001
0000
,
1001
0110
1001
0110
,
1001
0000
0001
0100
0000
0100
0010
0000
,
1000
0000
1000
0001
0000
0001
0100
0000
,
0001
1000
0100
0000
0010
0100
1000
0000
,
0010
1000
0001
0000
0100
0010
1000
0000
,
0001
0000
0001
0010
0000
0010
0100
0000
,
1000
0000
1000
0001
0000
0001
0010
0000
,
0100
1000
0001
0000
0010
0001
0100
0000
,
0010
1000
0001
0000
0100
0001
0010
0000
,
0011
0000
0001
1000
0000
0010
0100
0000
,
0001
0100
1000
0000
0001
0100
1000
0000
,
0010
0000
1000
0001
0000
0010
0100
0000
,
1000
0100
0001
0000
1000
0100
0001
0100
,
1000
0000
0001
0100
0000
0010
1000
0000
,
0001
0010
1000
0000
0001
0010
1000
0000
,
0001
0000
1000
0100
0000
0010
0001
0000
,
1000
0010
0001
0000
1000
0010
0001
0000
,
2100
0100
0001
3001
,
1002
1000
0100
0103
,
2010
0010
0001
3001
,
0012
0010
1000
1003
,
1200
0010
1000
0310
,
0021
0100
0001
0130
,
0210
1300
1002
0103
,
0110
1010
0110
0101
,
2000
0000
3100
0020
0000
0031
2000
0000
,
3100
0000
1000
0001
0010
0000
1001
0000
,
0100
0000
2000
0001
0000
3001
1000
0000
,
0200
1000
0000
0010
0000
1300
0001
0010
,
0002
0000
0103
0020
0000
1030
0002
0000
,
0103
0000
0001
1000
0010
0000
1001
0000
,
0100
0000
1001
0000
0100
0001
0010
0000
,
0100
1000
0010
1000
0000
0001
0010
0200
,
0000
0000
0000
0300
;
