#TITLE:1998 (Sparky 2006);
#ARTIST:J-RAVERS;
#BANNER:1998 (Sparky 2006).png;
#BACKGROUND:1998 (Sparky 2006)-bg.png;
#CDTITLE:./CDTitles/HOTTEST PARTY.png;
#MUSIC:1998 (Sparky 2006).ogg;
#SAMPLESTART:14.416;
#SAMPLELENGTH:15;
#DISPLAYBPM:150;
#BPMS:0=149.35,8=150;

//---------------dance-single - ----------------
#NOTES:
     dance-single:
     :
     Beginner:
     1:
     :
0000
0000
0000
0000
,
0000
0000
0000
0000
,
0000
0000
0000
0000
,
0000
0000
0000
0000
,
1000
0000
0000
0000
,
0001
0000
0000
0000
,
0010
0000
0000
0000
,
0010
0000
0000
0000
,
0100
0000
0000
0000
,
0100
0000
0000
0000
,
1000
0000
0000
0000
,
0100
0000
0000
0000
,
0001
0000
0000
0000
,
0100
0000
0000
0000
,
1000
0000
0000
0000
,
0010
0000
0000
0000
,
0001
0000
0000
0000
,
0010
0000
0000
0000
,
1001
0000
0000
0000
,
0100
0000
0100
0000
,
0100
0000
0100
0000
,
0200
0000
0000
0300
,
0100
0000
0000
0000
,
0010
0000
0010
0000
,
0010
0000
0010
0000
,
0020
0000
0000
0030
,
0010
0000
0000
0000
,
1000
0000
1000
0000
,
0100
0000
0000
0000
,
0001
0000
0001
0000
,
0100
0000
0000
0000
,
1000
1000
0000
0000
,
0100
0000
0000
0000
,
0010
0000
0000
0000
,
0001
0001
0000
0000
,
2000
0000
0000
3000
,
1000
0000
0000
0000
,
0002
0000
0000
0003
,
0001
0000
0000
0000
,
2000
0000
0000
3000
,
1000
0000
0000
0000
,
0002
0000
0000
0003
,
0001
0000
0000
0000
,
0110
0000
0000
0000
,
1000
1000
0000
0000
,
0010
0000
0000
0000
,
0100
0000
0000
0000
,
0001
0001
0000
0000
,
1000
0000
1000
0000
,
1000
0000
0000
0000
,
0001
0000
0001
0000
,
0001
0000
0000
0000
,
0010
0000
0010
0000
,
0010
0000
0000
0000
,
0100
0000
0100
0000
,
0100
0000
0000
0000
,
1000
0000
0000
0000
,
0100
0000
0000
0000
,
0001
0000
0000
0000
,
0100
0000
0000
0000
,
1001
0000
0000
0000
;

//---------------dance-single - ----------------
#NOTES:
     dance-single:
     :
     Easy:
     5:
     :
0000
0000
0000
0000
,
0000
0000
0000
0000
,
0000
0000
0000
0000
,
0000
0000
0000
0000
,
1000
0000
0000
0000
,
0001
0000
0000
0000
,
1000
0100
0001
0100
,
1000
0100
0001
0100
,
1000
0000
0000
0000
,
0100
0000
0000
0000
,
1000
1000
1000
0000
,
0001
0001
0000
0000
,
0001
0010
0001
0000
,
1000
0100
1000
0000
,
0001
0010
1000
0000
,
1000
0010
0001
0000
,
1000
0000
1000
0000
,
0001
0000
0001
0000
,
0220
0000
0000
0000
,
0330
0000
0000
0000
,
0000
0000
0000
0000
,
0001
0010
1000
0010
,
0001
0010
1000
0010
,
0010
0000
0000
0000
,
0100
0000
0000
0000
,
2000
0000
3000
0000
,
0002
0000
0003
0000
,
0010
0000
0001
0001
,
0100
0000
1000
1000
,
0010
0001
0010
1000
,
0010
0001
0010
1000
,
0001
0000
0000
0000
,
0000
0000
0000
0000
,
0002
0000
0003
0000
,
0200
0000
0300
0000
,
1000
1000
0000
0000
,
0010
0000
0000
0000
,
0001
0001
0000
0000
,
0000
0000
1000
0001
,
0010
0000
0010
0000
,
0010
0010
0010
0010
,
0001
0000
1000
0000
,
0100
0000
0010
0000
,
0200
0000
0000
0000
,
0300
0000
0000
0000
,
0000
0000
0000
0000
,
1000
0000
0010
0000
,
1001
0110
1001
0110
,
0000
0000
0000
0000
,
0000
0000
0000
0000
,
1000
0001
0100
0000
,
0001
1000
0100
0000
,
1000
0000
0100
0000
,
0001
0000
0010
0000
,
1000
0100
0001
0100
,
1000
0100
0001
0100
,
1000
0000
0000
0000
,
0000
0000
0000
0000
,
0010
0001
0100
1000
,
0010
0001
0100
1000
,
0110
1001
0110
0000
;

//---------------dance-single - ----------------
#NOTES:
     dance-single:
     :
     Medium:
     7:
     :
0000
0000
0000
0000
,
0000
0000
0000
0000
,
0000
0000
0000
0000
,
0000
0000
0000
0000
,
1000
0010
1000
0100
,
0001
0010
0001
0100
,
1000
0000
0001
0000
0010
0000
0100
1000
,
0001
0000
1000
0000
0010
0000
0100
0001
,
1000
0000
0001
0000
0100
0010
1000
0000
,
0001
0000
1000
0000
0100
0010
0001
0000
,
1000
0010
0001
0100
,
1000
0000
0010
0000
0001
0100
1000
0000
,
0001
0011
1000
0100
,
0001
0000
0010
0000
1000
0100
0001
0000
,
1000
1100
1000
0100
,
0010
0000
0001
0000
0010
0001
0100
0000
,
0001
0101
0001
0100
,
0010
0000
1000
0000
0010
1000
0100
0000
,
0020
0000
0000
0030
,
1002
0000
0100
0103
,
0020
0000
1000
1030
,
2001
0000
0100
3100
,
0020
0000
0001
0031
,
0200
0010
0010
0310
,
2000
0001
0001
3001
,
0020
0100
0100
0130
,
2000
0001
0001
3001
,
0020
0001
0100
0031
,
0200
0010
0001
0310
,
2000
0100
0001
3100
,
0002
0100
1000
0103
,
0010
1000
0100
0001
,
0010
1000
0100
1001
,
0010
0001
0100
1000
,
2002
0000
0000
3003
,
0100
0010
0100
0010
0200
0000
0010
0000
,
0000
0010
0000
0310
,
0001
1000
0001
1000
0002
0000
1003
0000
,
0000
0100
0010
0100
,
1000
0010
1000
0010
1000
0000
0002
0000
,
0000
0000
0000
0103
0000
0000
0000
0000
,
0001
0010
0001
0010
0001
0000
2000
0000
,
0000
0000
0100
3100
,
0220
0000
0000
0000
0000
0330
0000
0000
,
2002
0000
0000
0000
,
0000
0000
0000
0000
0000
0000
3000
1000
,
1003
0000
0100
0000
,
0100
0000
0010
0010
,
0001
0011
0100
1000
,
0001
0011
0100
1000
,
0001
1000
0100
0100
0000
0001
0100
0100
,
0020
0000
0000
0030
,
1000
1100
0010
0001
,
1000
1100
0010
0001
,
1000
0010
0100
0100
0000
0001
0010
0010
,
0200
0000
0000
0300
,
1000
0010
1000
0100
,
0001
0010
0001
0100
,
1000
0001
0010
0100
,
0010
0001
1000
0010
,
0200
0000
0000
0300
0000
0000
0000
0000
;

//---------------dance-single - ----------------
#NOTES:
     dance-single:
     :
     Hard:
     9:
     :
0000
0000
0000
0000
,
0000
0000
0000
0000
,
0000
0000
0000
0000
,
0000
0000
0000
0000
,
1000
0001
1000
0001
0000
0000
0000
0000
0100
0000
0000
0000
0010
0000
0000
0000
,
1000
0100
1000
0100
0000
0000
0000
0000
1000
0000
0000
0000
0001
0000
0000
0000
,
0100
0010
0100
0010
0000
0000
0000
0000
1000
0000
0000
0000
0010
0000
0000
0000
,
0100
0001
0100
0001
0000
0000
0000
0000
0010
0000
0000
0000
0100
0000
0000
0000
,
1000
0001
0100
0001
0000
0000
0000
0000
0010
0000
0000
0000
0100
0000
0000
0000
,
1000
0001
1000
0000
0100
0000
0010
0000
,
1100
0000
0101
0001
0010
0100
1000
0000
,
0001
0010
0100
0001
0100
1000
0001
0000
,
1000
0000
0010
0000
1000
0000
0100
0000
0010
0000
0001
1000
0000
0000
0000
0000
,
0010
0100
0001
0010
0100
0001
0100
0000
,
1000
0010
1000
0001
0010
0100
1000
0010
,
0110
0000
0000
0001
1000
0100
0001
0100
,
0010
0000
0001
1000
0010
1000
0100
0010
,
0001
1000
0001
0000
1000
0100
0010
0001
,
2002
0000
0000
3003
,
1000
0000
0000
1000
0100
0000
0000
0100
0010
0000
0000
0010
0001
0000
0000
0001
,
1000
0000
0000
1000
0010
0000
0000
0010
0100
0000
0000
0100
0001
0000
1000
0000
,
0001
0000
0000
0001
0010
0000
0000
0010
0100
0000
0000
0100
1000
0000
0000
1000
,
0010
0000
0000
0010
1000
0000
0000
1000
0001
0000
0000
0001
0100
0000
0010
0000
,
0100
0000
0101
0000
0010
1000
0100
0000
,
0100
0000
1100
0000
0010
0001
0100
0000
,
0010
1000
0100
0001
0100
1000
0010
0001
,
0010
1000
0100
0001
0100
1000
0010
0001
,
0010
0000
0000
1000
0100
0000
0000
0010
0001
0000
0000
0100
0010
0000
0000
1000
,
0001
0000
0000
0010
0001
0000
0000
1000
0010
0000
0000
1000
0100
0000
0010
0000
,
0001
0000
0000
1000
0010
0000
0000
0100
0010
0000
0000
1000
0100
0000
0000
0010
,
0001
0000
0000
0100
0010
0000
0000
0100
0001
0000
0000
1000
0010
0000
0100
0000
,
0001
0000
0011
0000
0010
0100
1000
0000
,
1000
0000
1010
0000
0010
0100
0001
0000
,
1000
0100
0001
0100
1000
0100
0001
0100
,
1000
0010
0001
0010
1000
0010
0001
0010
,
1000
0100
1000
0100
0020
0000
0001
0000
,
1000
0001
1000
0031
,
0100
0001
0100
0001
0020
0000
0001
0000
,
1000
0001
1000
0031
,
1000
0010
0100
0001
,
0011
0100
1000
1001
,
1001
0010
0100
1000
,
1010
0100
0001
1001
,
0220
0000
0000
0330
,
2002
0000
0000
0003
,
0200
0000
0000
0000
0000
0000
3000
1300
,
0100
0000
0010
0000
,
0001
1000
0101
1100
,
0010
0001
0100
0001
1000
0010
1000
0100
,
0010
0100
1000
0001
0100
0010
0100
0000
,
0001
1000
0001
0010
0100
1000
0010
1000
,
0001
0100
0010
1000
0100
0010
0001
0000
,
1000
0100
0010
0100
1000
0001
0010
0001
,
0100
0010
1000
0100
0010
0001
0100
0000
,
0010
1000
0001
0010
0100
1000
0010
0100
,
0001
0010
0100
0010
0001
1000
0001
0000
,
1000
0010
0100
0001
,
1000
0010
0100
0001
,
1000
0100
0010
0001
0100
0010
1000
0100
,
1000
0001
1000
0010
0100
0010
1000
0001
,
0010
0000
0000
0100
0000
0000
1000
0000
0000
0000
0000
0000
0000
0000
0000
0000
;
