#TITLE:1, 2 Step;
#ARTIST:LADY-S;
#BANNER:1, 2 Step.png;
#BACKGROUND:1, 2 Step-bg.png;
#CDTITLE:./CDTITLES/Dance Dance Revolution HOTTEST PARTY.png;
#MUSIC:1, 2 Step.ogg;
#SAMPLESTART:29.726;
#SAMPLELENGTH:15;
#DISPLAYBPM:113;
#BPMS:0=112.87,8=113;

//---------------dance-single - ----------------
#NOTES:
     dance-single:
     :
     Beginner:
     1:
     :
0000
0000
0000
0000
,
0000
0000
0000
0000
,
0000
0000
0000
0000
,
0000
0000
0000
0000
,
0000
0000
0000
0000
,
0000
0000
0000
0000
,
0001
0000
0000
0000
,
0000
0000
0000
0000
,
0000
0000
0000
0000
,
0000
0000
0000
0000
,
0001
0000
0000
0000
,
0000
0000
0000
0000
,
0000
0000
0000
0000
,
0001
0000
0000
0000
,
0001
0000
0000
0000
,
0000
0000
0000
0000
,
0000
0000
0000
0000
,
0000
0000
0000
0000
,
0001
0000
0000
0000
,
0000
0000
0000
0000
,
0001
0000
0000
0000
,
0000
0000
0000
0000
,
0001
0000
0000
0000
,
0000
0000
0000
0000
,
0000
0000
0000
0000
,
0000
0000
0000
0000
,
0001
0000
0000
0000
,
0000
0000
0000
0000
,
0000
0000
0000
0000
,
0000
0000
0000
0000
,
0001
0000
0000
0000
,
0000
0000
0000
0000
,
0001
0000
0000
0000
,
0000
0000
0000
0000
,
0001
0000
0000
0000
,
0000
0000
0000
0000
,
0001
0000
0000
0000
,
0000
0000
0000
0000
,
0001
0000
0000
0000
,
0000
0000
0000
0000
,
0001
0000
0000
0000
,
0000
0000
0000
0000
,
0001
0000
0000
0000
,
0000
0000
0000
0000
,
0001
0000
0000
0000
,
0000
0000
0000
0000
,
0001
0000
0000
0000
,
0000
0000
0000
0000
,
0001
0000
0000
0000
,
0000
0000
0000
0000
,
0001
0000
0000
0000
;

//---------------dance-single - ----------------
#NOTES:
     dance-single:
     :
     Easy:
     2:
     :
0000
0000
0000
0000
,
0000
0000
0000
0000
,
0000
0000
0000
0000
,
0000
0000
0000
0000
,
0000
0000
0000
0000
,
0000
0000
0000
1001
,
0010
0010
0000
0000
,
1000
1000
0000
0000
,
0100
0100
0000
0000
,
0001
0001
0000
0000
,
0010
1000
0000
0000
,
1000
0100
0000
0000
,
0100
0010
0000
0000
,
0001
0000
0000
0000
,
1001
0000
0000
0000
,
0000
0010
0010
0100
,
0100
0000
0000
0000
,
0000
0100
0010
0010
,
0100
0000
0000
0001
,
1001
0000
0000
0100
,
0110
0000
0000
0000
,
1000
0001
0101
0001
,
0001
0000
0000
0000
,
1000
0000
0000
0000
,
0001
0000
0000
0000
,
0001
0000
0000
0000
,
0100
0000
0000
0000
,
0100
0000
0000
0000
,
0010
0000
0000
0000
,
0010
0100
0001
1001
,
0001
0000
0000
0000
,
0100
0000
0000
1000
,
0001
0000
0000
0000
,
0010
0000
0000
1000
,
0001
0000
0000
0000
,
0100
0000
0000
0001
,
1000
0000
0000
0000
,
1001
0000
0000
0100
,
1001
0000
0000
0000
,
0000
0010
0010
0100
,
0100
0000
0000
0000
,
0000
0100
0010
0010
,
0100
0000
0001
0001
,
1001
0000
1000
1000
,
1010
0100
0010
0010
,
1000
0000
0100
1001
,
0010
0000
0000
0000
,
0100
0000
0000
0000
,
0010
0000
0100
0000
,
0010
0000
0000
0000
,
1001
0000
0000
0000
;

//---------------dance-single - ----------------
#NOTES:
     dance-single:
     :
     Medium:
     4:
     :
0000
0000
0000
0000
,
0000
0000
0000
0000
,
0000
0000
0000
0000
,
0000
0000
0000
0000
,
0000
0000
0000
0000
,
1000
1010
0100
1001
,
0010
0000
1000
1000
,
0010
0000
1000
0001
,
0010
0000
0001
0100
,
0010
0000
0000
0000
0001
1000
0100
0000
,
0010
0000
1000
1000
,
0010
0000
1000
0001
,
0010
0000
0001
0100
,
0010
0000
0000
0000
0001
1000
0001
0000
,
0010
0001
0100
0000
0001
0000
1000
0000
,
0001
1000
0100
0000
0001
0000
1000
0000
,
0010
0000
0000
0000
1000
0001
1000
0000
,
0001
0010
0001
0000
0001
1000
0100
0000
,
1000
0000
1000
1000
,
0100
0000
0001
0001
,
0010
0000
0100
0100
,
0010
0100
0001
1001
,
1001
0000
0010
0000
,
0001
0000
0100
0000
,
0001
0000
1000
0000
,
0010
0000
0100
0000
,
0100
0000
0001
0000
,
0010
0000
1000
0000
,
0010
0000
0001
0000
,
0010
1001
0011
1100
,
0001
0010
0000
1000
0100
0000
1000
0000
,
0001
0010
0000
1000
0100
0000
1000
0000
,
0010
0000
1000
1000
,
0001
0001
0100
0000
,
0001
0100
0000
1000
0010
0000
1000
0000
,
0001
0100
0000
1000
0010
0000
1000
0000
,
0010
0000
1000
1000
,
0001
0001
0100
0110
,
0010
0001
0100
0000
0001
0000
1000
0000
,
0001
1000
0100
0000
0001
0000
1000
0000
,
0010
0000
0000
0000
1000
0001
1000
0000
,
0001
0010
0001
0000
0001
1000
0100
0000
,
1000
0000
1000
1000
,
0100
0000
0001
0001
,
0010
0000
0100
0100
,
0010
0100
0001
1001
,
0010
0000
0001
0000
0100
0001
1000
0000
,
1010
0100
0010
0100
,
0010
0000
1000
0000
0100
1000
0001
0000
,
0101
0000
0010
0100
0010
1000
0001
0010
,
1001
0000
0000
0000
;

//---------------dance-single - ----------------
#NOTES:
     dance-single:
     :
     Hard:
     6:
     :
0000
0000
0000
0000
,
0000
0000
0000
0000
,
0000
0000
0000
0000
,
0000
0000
0000
0000
,
0000
0000
0000
0000
,
0000
0010
0100
1001
,
0010
0000
1000
0100
0001
0100
1001
0000
,
0001
0010
0001
0000
1000
0100
1000
0000
,
0001
0010
0100
1000
0100
0010
0001
0010
,
0001
1000
0001
1000
0010
0100
0000
0000
,
0010
0000
1000
0100
0001
0100
1001
0000
,
0001
0010
0001
0000
1000
0100
1000
0000
,
0001
0010
0100
1000
0100
0010
0001
0100
,
0001
0000
0000
0000
0001
0010
0101
0000
,
0010
0000
0100
1000
0001
0010
1000
0000
,
0001
0010
0001
1000
0100
0010
0001
0000
,
0001
0010
0100
1000
0100
0010
0001
0010
,
0001
1000
0001
1000
0010
0100
0010
0100
,
1000
0000
0010
0000
1000
0001
1001
0000
,
0100
0000
0010
0000
0001
1000
1001
0000
,
0001
0000
0100
0000
0010
0100
1001
0000
,
0001
1000
0001
1000
0100
0000
0010
1001
,
0000
0000
0000
1000
0002
0000
0003
1000
,
0200
0000
0300
0001
2000
0000
3000
0020
,
0000
0030
0000
0000
1000
0001
1000
0001
,
1000
0000
0001
0010
0100
0010
0001
1000
,
0001
0000
0000
1000
0100
0010
0100
1000
,
0001
0000
1000
0001
2000
0000
3000
0001
,
0000
0000
0000
1000
0002
0000
0203
0000
,
0320
2030
3001
1100
,
0001
0010
0000
1000
0100
1000
0001
0000
,
0010
0000
0000
1000
0100
1000
0001
0000
,
0010
0100
0010
1000
0010
0001
0010
0100
,
1000
0001
1000
0001
0100
0010
0100
0010
,
1000
0100
1000
0000
0001
0100
0001
0000
,
1000
0001
1000
0000
0001
0010
0001
0000
,
0010
0100
0010
1000
0010
0001
0010
0100
,
1000
0000
0001
0000
1000
0000
0001
0010
0000
0000
0000
0000
0000
0000
0000
0000
,
0010
0000
0100
0001
1000
0010
0001
0000
,
1000
0010
1000
0001
0100
0010
1000
0000
,
1000
0010
0100
0001
0100
0010
1000
0010
,
1000
0001
1000
0001
0010
0100
0010
0100
,
0001
0000
0010
0000
0001
1000
1001
0000
,
0100
0000
0010
0000
1000
0001
1001
0000
,
1000
0000
0100
0000
0010
0100
1001
0000
,
1000
0001
1000
0001
0100
0000
0010
1001
,
0000
0100
0000
0100
,
0000
0010
0000
0010
,
1000
0100
1000
0010
1000
0001
1000
0010
,
0100
0001
1000
0001
1000
0100
0010
0001
,
1001
0000
0000
0000
;
