
//----- song ID: yoka -----//
#TITLE:夜に駆ける;
#TITLETRANSLIT:Yoru ni kakeru;
#BANNER:Yoru ni kakeru.png;
#BACKGROUND:Yoru ni kakeru-bg.png;
#CDTITLE:./CDTitles/jubeat (2021).png;
#MUSIC:Yoru ni kakeru.ogg;
#SAMPLESTART:76.748;
#SAMPLELENGTH:15;
#BPMS:0=130;
#NOTES:
     dance-single:
     :
     Beginner:
     1:
     :
0000
0000
0000
0000
,
0000
0000
0000
0000
,
0000
0000
0000
0000
,
0000
0000
0000
0000
,
0000
0000
0000
0000
,
0000
0000
0000
0000
,
1000
0000
0000
0000
,
0000
0000
0000
0000
,
1000
0000
0000
0000
,
0000
0000
0000
0000
,
0100
0000
0000
0000
,
0000
0000
0000
0000
,
0100
0000
0000
0000
,
0000
0000
0000
0000
,
0010
0000
0000
0000
,
0000
0000
0000
0000
,
0010
0000
0000
0000
,
0000
0000
0000
0000
,
0001
0000
0000
0000
,
0001
0000
0000
0000
,
0001
0000
0000
0000
,
0000
0000
0000
0000
,
0010
0000
0000
0000
,
0010
0000
0000
0000
,
0010
0000
0000
0000
,
0000
0000
0000
0000
,
0100
0000
0000
0000
,
0100
0000
0000
0000
,
0100
0000
0000
0000
,
0000
0000
0000
0000
,
1000
0000
0000
0000
,
1000
0000
0000
0000
,
1000
0000
0000
0000
,
0000
0000
0000
0000
,
1000
0000
0000
0000
,
1000
0000
0000
0000
,
0010
0000
0000
0000
,
0000
0000
0000
0000
,
0001
0000
0000
0000
,
0001
0000
0000
0000
,
0010
0000
0000
0000
,
0000
0000
0000
0000
,
0001
0000
0010
0000
,
0001
0000
0000
0000
,
0000
0000
0000
0000
,
0000
0000
0000
0000
,
0010
0000
0010
0000
,
0001
0000
0000
0000
,
0000
0000
0000
0000
,
0000
0000
0000
0000
,
0010
0000
1000
0000
,
0010
0000
0000
0000
,
0000
0000
0000
0000
,
0000
0000
0000
0000
,
0010
0000
0010
0000
,
1000
0000
0000
0000
,
0000
0000
0000
0000
,
0010
0000
0000
0000
,
0010
0000
0000
0000
,
0100
0000
0000
0000
,
0000
0000
0000
0000
,
0100
0000
0000
0000
,
0100
0000
0000
0000
,
0010
0000
0000
0000
,
0000
0000
0000
0000
;
#NOTES:
     dance-single:
     :
     Easy:
     2:
     :
0000
0000
0000
0000
,
0000
0000
0000
0000
,
0000
0000
0000
0000
,
0000
0000
0000
0000
,
0000
0000
0000
0000
,
0000
0000
0000
0000
,
0001
0000
0000
0000
,
0010
0000
0000
0000
,
0001
0000
0000
0000
,
0000
0000
0000
0000
,
0001
0000
0100
0000
,
0001
0000
0000
0000
,
0100
0000
0000
0000
,
0000
0000
0000
0000
,
0010
0000
1000
0000
,
0010
0000
0000
0000
,
1000
0000
0000
0000
,
0000
0000
0000
0000
,
0100
0000
0000
0000
,
0100
0000
0000
0000
,
1000
0000
0000
0000
,
1000
0000
0000
0000
,
0100
0000
0000
0000
,
0100
0000
0000
0000
,
0010
0000
0000
0000
,
0000
0000
0000
0000
,
0001
0000
0000
0000
,
0001
0000
0000
0000
,
0010
0000
0000
0000
,
0010
0000
0000
0000
,
0001
0000
0000
0000
,
0001
0000
0000
0000
,
0100
0000
0000
0000
,
0000
0000
0000
0000
,
0010
0000
0100
0000
,
0010
0000
0000
0000
,
0200
0000
0000
0000
,
0300
0000
0000
0000
,
0001
0000
1000
0000
,
0001
0000
0000
0000
,
2000
0000
0000
0000
,
3000
0000
0000
0000
,
0001
0001
0010
0000
,
0001
0000
0000
0000
,
0100
0000
0010
0000
,
0100
0000
0000
0000
,
0010
0001
0100
0000
,
0001
0000
0000
0000
,
1000
0000
0000
0000
,
0000
0000
0000
0000
,
1000
1000
0010
0000
,
1000
0000
0000
0000
,
0100
0000
0010
0000
,
0100
0000
0000
0000
,
0010
1000
0100
0000
,
1000
0000
0000
0000
,
0000
0000
0000
0000
,
0002
0000
0000
0000
,
0003
0000
0000
0000
,
0020
0000
0000
0000
,
0030
0000
0000
0000
,
0200
0000
0000
0000
,
0300
0000
0000
0000
,
2000
0000
0000
0000
,
3000
0000
0000
0000
,
1001
0000
0000
0000
,
0000
0000
0000
0000
;
#NOTES:
     dance-single:
     :
     Medium:
     6:
     :
0000
0000
0000
0000
,
0000
0000
0000
0000
,
0000
0000
0000
0000
,
0000
0000
0000
0000
,
0000
0000
0000
0000
,
0000
0000
0000
0000
,
1000
0010
1000
0010
,
0100
0001
0100
0001
,
0010
0001
0010
0001
,
0000
0000
0000
0000
,
0001
0100
0001
0000
0010
0000
0000
0000
,
0001
0100
0001
0000
1000
0000
0000
0000
,
0010
1000
0010
0000
0100
0000
0010
0000
,
1000
0100
0010
0000
,
0100
1000
0100
0000
0010
0000
0000
0000
,
0001
1000
0001
0000
1000
0000
0000
0000
,
0010
0100
0010
0000
1000
0000
0001
0000
,
0100
0010
1000
0000
,
0100
1000
0100
0010
,
0100
0010
0001
1000
,
0010
0010
0100
0100
,
0001
1000
0001
0000
1000
0000
0000
0000
,
0010
1000
0010
1000
,
0100
1000
0100
0010
,
0001
0010
0001
1000
,
0100
0010
0100
0000
0010
0000
0000
0000
,
0001
0100
0001
0100
,
0010
1000
0010
1000
,
0010
1000
0100
0010
,
0001
1000
0001
0000
0100
0000
0000
0000
,
0010
0010
1000
1000
,
0001
0100
0001
0100
,
0001
0010
0001
1000
,
0100
1000
0100
0000
0010
0000
0000
0000
,
0100
0100
0110
0000
,
0010
0010
0110
0000
,
0001
0001
1000
1000
,
0001
1000
1001
0000
,
0001
0100
0010
1000
,
0100
0010
0001
0100
,
0010
1000
0010
0000
1000
0001
1000
0000
,
2002
0000
3003
0000
,
1000
0000
0010
0000
0100
0010
0100
0000
,
0001
0010
0011
0000
,
0010
0001
0100
0010
,
1000
0010
1000
0010
1000
0000
0000
0000
,
1000
0100
0001
0000
,
0001
0100
1000
0000
,
0001
0100
0001
0000
1000
0010
1000
0000
,
0002
1000
1000
1003
,
0001
0000
0100
0000
0010
0100
0010
0000
,
1000
0100
1100
0000
,
0100
1000
0010
0100
,
0001
0010
0001
0010
0001
0000
0000
0000
,
0001
0100
1000
0000
,
1000
0100
0001
0000
,
1000
0100
1000
0000
0001
0000
0000
0000
,
0010
0001
0010
0000
0001
0000
0001
0000
,
1000
0010
1000
0000
0010
0000
0010
0000
,
1000
0100
1000
0000
0010
0000
0100
0000
,
0001
1000
0001
0000
,
0010
0001
0010
0000
0001
0000
1000
0000
,
0100
1000
0100
0000
0010
0000
0100
0000
,
1000
0001
1000
0000
0010
0000
0100
0000
,
0010
1000
0100
0010
,
0110
0000
0000
0000
,
0000
0000
0000
0000
;
#NOTES:
     dance-single:
     :
     Hard:
     11:
     :
0000
0000
0000
0000
,
0000
0000
0000
0000
,
0000
0000
0000
0000
,
0000
0000
0000
0000
,
0000
0000
0000
0000
,
0000
0000
0000
0000
0000
0000
1000
0100
,
0010
0000
0000
0001
0000
0000
0010
0000
0001
0000
0100
0000
0010
0000
1000
0000
,
0100
0001
0100
1000
0000
0010
1000
0200
,
0010
0010
1000
1300
,
2002
0000
0000
3003
,
0001
1000
0000
0001
0000
0000
0010
0000
0100
0000
0010
0000
0001
0000
0000
0000
,
0100
0010
0000
0100
0000
0000
0010
0000
1000
0000
0001
0000
1000
0000
0000
0000
,
0010
1000
0000
0010
0000
0000
1000
0000
0100
0000
1000
0000
0100
0000
0000
0000
,
0010
0100
1000
0010
0100
0000
1001
0000
,
1000
0001
0000
1000
0000
0000
0100
0000
0010
0000
0100
0000
1000
0000
0000
0000
,
0010
0100
0000
0010
0000
0000
0100
0000
0001
0000
1000
0000
0001
0000
0000
0000
,
0100
0001
0000
0100
0000
0000
0001
0000
0010
0000
0001
0000
0010
0000
0000
0000
,
0100
0010
0001
0100
0010
1000
0001
0000
,
1000
0001
1000
0100
0000
0010
0100
1000
,
0000
1001
0000
0001
0010
0001
0010
0100
,
1000
0010
0100
0010
1000
0001
0100
0001
,
0000
0011
0000
0010
0001
0100
0010
1000
,
0100
0000
0010
0000
0100
0000
0010
0000
0001
0000
0000
1000
0000
0000
0001
0000
,
0100
0000
0010
1000
0000
0010
0000
0000
0100
0000
0000
0000
0100
0000
0010
0000
,
1000
0100
0010
0001
0000
0010
0100
1000
,
0000
0000
1000
0000
0002
0000
0000
0000
0100
0000
0000
0100
0000
0000
0103
0000
,
0001
1000
0001
0010
0000
0100
0010
0001
,
0000
1001
0000
1000
0100
1000
0100
0010
,
0001
0100
0010
1000
0100
0010
0001
1000
,
0000
1100
0000
0100
1000
0010
0100
0001
,
0010
0000
0100
0000
0010
0000
0100
0000
1000
0000
0000
0001
0000
0000
1000
0000
,
0010
0000
0100
0001
0000
0100
0000
0000
0010
0000
0000
0000
0010
0000
0100
0000
,
0001
0010
0100
1000
0000
0100
0010
0001
,
0000
0000
1001
0000
0000
0000
0000
0000
0001
0000
1000
0001
1000
0000
0000
0000
,
0010
0000
0000
1000
0000
0000
1010
0000
0000
0000
0010
0000
1000
0000
0100
0000
,
0010
0000
0000
0001
0000
0000
0011
0000
0000
0000
0010
0000
0001
0000
0100
0000
,
0010
0100
0010
0100
0001
1000
0001
1000
,
0001
0010
1000
0010
0002
0000
0103
0000
,
0010
1000
0100
0000
0010
0001
0100
0000
,
0010
1000
0100
0010
0001
0000
0001
0100
,
0010
0100
0010
0100
0010
1000
0010
1000
,
0001
0000
0000
1000
0000
0001
0000
0000
1001
0000
0000
0000
0000
0000
0000
0000
,
0001
0100
0010
0100
0010
1000
0001
1000
,
0010
0001
0010
0001
0010
1000
0001
0100
,
0010
1000
0010
1000
0100
0010
0100
0010
,
0100
0001
0100
1000
0100
0010
0001
0000
,
0100
0010
1000
0000
1000
0010
0100
0000
,
0001
0010
0100
0000
0100
0010
0001
0000
,
1000
0100
0010
0001
1000
0100
0010
0001
,
1000
0000
0110
0000
0001
0001
0001
0000
,
1000
0010
0100
0010
0100
0001
1000
0001
,
0100
1000
0100
1000
0100
0001
1000
0010
,
0100
0001
0100
0001
0010
0100
0010
0100
,
0010
1000
0010
0001
0010
0100
1000
0000
,
0010
0100
0001
0000
0001
0100
0010
0000
,
1000
0100
0010
0000
0010
0100
1000
0000
,
0001
0010
0100
1000
0001
0000
0000
0000
,
1000
0010
0000
0100
0000
0000
0010
0000
0100
0000
0001
0000
0010
0000
0000
0000
,
0001
0010
0000
0100
0000
0000
0010
0000
0100
0000
1000
0000
0010
0000
0000
0000
,
0100
0001
0000
0010
0000
0000
0100
0000
1000
0000
0010
0000
0100
0000
0000
0000
,
0001
1000
0100
1000
0010
0000
1001
0000
,
0001
0010
0000
0100
0000
0000
0010
0000
0100
0000
1000
0000
0010
0000
0000
0000
,
1000
0010
0000
0100
0000
0000
0010
0000
0100
0000
0001
0000
0010
0000
0000
0000
,
0100
1000
0000
0010
0000
0000
0100
0000
0001
0000
0010
0000
0100
0000
0000
0000
,
1000
0000
0001
0000
0100
0000
0001
0000
0010
0000
0000
0100
0000
0000
0110
0000
,
0000
0000
0000
0000
;
#NOTES:
     dance-double:
     :
     Easy:
     2:
     :
00000000
00000000
00000000
00000000
,
00000000
00000000
00000000
00000000
,
00000000
00000000
00000000
00000000
,
00000000
00000000
00000000
00000000
,
00000000
00000000
00000000
00000000
,
00000000
00000000
00000000
00000000
,
00000010
00000000
00000000
00000000
,
00000001
00000000
00000000
00000000
,
00000010
00000000
00000000
00000000
,
00000000
00000000
00000000
00000000
,
00000100
00000000
00000000
00000000
,
00001000
00000000
00000000
00000000
,
00000100
00000000
00000000
00000000
,
00000000
00000000
00000000
00000000
,
00010000
00000000
00000000
00000000
,
00001000
00000000
00000000
00000000
,
00010000
00000000
00000000
00000000
,
00000000
00000000
00000000
00000000
,
00001000
00000000
00000000
00000000
,
00001000
00000000
00000000
00000000
,
01000000
00000000
00000000
00000000
,
01000000
00000000
00000000
00000000
,
00100000
00000000
00000000
00000000
,
00100000
00000000
00000000
00000000
,
10000000
00000000
00000000
00000000
,
10000000
00000000
00000000
00000000
,
01000000
00000000
00000000
00000000
,
01000000
00000000
00000000
00000000
,
00100000
00000000
00000000
00000000
,
00100000
00000000
00000000
00000000
,
00001000
00000000
00000000
00000000
,
00001000
00000000
00000000
00000000
,
00010000
00000000
00000000
00000000
,
00010000
00000000
00000000
00000000
,
00000010
00000000
00001000
00000000
,
00000001
00000000
00000000
00000000
,
00000100
00000000
00001000
00000000
,
00010000
00000000
00000000
00000000
,
00001000
00000000
00010000
00000000
,
00100000
00000000
00000000
00000000
,
01000000
00000000
00100000
00000000
,
01000000
00000000
00000000
00000000
,
00010000
00000000
00000000
00000000
,
10000000
00000000
00000000
00000000
,
01000000
00000000
00000000
00000000
,
00010000
00000000
00001000
00000000
,
00000010
00000000
00000000
00000000
,
00000001
00000000
00000000
00000000
,
00000100
00000000
00000000
00000000
,
00000010
00000000
00000000
00000000
,
00001000
00000000
00000000
00000000
,
00000100
00000000
00000000
00000000
,
00010000
00000000
00000000
00000000
,
00001000
00000000
00000000
00000000
,
00100000
00000000
00010000
00000000
,
00100000
00000000
00000000
00000000
,
01000000
00000000
00000000
00000000
,
02000000
00000000
00000000
00000000
,
03000000
00000000
00000000
00000000
,
00200000
00000000
00000000
00000000
,
00300000
00000000
00000000
00000000
,
00002000
00000000
00000000
00000000
,
00003000
00000000
00000000
00000000
,
00020000
00000000
00000000
00000000
,
00030000
00000000
00000000
00000000
,
00011000
00000000
00000000
00000000
,
00000000
00000000
00000000
00000000
;
#NOTES:
     dance-double:
     :
     Medium:
     7:
     :
00000000
00000000
00000000
00000000
,
00000000
00000000
00000000
00000000
,
00000000
00000000
00000000
00000000
,
00000000
00000000
00000000
00000000
,
00000000
00000000
00000000
00000000
,
00000000
00000000
00000000
00000000
,
00000100
00000001
00000100
00000001
,
00001000
00000010
00001000
00000010
,
00010000
00001000
00010000
00001000
,
00000000
00000000
00000000
00000000
,
00001000
00010000
00001000
00000000
00100000
00000000
00000000
00000000
,
00010000
01000000
00010000
00000000
10000000
00000000
00000000
00000000
,
00010000
10000000
00010000
00000000
10000000
00000000
01000000
00000000
,
00010000
00001000
00000010
00000000
,
00000100
00001000
00000100
00000000
00000010
00000000
00000000
00000000
,
00000001
00000100
00000001
00000000
00001000
00000000
00000000
00000000
,
00000001
00001000
00000001
00000000
00000100
00000000
00001000
00000000
,
00010000
00100000
10000000
00000000
,
01000000
00100000
00010000
10000000
,
01000000
00100000
00001000
00010000
,
00001000
00001000
00010000
00010000
,
00000010
00001000
00000100
00000000
,
00000010
00000001
00000010
00000001
,
00000100
00000010
00000100
00000010
,
00001000
00000100
00010000
00001000
,
00010000
00001000
00010000
00000000
00001000
00000000
00000000
00000000
,
00010000
00000100
00001000
00000010
,
00000100
00001000
00010000
00100000
,
10000000
01000000
00100000
00010000
,
00100000
01000000
00100000
00000000
01000000
00000000
00000000
00000000
,
00100000
00100000
00001000
00001000
,
00010000
00001000
00010000
00001000
,
00010000
00000100
00001000
00000010
,
00000100
00000010
00000100
00000000
00000001
00000000
00000000
00000000
,
00000010
00000010
00000110
00000000
,
00000001
00000001
00001001
00000000
,
00000001
00000100
00000001
00000100
,
00001000
00010000
00011000
00000000
,
00001000
01000000
00010000
00100000
,
00010000
10000000
01000000
00010000
,
01000000
00000000
00100000
00000000
00001000
00010000
00001000
00000000
,
00022000
00000000
00033000
00000000
,
00001000
00010000
00000010
00000100
,
00001000
00010000
00100000
01000000
,
00010000
00100000
01000000
00100000
,
00001000
00010000
00001000
00010000
00001000
00000000
00000000
00000000
,
00001000
00000010
00001000
00000000
,
00010000
00100000
00010000
00000000
,
00001000
00000010
00000100
00010000
,
00002000
00010000
00013000
00000000
,
00010000
00001000
00100000
01000000
,
00010000
00001000
00000010
00000100
,
00001000
00000100
00000010
00000100
,
00010000
00001000
00010000
00001000
00010000
00000000
00000000
00000000
,
00010000
00100000
00010000
00000000
,
00001000
00000010
00001000
00000000
,
00010000
00001000
00010000
00000000
00001000
00000000
00100000
00000000
,
00010000
01000000
00010000
00000000
00100000
00000000
01000000
00000000
,
00010000
00001000
00000010
00000001
,
00000100
00000010
00000100
00000000
00000010
00010000
00000010
00000000
,
00000100
00001000
00010000
00000000
,
00001000
00010000
00001000
00000000
00010000
00000000
00000100
00000000
,
00001000
00000010
00001000
00000000
00000010
00000000
00000100
00000000
,
00001000
00010000
00001000
00000000
00010000
00000000
00100000
00000000
,
10000000
00010000
00100000
01000000
,
01100000
00000000
00000000
00000000
,
00000000
00000000
00000000
00000000
;
#NOTES:
     dance-double:
     :
     Hard:
     12:
     :
00000000
00000000
00000000
00000000
,
00000000
00000000
00000000
00000000
,
00000000
00000000
00000000
00000000
,
00000000
00000000
00000000
00000000
,
00000000
00000000
00000000
00000000
,
00000000
00000000
00000000
00000000
,
00000001
00000010
00000100
00001000
00000100
00000010
00000001
00000100
,
00000010
00001000
00000010
00000100
00001000
00010000
00100000
01000000
,
00010000
01000000
00100000
10000000
01000000
00100000
00010000
00000000
,
20020000
00000000
00000000
30030000
,
10000000
01000000
00000000
10000000
00000000
00000000
00100000
00000000
01000000
00000000
00100000
00000000
10000000
00000000
00000000
00000000
,
01000000
00100000
00000000
01000000
00000000
00000000
00010000
00000000
00001000
00000000
00010000
00000000
00001000
00000000
00000000
00000000
,
00000010
00000100
00000000
00000010
00000000
00000000
00000001
00000000
00001000
00000000
00000100
00000000
00000010
00000000
00000000
00000000
,
00000001
00000010
00001000
00000010
00000001
00000000
00001001
00000000
,
00000001
00000100
00000000
00000001
00000000
00000000
00000010
00000000
00000100
00000000
00000010
00000000
00000001
00000000
00000000
00000000
,
00000100
00000010
00000000
00000100
00000000
00000000
00001000
00000000
00010000
00000000
00001000
00000000
00010000
00000000
00000000
00000000
,
00100000
01000000
00000000
00100000
00000000
00000000
10000000
00000000
00010000
00000000
01000000
00000000
00100000
00000000
00000000
00000000
,
10000000
00100000
00010000
00100000
10000000
00010000
10000000
00000000
,
00100000
10000000
01000000
00100000
00000000
00010000
00100000
00001000
,
00000000
00011000
00000000
00010000
00000100
00001000
00000100
00000010
,
00000001
00000100
00000001
00000100
00000010
00000100
00001000
00010000
,
00000000
00011000
00000000
00010000
00001000
00010000
00100000
10000000
,
00010000
00000000
01000000
00000000
00010000
00000000
01000000
00000000
00010000
00000000
00000000
00100000
00000000
00000000
00100000
00000000
,
01000000
00000000
10000000
00010000
00000000
10000000
00000000
00000000
00010000
00000000
00000000
00000000
10000000
00000000
00010000
00000000
,
00100000
01000000
00100000
01000000
00010000
00001000
00010000
00001000
,
00000010
00000000
00000001
00000000
00002000
00000000
00000000
00000000
00000001
00000000
00000000
00000001
00000000
00000000
00003001
00000000
,
00000010
00000001
00000100
00000010
00000000
00000100
00001000
00010000
,
00000000
00011000
00000000
00001000
00010000
00100000
00010000
00100000
,
10000000
01000000
10000000
01000000
00010000
01000000
10000000
00010000
,
00000000
00110000
00000000
00100000
00001000
00010000
00000100
00001000
,
00000010
00000000
00000100
00000000
00001000
00000000
00000100
00000000
00000001
00000000
00000000
00001000
00000000
00000000
00000001
00000000
,
00000010
00000000
00000100
00001000
00000000
00000100
00000000
00000000
00000010
00000000
00000000
00000000
00000010
00000000
00001000
00000000
,
00010000
00001000
00010000
01000000
00000000
10000000
00010000
10000000
,
00000000
00000000
10010000
00000000
00000000
00000000
00000000
00000000
00010000
00000000
10000000
01000000
10000000
00000000
00000000
00000000
,
01000000
00000000
00000000
00100000
00000000
00000000
00110000
00000000
00000000
00000000
00010000
00000000
00100000
00000000
00001000
00000000
,
00010000
00000000
00000000
00001000
00000000
00000000
00011000
00000000
00000000
00000000
00010000
00000000
00000100
00000000
00001000
00000000
,
00000010
00000100
00000010
00000100
00000001
00001000
00000001
00001000
,
00000100
00000010
00000001
00000010
00000100
00001000
00000010
00000000
,
00000100
00000001
00001000
00000000
00000010
00000100
00001000
00000000
,
00010000
00100000
01000000
00100000
10000000
00000000
00100000
10000000
,
01000000
00100000
01000000
00100000
00010000
00100000
00001000
00010000
,
00001000
00000000
00000000
00010000
00000000
00001000
00000000
00000000
00011000
00000000
00000000
00000000
00000000
00000000
00000000
00000000
,
00010000
00001000
00000100
00000010
00001000
00000100
00000010
00000100
,
00010000
00001000
00100000
00010000
01000000
00100000
00010000
00100000
,
01000000
00010000
00100000
01000000
00010000
00001000
00010000
00001000
,
00000010
00000100
00001000
00000100
00000010
00000000
00000001
00000100
,
00001000
00000000
00000000
00001000
00000000
00000000
00010000
00000000
00001000
00000000
00010000
00000000
00100000
00000000
00000000
00000000
,
10000000
00000000
00010000
00100000
00000000
00010000
00000000
00000000
01000000
00000000
00000000
00000000
00100000
00000000
10000000
00000000
,
01000000
00100000
00010000
01000000
00100000
00010000
00001000
00000100
,
00002000
00000000
00003000
00001000
00010000
00001000
00010000
00000000
,
00001000
00010000
00100000
01000000
00010000
00100000
01000000
00100000
,
00001000
00010000
00000100
00001000
00000010
00000100
00001000
00000100
,
00000010
00001000
00000100
00000010
00001000
00010000
00001000
00010000
,
01000000
00100000
00010000
00100000
01000000
00000000
10000000
00100000
,
00010000
00000000
00000000
00010000
00000000
00000000
00001000
00000000
00010000
00000000
00001000
00000000
00000100
00000000
00000001
00000000
,
00001000
00000100
00000010
00000001
00000000
00000010
00000100
00001000
,
00000000
00000000
00000100
00000000
00010000
00000000
00000100
00010000
00000000
00000000
00001000
00000000
00010000
00000000
00001000
00000000
,
00100000
00010000
00000000
00100000
00000000
00000000
00010000
00000000
01000000
00000000
00100000
00000000
10000000
00000000
00000000
00000000
,
01000000
00100000
00000000
01000000
00000000
00000000
00010000
00000000
00001000
00000000
00010000
00000000
00001000
00000000
00000000
00000000
,
00000010
00000100
00000000
00001000
00000000
00000000
00000001
00000000
00000100
00000000
00000010
00000000
00001000
00000000
00000000
00000000
,
00000001
00000100
00001000
00000100
00000001
00000000
00001001
00000000
,
00001000
00000010
00000000
00001000
00000000
00000000
00000100
00000000
00010000
00000000
00001000
00000000
00010000
00000000
00000000
00000000
,
00001000
01000000
00000000
00001000
00000000
00000000
00100000
00000000
00010000
00000000
00100000
00000000
00010000
00000000
00000000
00000000
,
01000000
00010000
00000000
00100000
00000000
00000000
01000000
00000000
10000000
00000000
01000000
00000000
00100000
00000000
00000000
00000000
,
01000000
00000000
10000000
00000000
01000000
00000000
00010000
00000000
00001000
00000000
00000000
00010000
00000000
00000000
00011000
00000000
,
00000000
00000000
00000000
00000000
;
