
//----- song ID: wasr -----//
#TITLE:勿忘;
#TITLETRANSLIT:Wasurena;
#BANNER:Wasurena.png;
#BACKGROUND:Wasurena-bg.png;
#CDTITLE:./CDTitles/jubeat (2021).png;
#MUSIC:Wasurena.ogg;
#SAMPLESTART:55.059;
#SAMPLELENGTH:15;
#BPMS:0=158;
#NOTES:
     dance-single:
     :
     Beginner:
     1:
     :
0000
0000
0000
0000
,
0000
0000
0000
0000
,
0000
0000
0000
0000
,
0001
0000
0000
0000
,
0000
0000
0000
0000
,
1000
0000
0000
0000
,
0000
0000
0000
0000
,
0010
0000
0000
0000
,
0000
0000
0000
0000
,
0100
0000
0000
0000
,
0001
0000
0000
0000
,
0000
0000
0000
0000
,
1000
0000
0000
0000
,
0000
0000
0000
0000
,
0001
0000
0000
0000
,
1000
0000
0000
0000
,
0001
0000
0000
0000
,
0000
0000
0000
0000
,
0100
0000
0000
0000
,
0010
0000
0000
0000
,
0100
0000
0000
0000
,
0000
0000
0000
0000
,
0001
0000
0000
0000
,
0000
0000
0000
0000
,
1000
0000
0000
0000
,
0000
0000
0000
0000
,
0010
0000
0000
0000
,
0100
0000
0000
0000
,
0001
0000
0000
0000
,
1000
0000
0000
0000
,
0000
0000
0000
0000
,
0001
0000
0000
0000
,
0010
0000
0000
0000
,
0100
0000
0000
0000
,
1000
0000
0000
0000
,
0001
0000
0000
0000
,
0000
0000
0000
0000
,
1000
0000
0000
0000
,
0001
0000
0000
0000
,
1000
0000
0000
0000
,
0010
0000
0000
0000
,
0100
0000
0000
0000
,
0001
0000
0000
0000
,
1000
0000
0000
0000
,
0001
0000
0000
0000
,
1000
0000
0000
0000
,
0001
0000
0000
0000
,
0010
0000
0000
0000
,
0100
0000
0000
0000
,
1000
0000
0000
0000
,
0001
0000
0000
0000
,
1000
0000
0000
0000
,
0001
0000
0000
0000
,
0200
0000
0000
0300
,
0000
0000
0000
0000
,
0001
0000
0000
0000
,
0000
0000
0000
0000
,
1000
0000
0000
0000
,
0000
0000
0000
0000
,
0010
0000
0000
0000
,
0100
0000
0000
0000
,
0010
0000
0000
0000
,
0000
0000
0000
0000
,
1000
0000
0000
0000
,
0000
0000
0000
0000
,
0001
0000
0000
0000
,
0000
0000
0000
0000
,
1000
0000
0000
0000
,
0001
0000
0000
0000
,
0000
0000
0000
0000
;
#NOTES:
     dance-single:
     :
     Easy:
     5:
     :
0000
0000
0000
0000
,
0000
0000
0000
0000
,
0000
0000
1000
0000
,
0001
0000
1000
0000
,
0001
0000
0000
0000
,
0100
0000
0001
0000
,
1000
0000
0010
0000
,
0000
0000
0100
0000
,
0001
0000
1000
0000
,
0100
0000
1000
0000
,
0010
0000
0100
0000
,
0000
0000
0001
0000
,
2000
0000
0000
3000
,
0000
0000
0000
0000
,
0010
0000
0000
0000
,
1000
0000
0000
0000
,
0100
0000
1000
0000
,
0001
0000
0000
0000
,
2000
0000
0000
3000
,
0002
0003
0200
0300
,
0020
0030
0000
0000
,
0000
0000
1000
0000
,
0001
0000
0200
0300
,
0000
0000
0010
0000
,
0200
0000
0000
0300
,
0000
0000
0000
0000
,
0001
1000
0001
0000
,
1000
0001
1000
0000
,
0010
0100
0010
0000
,
0100
0010
0100
0000
,
0000
0000
0001
0000
,
0100
0000
0010
0000
,
1000
0000
0001
0000
,
0010
0100
1000
0000
,
0001
0000
0000
0000
,
0200
0000
0300
0000
,
1001
0000
0000
0000
,
1000
0100
1000
0000
,
0001
0100
0001
0000
,
0020
0030
0200
0300
,
1000
0001
1000
0000
,
0001
0000
0101
0000
,
1000
0000
1010
0000
,
0100
0000
0001
0000
,
1000
0001
0010
0000
,
0001
0000
0001
0000
,
1000
0000
1000
0000
,
0010
0000
0010
0000
,
1000
0000
0100
0000
,
0010
0000
0000
0000
,
0001
0100
0001
0000
,
2000
3000
0000
0000
,
0010
1000
0010
0000
,
0200
0000
0000
0300
,
0000
0000
0000
0000
,
0001
0000
0010
0000
,
0100
0000
1000
0001
,
1000
0000
0010
0000
,
0100
0000
0001
0000
,
0010
0100
0010
0000
,
0001
1000
0001
0000
,
2000
3000
0000
0000
,
0002
0003
0000
0000
,
0020
0030
0000
0000
,
0200
0000
0300
0000
,
2000
3000
0000
0000
,
0002
0003
0000
0000
,
0020
0030
0000
0000
,
0002
0000
2000
3003
,
0000
0000
0000
0000
;
#NOTES:
     dance-single:
     :
     Medium:
     8:
     :
0000
0000
0000
0000
,
0000
0000
0000
0000
,
0000
0000
1000
0000
,
0010
0000
0100
0000
,
0001
0000
0000
0000
,
1000
0001
1000
0000
,
0100
0000
1000
0020
,
0000
0030
0100
0002
,
0000
0003
1000
0000
,
0100
0000
1000
0000
,
0001
1000
0010
0000
,
0000
1000
0001
0100
,
0002
0000
0000
1003
,
0000
0000
0001
0100
,
0000
0000
0001
0010
,
0000
0000
0100
2000
,
0000
3000
0001
1000
,
0000
0010
0100
0002
,
0000
0000
1003
0200
,
0000
0320
0000
0032
,
0000
0003
0000
0000
,
0000
0000
1000
0010
,
0100
0001
2000
0000
,
3000
0001
1000
0100
,
0020
0000
0000
0031
,
0000
0000
0000
0000
,
1000
1000
0001
0000
,
0001
0001
1000
0000
,
1000
1000
0100
0000
,
0001
0001
0010
0100
,
1000
0000
0001
0100
,
0001
1000
0010
1000
,
0001
0000
1001
0000
,
0200
0000
0310
0000
,
0100
0000
0000
0000
,
0001
1000
0001
0000
,
1001
0000
0000
0000
,
1000
0010
1000
0001
,
0100
0001
0010
0100
,
2000
0000
3002
0000
,
0103
0001
0010
0000
,
0100
1000
1000
0010
,
0100
0001
0001
0010
,
0200
0300
1000
1000
,
0001
0100
1000
0100
,
0001
1000
0100
0001
,
0100
1000
0100
0010
,
0001
0100
0010
1000
,
0100
1000
0001
1000
,
0010
0100
0000
0010
,
1000
0010
0100
0001
,
0020
0030
0100
0010
,
0001
0100
1000
0100
,
0002
0000
0000
0003
,
0000
0000
1000
0001
,
0010
0000
0000
0100
0000
0000
1000
0000
,
0000
0001
0000
0000
0100
0000
0010
0000
,
1000
0000
0000
0001
0000
0000
0010
0000
,
0000
0100
0000
0000
1000
0000
0001
0000
,
1000
0010
0100
0001
,
1000
0100
0001
0100
,
2000
3000
0000
0000
,
0002
0003
0000
0000
,
0020
0030
0000
0000
,
0200
0000
0310
0000
,
0002
0003
0000
0000
,
2000
3000
0000
0000
,
0020
0030
0000
0000
,
2000
0000
0002
3003
,
0000
0000
0000
0000
;
#NOTES:
     dance-single:
     :
     Hard:
     10:
     :
0000
0000
0000
0000
,
0000
0000
0000
0000
,
0000
0000
0001
0000
,
0010
0000
0100
0000
,
1000
0000
0000
0000
,
0001
0100
0001
0100
,
0010
0000
1000
0200
,
0000
0300
0010
0002
,
0000
0003
1000
0010
,
0100
0000
0001
0000
,
0010
0001
0100
0000
,
0000
0001
1000
0010
,
2000
0000
0000
3100
,
0000
0000
1000
0100
,
1000
0000
0001
0100
,
0001
0000
1000
0020
,
0000
0000
0030
1000
0001
1000
0001
0000
,
0000
1000
0001
0200
,
0000
0300
0010
2000
,
0000
3002
0000
0203
,
0000
0301
1000
0001
,
0000
0000
1000
0010
,
0100
0001
0010
0100
,
0000
1000
0001
1000
,
0200
0000
0000
0320
,
0000
0030
0001
1000
,
0010
0010
0101
0000
,
0100
0100
1010
0000
,
0001
0001
1100
0000
,
1000
1000
0011
0010
,
0100
0000
1000
0001
,
0100
1000
0100
0001
,
0010
0000
0110
0000
,
0100
0010
0100
0000
,
1001
0000
0000
0000
,
2000
3020
0230
0301
,
1001
0000
0000
0000
,
0100
0001
0101
0100
,
0010
1000
1010
0010
,
0200
0000
0300
0001
0020
0000
0030
0100
,
1000
0001
0010
0000
0110
0000
0000
1000
,
0100
0000
1000
0100
1000
0000
0000
0001
,
0100
0000
0001
0100
0001
0000
0010
0000
,
0200
0000
0300
1000
0001
0000
0010
0000
,
0011
0101
1100
1010
,
0100
0000
0001
0010
0001
0000
1000
0000
,
0010
0000
1000
0100
1000
0000
0001
0000
,
0100
0000
0001
1000
0010
0000
1000
0000
,
0100
0000
1000
0001
0100
0000
0001
0000
,
0010
0110
0100
1000
,
1010
0001
0101
0100
,
0002
0000
0103
0010
,
1010
1100
0101
0011
,
0220
0000
0000
0330
,
0000
0000
1000
0001
,
0101
0000
0000
0110
0000
0000
1010
0000
,
0000
1100
0000
0000
0210
0000
0310
0000
,
0011
0000
0000
0110
0000
0000
1100
0000
,
0000
1010
0000
0000
0120
0000
0130
0000
,
1001
0010
1001
0100
,
1010
0011
0101
1100
,
2000
3100
0000
0000
,
0002
0103
0000
0000
,
0020
0130
0000
0000
,
0002
0000
1003
0000
,
0020
0130
0000
0000
,
2000
3010
0000
0000
,
0002
0013
0000
0000
,
2000
0000
0002
3003
,
0000
0000
0000
0000
;
#NOTES:
     dance-double:
     :
     Easy:
     5:
     :
00000000
00000000
00000000
00000000
,
00000000
00000000
00000000
00000000
,
00000000
00000000
00000001
00000000
,
00001000
00000000
00000100
00000000
,
00001000
00000000
00000000
00000000
,
00000100
00000000
00010000
00000000
,
00001000
00000000
00100000
00000000
,
00000000
00000000
00010000
00000000
,
01000000
00000000
00010000
00000000
,
10000000
00000000
01000000
00000000
,
00100000
00000000
00010000
00000000
,
00000000
00000000
00100000
00000000
,
00002000
00000000
00000000
00013000
,
00000000
00000000
00000000
00000000
,
00000100
00000000
00000000
00000000
,
00001000
00000000
00000000
00000000
,
00000010
00000000
00001000
00000000
,
00000001
00000000
00000000
00000000
,
00000020
00000000
00000000
00000030
,
00000200
00000000
00000000
00000300
,
00020000
00030000
00000000
00000000
,
00000000
00000000
00001000
00000000
,
00001000
00000000
00020000
00030000
,
00000000
00000000
00001000
00000000
,
00200000
00000000
00000000
01300000
,
00000000
00000000
00000000
00000000
,
10000000
00010000
10000000
00000000
,
00010000
01000000
00010000
00000000
,
00100000
00001000
00100000
00000000
,
00001000
00010000
00001000
00000000
,
00000000
00000000
00010000
00000000
,
00000100
00000000
00000010
00000000
,
00000001
00000000
00001000
00000000
,
00000010
00000100
00000001
00000000
,
00001000
00000000
00000000
00000000
,
00002000
00000000
00003000
00000000
,
00011000
00000000
00000000
00000000
,
00001000
00100000
00001000
00000000
,
00100000
01000000
00100000
00000000
,
00020000
00030000
20000000
30000000
,
00100000
01000000
00010000
00000000
,
00100000
00000000
00110000
00000000
,
00001000
00000000
00011000
00000000
,
00010000
00000000
00000100
00000000
,
00001000
00000100
00001000
00000000
,
00000001
00000000
00000010
00000000
,
00001000
00000000
00010000
00000000
,
01000000
00000000
10000000
00000000
,
00100000
00000000
00010000
00000000
,
00001000
00000000
00000000
00000000
,
00010000
00001000
00010000
00001000
,
00020000
00030000
00000000
00000000
,
00000100
00001000
00000010
00000000
,
00002000
00000000
00000000
00003000
,
00000000
00000000
00000000
00000000
,
00000001
00000000
00000010
00000000
,
00000100
00000000
00010000
00001000
,
00010000
00000000
00001000
00000000
,
00100000
00000000
00010000
00000000
,
01000000
00100000
01000000
00000000
,
00010000
10000000
00010000
00000000
,
00200000
00300000
00000000
00000000
,
00002000
00003000
00000000
00000000
,
00020000
00030000
00000000
00000000
,
00000200
00000000
00000300
00000000
,
00002000
00003000
00000000
00000000
,
00000020
00000030
00000000
00000000
,
00000200
00000300
00000000
00000000
,
00000002
00000000
00002000
00003003
,
00000000
00000000
00000000
00000000
;
#NOTES:
     dance-double:
     :
     Medium:
     7:
     :
00000000
00000000
00000000
00000000
,
00000000
00000000
00000000
00000000
,
00000000
00000000
10000000
00000000
,
01000000
00000000
00100000
00000000
,
00010000
00000000
00000000
00000000
,
00100000
00001000
00010000
00000000
,
00001000
00000000
00000100
00000020
,
00000000
00000030
00001000
00000002
,
00000000
00000003
00001000
00000100
,
00000010
00000000
00000001
00000000
,
00000100
00000010
00001000
00000000
,
00000000
00000100
00010000
00001000
,
00020000
00000000
00000000
00031000
,
00000000
00000000
00100000
00010000
,
00000000
00000000
10000000
00100000
,
00000000
00000000
01000000
00020000
,
00000000
00030000
00100000
01000000
,
00000000
00010000
00001000
00020000
,
00000000
00000000
00031000
00000200
,
00000000
00000320
00000000
00002030
,
00000000
00003000
00000010
00000000
,
00000100
00000000
00000001
00001000
,
00000100
00000000
00000010
00000000
00000002
00000000
00000000
00000003
,
00000000
00000100
00001000
00010000
,
00002000
00000000
00000000
00103000
,
00000000
00000000
00020000
01030000
,
00010000
10000000
00010000
00000000
,
00100000
01000000
00100000
00000000
,
01000000
10000000
00100000
00000000
,
01000000
00100000
00010000
00001000
,
00010000
00000000
00000100
00010000
,
00001000
00000100
00000001
00000100
,
00001000
00000000
00011000
00000000
,
00010000
01000000
10000000
00000000
,
00100000
00000000
01000000
00000000
,
00100000
01000000
00100000
00000000
,
10010000
00000000
00000000
00000000
,
10000000
01000000
10000000
00010000
,
10000000
01000000
00010000
00001000
,
00020000
00030000
00000200
00000300
,
00001000
00000010
00000100
00000001
,
00000010
00000010
00000100
00010000
,
00001000
00001000
00100000
00010000
,
02000000
03000000
00010000
10000000
,
01000000
00010000
00001000
00000010
,
00000001
00001000
00000010
00000100
,
00000001
00000010
00000100
00001000
,
00000010
00001000
00000100
00010000
,
00001000
00100000
01000000
10000000
,
00010000
00010000
00000000
00100000
,
00001000
00010000
00001000
00000100
,
00000020
00000030
00001000
00000001
,
00000100
00001000
00010000
00100000
,
20000000
00000000
00000000
30000000
,
00000000
00000000
00010000
00100000
,
01000000
00000000
00000000
10000000
00000000
00000000
00100000
00000000
,
00000000
00010000
00000000
00000000
00001000
00000000
00010000
00000000
,
00001000
00000000
00000000
00000100
00000000
00000000
00000001
00000000
,
00000000
00000010
00000000
00000000
00001000
00000000
00010000
00000000
,
00100000
00010000
00001000
00000100
,
00000010
00001000
00010000
01000000
,
00200000
00300000
00000000
00000000
,
20000000
30000000
00000000
00000000
,
02000000
03000000
00000000
00000000
,
00200000
00000000
00301000
00000000
,
00020000
00030000
00000000
00000000
,
00002000
00003000
00000000
00000000
,
00000200
00000300
00000000
00000000
,
00000002
00000000
00002000
00003003
,
00000000
00000000
00000000
00000000
;
#NOTES:
     dance-double:
     :
     Hard:
     9:
     :
00000000
00000000
00000000
00000000
,
00000000
00000000
00000000
00000000
,
00000000
00000000
00010000
00000000
,
01000000
00000000
00100000
00000000
,
10000000
00000000
00000000
00000000
,
00010000
00100000
00001000
00010000
,
00000100
00000000
00000010
00000002
,
00000000
00000003
00000100
00000020
,
00000000
00000030
00001000
00000100
,
00010000
00000000
00001000
00000000
,
01000000
00010000
01000000
00000000
,
00000000
00100000
10000000
00100000
,
20000000
00000000
00000000
31000000
,
00000000
00000000
00100000
01000000
,
00100000
00000000
00001000
00010000
,
00001000
00000000
00000100
00000020
,
00000000
00000000
00000030
00000100
00000001
00000100
00000001
00000000
,
00000000
00001000
00000100
00000020
,
00000000
00000030
00000001
00000200
,
00000000
00002300
00000000
00023000
,
00000000
00031000
00100000
00010000
,
00000000
00000000
00100000
01000000
,
10000000
01000000
00010000
01000000
,
00000000
10000000
00100000
00010000
,
00002000
00000000
00000000
00013000
,
00000000
00000000
00001000
00010000
,
00000100
00000100
00000010
00000001
,
00000100
00000100
00001000
00010000
,
00100000
00100000
10000000
01000000
,
00100000
00100000
00001000
00010000
,
00000010
00000000
00001000
00000010
,
00001000
00000001
00000010
00000100
,
00010000
00000000
00011000
00000000
,
00010000
01000000
10000000
00000000
,
10010000
00000000
00000000
00000000
,
20000000
30200000
00320000
00031000
,
00011000
00000000
00010000
00000000
,
00000100
00001000
00001100
00000100
,
00000010
00000001
00000011
00000010
,
00000200
00000000
00000300
00010000
00002000
00000000
00003000
00010000
,
00001000
00010000
00001000
00000000
00100000
00000000
01000000
00100000
,
01000000
00000000
10000000
01000000
10000000
00000000
00100000
01000000
,
00100000
00000000
01000000
00010000
01000000
00000000
00001000
00000000
,
00020000
00000000
00030000
00000100
00001000
00000000
00000010
00000000
,
00001010
00011000
01010000
11000000
,
01000000
10000000
00100000
00010000
,
00001000
00010000
00001000
00000100
,
00000001
00000010
00001000
00010000
,
00001000
00010000
01000000
10000000
,
01000000
00010000
00001000
00000010
,
00000001
00000100
00001000
00010000
,
00200000
00300000
10000000
00010000
,
00110000
00011000
00001100
00000101
,
00000220
00000000
00000000
00000330
,
00000000
00000000
00000010
00000100
,
00001000
00000000
00000000
00100000
00000000
00000000
00010000
00000000
,
00000000
01000000
00000000
00000000
20000000
00000000
31000000
00000000
,
00010000
00000000
00000000
00100000
00000000
00000000
10000000
00000000
,
00000000
00100000
00000000
00000000
00010000
00000000
01000000
00000000
,
00001000
00010000
00000010
00000100
,
00000101
00001100
00011000
00110000
,
00200000
00310000
00000000
00000000
,
00020000
10030000
00000000
00000000
,
02000000
03100000
00000000
00000000
,
00020000
00000000
00031000
00000000
,
00000020
00001030
00000000
00000000
,
00000020
00000130
00000000
00000000
,
00002000
00003001
00000000
00000000
,
00000020
00000000
00000200
00000330
,
00000000
00000000
00000000
00000000
;
