
//----- song ID: wafu -----//
#TITLE:和風インザ洋風;
#ARTIST:Super Momo Tarosans;
#TITLETRANSLIT:Wafuu in the youfuu;
#MUSIC:Wafuu in the youfuu.ogg;
#BANNER:Wafuu in the youfuu.png;
#BACKGROUND:Wafuu in the youfuu-bg.png;
#CDTITLE:./CDTitles/GITADORA HIGH-VOLTAGE.png;
#SAMPLESTART:51.35;
#SAMPLELENGTH:15;
#BPMS:0=153;
#BGSTAGE:1;
#NOTES:
     dance-single:
     :
     Beginner:
     3:
     :
0000
0000
0000
0000
,
0000
0000
0000
0000
,
0000
0000
0000
0000
,
0000
0000
0000
0000
,
0000
0000
0000
0000
,
0001
0000
0000
0000
,
0001
0000
0000
0000
,
1000
0000
0000
0000
,
1000
0000
0000
0000
,
1001
0000
0000
0000
,
0001
0000
0000
0000
,
0100
0000
0000
0000
,
0010
0000
0000
0000
,
1000
0000
1000
0000
,
1000
0000
0000
0000
,
0001
0000
0001
0000
,
0001
0000
0000
0000
,
1001
0000
0000
0000
,
1000
0000
0000
0000
,
0010
0000
0000
0000
,
0100
0000
0000
0000
,
0110
0000
0000
0000
,
0001
0000
0000
0000
,
1000
0000
0000
0000
,
0001
0000
0000
0000
,
0100
0000
0100
0000
,
0100
0000
0000
0000
,
0010
0000
0010
0000
,
0010
0000
0000
0000
,
1001
0000
0100
0000
,
0100
0000
0000
0000
,
1001
0000
0010
0000
,
0010
0000
0000
0000
,
1001
0000
0001
0000
,
0100
0000
0001
0000
,
0001
0000
0010
0000
,
0100
0000
0000
0000
,
1000
0000
1000
0000
,
0010
0000
1000
0000
,
1000
0000
0100
0000
,
0010
0000
0000
0000
,
0001
0000
1000
0000
,
0010
0000
0100
0000
,
0001
0000
1000
0000
,
0010
0000
0000
0000
,
1000
0000
0010
0000
,
1000
0000
0010
0000
,
0100
0000
0001
0000
,
0010
0000
0000
0000
,
0200
0000
0300
0000
,
1001
0000
0000
0000
,
0000
0000
0000
0000
,
0001
0000
0000
0000
,
1000
0000
0000
0000
,
0001
0000
0001
0000
,
0100
0000
0000
0000
,
0001
0000
0010
0000
,
0100
0000
0000
0000
,
1000
0000
1000
0000
,
0010
0000
0000
0000
,
1000
0000
0100
0000
,
0010
0000
0000
0000
,
2002
0000
0000
0000
,
0000
0000
0000
3003
0000
0000
0000
0000
,
0000
0000
0000
0000
;
#NOTES:
     dance-single:
     :
     Easy:
     8:
     :
0000
0000
0000
0000
,
0000
0000
0000
0000
,
0000
0000
0000
0000
,
0000
0000
0000
0000
,
0000
0000
0000
0000
,
1000
0000
0010
0100
,
0001
0000
0001
1000
,
0100
0000
0100
0010
,
0001
0000
0001
0100
,
0010
1001
1000
0010
,
0100
0001
0001
0020
,
0030
0000
0001
1000
,
0010
0000
0100
1001
,
0001
0001
1000
1000
,
0001
0001
1000
1000
,
0001
0101
1000
1100
,
0001
0001
0100
0110
,
1001
0000
0001
0100
,
0010
0000
0010
1000
,
0001
0000
0001
0010
,
0100
0000
0100
1000
,
0010
1001
0001
0100
,
0010
1000
1000
0000
,
0001
0010
0001
0100
,
0010
0000
0010
1001
,
1000
1000
0001
0001
,
1000
1000
0001
0001
,
1000
1100
0001
0101
,
1000
1000
0010
0110
,
1001
0000
0000
0001
0001
0000
0000
1000
,
1000
0000
0000
0010
0010
0000
0010
0000
,
0110
0000
0000
1000
1000
0000
0000
0001
,
0001
0100
0220
0330
,
1000
0001
0100
0010
,
0100
0001
0010
0100
,
1000
0001
0100
0001
,
0011
0110
1100
1001
,
0001
0100
0010
0100
,
0001
0010
0001
1000
,
0010
0010
0010
0100
,
0101
0110
1010
1001
,
0001
0100
0100
0010
,
1000
0001
0010
0100
,
1000
0010
0010
1000
,
1100
0110
0011
1001
,
1000
0010
0100
0010
,
1000
0100
0001
0100
,
1000
1000
0001
0001
,
0100
0110
0001
1001
,
0200
0000
0300
0000
,
0110
0001
1000
0000
,
0001
1000
0100
0000
,
0010
0001
1000
0000
,
0001
0001
0011
1100
,
0001
0100
0001
0010
,
0001
0100
0001
0010
,
0100
1000
0010
1000
,
0100
1000
0010
1000
,
0001
0000
0000
0100
0000
0000
0001
0000
,
0000
1000
0000
0000
0001
0000
0000
0010
,
0000
0000
0001
0000
0000
1000
0000
0000
,
0001
0000
0000
0100
0000
0000
0001
0000
,
2000
0000
0000
3000
,
0010
0000
0000
0010
0000
0000
0010
0000
0000
0000
0000
0000
0000
0000
0000
0000
,
0000
0000
0000
0000
;
#NOTES:
     dance-single:
     :
     Medium:
     11:
     :
0000
0000
0000
0000
,
0000
0000
0000
0000
,
0000
0000
0000
0000
,
0000
0000
0000
0000
,
0000
0000
0000
0000
,
0001
0000
0000
0000
1000
0000
0000
0100
0000
0000
1000
0000
0001
0000
0000
0000
,
0100
0000
0000
0000
0010
0000
0000
0100
0000
0000
0001
0000
1000
0000
0000
0000
,
1000
0000
0000
0000
0001
0000
0000
0010
0000
0000
0001
0000
1000
0000
0000
0000
,
0010
0000
0000
0000
0100
0000
0000
0010
0000
0000
1000
0000
0001
0000
0000
0000
,
0011
0000
1001
0000
1000
0001
0100
0000
,
0010
0010
0100
0100
0001
0010
0100
0000
,
2002
3003
0000
1000
1000
0001
0100
0010
,
1000
0000
0000
0100
0000
0000
1000
0000
2002
0000
0000
0000
3003
0000
0000
0000
,
1000
0000
0100
1000
0000
0000
0000
0000
0001
0000
0010
0001
0000
0000
0000
0000
,
1000
0000
0010
1000
0000
0000
0001
0000
0010
0000
0100
0000
1000
0000
0000
0000
,
0001
0000
0100
0001
0000
0000
0000
0000
1000
0000
0100
1000
0000
0000
0000
0000
,
1000
0010
0001
0010
1000
0000
0110
0000
,
0001
0000
0010
0000
0100
0000
0000
1000
0000
0000
0010
0000
1000
0000
0000
0000
,
0001
0000
0010
0000
0100
0000
0000
1000
0000
0000
0010
0000
1000
0000
0000
0000
,
0001
0000
0100
0000
0001
0000
0000
0010
0000
0000
0100
0000
1000
0000
0000
0000
,
0001
0000
0100
0000
0001
0000
0000
0010
0000
0000
0100
0000
1000
0000
0000
0000
,
0010
0100
0100
0000
0001
1000
0100
0010
,
0001
0100
0010
0001
0010
1000
1001
0000
,
0001
0001
0010
0010
0100
0100
0001
0100
,
1000
0000
0000
0010
0000
0000
0100
0000
2002
0000
0000
0000
3003
0000
0000
0000
,
0001
0000
0010
0001
0000
0000
0000
0000
1000
0000
0100
1000
0000
0000
0000
0000
,
0001
0000
0100
0001
0000
0000
1000
0000
0100
0000
0010
0000
0001
0000
0000
0000
,
1000
0000
0010
1000
0000
0000
0000
0000
0001
0000
0010
0001
0000
0000
0000
0000
,
0001
0100
1000
0100
0001
0000
0110
0000
,
2001
0000
0000
3010
0020
0000
0000
0130
,
0200
0000
0000
0301
0002
0013
0020
0130
,
0200
0000
0000
1300
2000
0000
0000
3010
,
0010
0100
0001
1000
1001
0000
0110
0000
,
1000
0001
0100
0000
0010
1000
0001
0000
,
0010
0100
1000
0001
0100
0000
0010
0000
,
1000
0100
0001
0000
0100
1000
0010
0000
,
0101
0000
1100
0000
1001
0000
0001
0010
,
0100
1000
0010
0000
0100
0001
1000
0000
,
0001
0010
1000
0010
0001
0000
0100
0000
,
0001
0010
0001
0010
0100
1000
0100
1000
,
0010
0001
0010
0110
,
0001
1000
0100
0000
0010
0001
1000
0000
,
0010
0100
0001
1000
0100
0000
0010
0000
,
0001
0100
1000
0000
0100
0001
0010
0000
,
1100
0000
0101
0000
1001
0000
1000
0010
,
0100
0001
0010
0000
0100
1000
0001
0000
,
1000
0010
0001
0010
1000
0000
0100
0000
,
1000
0010
1000
0010
0100
0001
0100
0001
,
0010
0000
0001
0000
1000
0010
0100
0000
,
2002
0000
3003
0000
,
0001
0000
1000
0000
0010
0100
0001
0000
,
1000
0000
0001
0000
0010
0100
1000
0000
,
0001
0010
1000
0010
,
0110
1100
1001
0110
,
1001
0000
0000
0000
0001
0000
0000
0100
0000
0000
0010
0000
1000
0000
0001
0000
,
0010
0000
0000
0000
0001
0000
0000
0100
0000
0000
0010
0000
1000
0000
0100
0000
,
1000
0000
0000
0000
0010
0000
0000
0100
0000
0000
0001
0000
0010
0000
0100
0000
,
1000
0000
0000
0000
0010
0000
0000
1000
0000
0000
0100
0000
0010
0000
0001
0000
,
1000
0000
0100
0000
0001
0000
0100
1000
,
0010
0000
0100
0000
0001
0100
1000
0000
,
0100
0000
0001
0010
0100
0000
0001
0000
,
0100
1000
0010
0000
0100
0000
0001
0000
,
2002
0000
0000
3003
,
0100
0000
0000
0100
0000
0000
0100
0000
0000
0000
0000
0000
0000
0000
0000
0000
,
0000
0000
0000
0000
;
#NOTES:
     dance-single:
     :
     Hard:
     15:
     :
0000
0000
0000
0000
,
0000
0000
0000
0000
,
0000
0000
0000
0000
,
0000
0000
0000
0000
,
0000
0000
0000
0000
,
0011
0000
0001
0000
1000
0000
0010
0100
0000
0001
1000
0000
0100
0000
0010
0000
,
0001
0000
1000
0000
0010
0000
1000
0001
0000
0100
0010
0000
1000
0000
0001
0000
,
0010
0000
0001
0000
1000
0000
0010
0100
0000
0001
1000
0000
0100
0000
0010
0000
,
0001
0000
1000
0000
0010
0000
0100
0001
0000
1000
0100
0000
1000
0001
1000
0001
,
0010
0000
0100
0000
1001
0000
0000
0000
0001
0000
0100
0010
0100
0000
0001
0000
,
1000
0100
1000
0000
0001
0010
0001
0010
0100
0000
1000
0100
1000
0000
0001
0000
,
2002
0000
3003
0000
0000
0000
1000
0000
0001
0000
0100
0000
0010
1000
0010
1000
,
0001
0000
0000
0101
0000
0000
0011
0000
1001
0000
0000
0000
1000
0000
0000
0000
,
0100
0000
1000
0010
0000
0000
1000
0100
0010
0000
0100
0001
0000
0000
0100
0010
,
0001
0000
1000
0010
0000
0000
0100
0010
0001
0000
0010
0000
1000
0000
0100
0010
,
0001
0000
0100
0001
0000
0000
1000
0100
0010
0000
1000
0010
0000
0000
0100
0010
,
0001
0000
1000
0010
0100
0000
0001
0000
1001
0000
0000
0000
0110
0000
0000
0000
,
1001
0000
0001
0000
0100
0000
0001
1000
0000
0010
0100
0000
0001
0000
1000
0000
,
0100
0000
1000
0000
0010
0000
1000
0001
0000
0100
0010
0000
1000
0000
0001
0000
,
0010
0000
0001
0000
0100
0000
0001
1000
0000
0010
0100
0000
0001
0000
1000
0000
,
0100
0000
1000
0000
0010
0000
1000
0001
0000
0100
0010
0000
1000
0001
1000
0001
,
0100
0000
0100
0000
0110
0000
0000
0000
0001
0000
1000
0001
0010
0000
0100
0000
,
1000
0000
0001
1000
0010
0000
0100
0001
1000
0000
0100
0000
0011
0000
0000
0000
,
0001
0100
0000
0100
0010
0000
1000
0000
0100
1000
0000
1000
0010
0000
0100
0001
,
1000
0000
0000
1100
0000
0000
0011
0000
1001
0000
0000
0000
0001
0000
0000
0000
,
0100
0000
0001
0010
0000
0000
0001
1000
0100
0000
1000
0010
0000
0000
1000
0001
,
0100
0000
0001
0010
0000
0000
0001
1000
0100
0000
1000
0000
0010
0000
0001
0000
,
0010
0000
1000
0100
0000
0000
1000
0001
0010
0000
0001
0100
0000
0000
0001
1000
,
0010
0000
1000
0100
0010
0000
0001
0000
1001
0000
0000
0000
0101
0000
0000
0000
,
0210
0000
0000
0010
0020
0030
0000
1000
,
2000
3000
0000
0001
0302
0103
0200
0310
,
0020
0000
0000
0001
0002
0003
0000
0130
,
0110
1010
1001
0101
0110
0000
1001
0000
,
0001
0000
1000
0100
0010
0000
0001
0100
0000
0010
1000
0000
0100
0000
1000
0000
,
0001
0000
0100
0000
0001
0000
0010
0100
0000
0000
0000
0000
1000
0000
0010
0000
,
0100
0000
0010
0000
1000
0000
0001
0010
0000
0100
1000
0000
0001
0000
1000
0000
,
0010
0100
0001
0000
0010
0100
1000
0000
0010
0100
0001
0000
0010
0000
0100
0000
,
1000
0000
0001
0100
0010
0000
1000
0001
0000
0100
0010
0000
0001
0000
0010
0000
,
1000
0000
0100
0010
0001
0000
0100
0010
0000
0000
1000
0001
1000
0001
1000
0001
,
0010
0001
0100
0001
0010
0001
0100
0001
,
0011
0000
1100
0000
0011
0100
1001
0000
,
1000
0000
0001
0100
0010
0000
1000
0001
0000
0001
0010
0000
0100
0000
0001
0000
,
0100
0000
1000
0010
0100
0000
0001
0010
0000
0000
0000
0000
0001
0000
0010
0000
,
0100
0000
1000
0001
0100
0000
0010
0001
0000
0010
0100
0000
0001
0000
1000
0000
,
0100
0010
0001
0000
0100
0010
1000
0000
0100
0010
0001
0000
0100
0000
0010
0000
,
1000
0000
0001
0010
0100
0000
1000
0100
0000
1000
0010
0000
1000
0000
0001
0000
,
0010
0000
0100
1000
0001
0000
0100
0010
0000
0000
0000
0000
0100
0000
0100
0000
,
0001
0001
1000
1000
0010
0010
0010
0000
,
1000
0100
1000
0100
1000
0100
0010
0001
1000
0010
1000
0010
1000
0010
0100
0001
,
2000
0000
3000
0000
,
0001
0000
1000
0000
0001
0000
0010
0100
,
1000
0000
0000
0001
0000
0000
0200
0000
0000
0000
0300
0000
0000
0000
0010
0000
,
0100
0000
0000
0001
0000
0000
2000
0000
0000
0000
0000
0000
3000
0000
0000
0000
,
1001
0000
0011
0000
1100
0010
1001
0000
,
0001
0000
1000
0000
0010
0000
0100
0001
0000
0001
0010
0000
0100
1000
0001
0000
,
0100
0000
0010
0000
0100
0000
0001
1000
0000
1000
0100
0000
0010
0001
1000
0000
,
0010
0000
0100
0000
0001
0000
0010
0001
0000
0001
0100
0000
0010
1000
0001
0000
,
0010
0000
0100
0000
1000
0000
0001
0100
0000
0100
0010
0000
1000
0001
1000
0001
,
0010
0000
0000
0100
0000
0000
1000
0000
0000
0000
0010
0000
1000
0000
0000
0100
,
0000
0000
0010
0000
0000
0000
1000
0000
0010
0000
0000
0100
0000
0000
1000
0000
,
0000
0000
0010
0000
1000
0000
0000
0100
0000
0000
0010
0000
0000
0000
1000
0000
,
0010
0000
0000
0100
0000
0000
1000
0000
0000
0000
0010
0000
1000
0001
1000
0001
,
0200
0000
0000
0000
0000
0000
0000
0301
,
0010
0000
0000
0010
0000
0000
0010
0000
0000
0000
0000
0000
0000
0000
0000
0000
,
0000
0000
0000
0000
;
#NOTES:
     dance-double:
     :
     Easy:
     7:
     :
00000000
00000000
00000000
00000000
,
00000000
00000000
00000000
00000000
,
00000000
00000000
00000000
00000000
,
00000000
00000000
00000000
00000000
,
00000000
00000000
00000000
00000000
,
00010000
00000000
00001000
00100000
,
00010000
00000000
00010000
01000000
,
00001000
00000000
00010000
00000100
,
00001000
00000000
00000010
00010000
,
00001000
00011000
00001000
00001000
,
01000000
00010000
00100000
02000000
,
03000000
00000000
10000000
00010000
,
01000000
00100000
10010000
00000000
,
10000000
10000000
01000000
01000000
,
00010000
00010000
00001000
00001000
,
00010000
00010000
00001000
00001000
,
00000100
00000100
00000010
00000110
,
00001001
00000000
00001000
00000100
,
00010000
00000000
00001000
00100000
,
00010000
00000000
00010000
01000000
,
00001000
00000000
00010000
00000010
,
00000100
00000110
00000000
00000001
,
00001000
00001000
00000010
00000010
,
00010000
00001000
01000000
00010000
,
00100000
01000000
10010000
00000000
,
10000000
10000000
01000000
01000000
,
00010000
00010000
00001000
00001000
,
00000010
00000010
00000001
00000001
,
00000100
00000100
00000010
00000110
,
00001001
00000000
00000000
00000001
00000001
00000000
00000000
00001000
,
00001000
00000000
00000000
00000010
00000010
00000000
00010000
00000000
,
00001000
00000000
00000000
00010000
00010000
00000000
00000000
00001000
,
00001000
01000000
20020000
30030000
,
10000000
01000000
00010000
00001000
,
00100000
00010000
01000000
00000000
,
00001000
00010000
00001000
00000100
,
00000010
00000010
00000100
00000100
,
00000001
00000100
00001000
00010000
,
00000010
00001000
00000100
00000000
,
00010000
00001000
00010000
01000000
,
10000000
10000000
00010000
00010000
,
10000000
00100000
00010000
00001000
,
00010000
00000100
00000010
00000000
,
00000100
00001000
00000001
00000100
,
00000010
00000010
00000100
00000100
,
00000001
00000010
00001000
00010000
,
00001000
01000000
00100000
00000000
,
01000000
00010000
10000000
01000000
,
10000000
10000000
00010000
00010000
,
02000000
00000000
03000000
00000000
,
00001000
00000000
00010000
00000000
,
00001000
00000000
00000100
00000000
,
00000010
00000000
00001000
00000000
,
00000001
00000001
00000011
00001100
,
00001000
00000100
00001000
00000010
,
00001000
00000100
00010000
00001000
,
01000000
00010000
00100000
00010000
,
01000000
00010000
00100000
00001000
,
00010000
00000000
00000000
00000100
00000000
00000000
00001000
00000000
,
00000000
00000001
00000000
00000000
00001000
00000000
00000000
00000010
,
00000000
00000000
00001000
00000000
00000000
00000001
00000000
00000000
,
00001000
00000000
00000000
00000100
00000000
00000000
00010000
00000000
,
00002000
00000000
00000000
00003000
,
00010000
00000000
00000000
00010000
00000000
00000000
00010000
00000000
00000000
00000000
00000000
00000000
00000000
00000000
00000000
00000000
,
00000000
00000000
00000000
00000000
;
#NOTES:
     dance-double:
     :
     Medium:
     11:
     :
00000000
00000000
00000000
00000000
,
00000000
00000000
00000000
00000000
,
00000000
00000000
00000000
00000000
,
00000000
00000000
00000000
00000000
,
00000000
00000000
00000000
00000000
,
00001000
00000000
00000000
00000000
00010000
00000000
00000000
00000010
00000000
00000000
00000100
00000000
00000001
00000000
00000000
00000000
,
00000100
00000000
00000000
00000000
00000010
00000000
00000000
00010000
00000000
00000000
00001000
00000000
00010000
00000000
00000000
00000000
,
00010000
00000000
00000000
00000000
00001000
00000000
00000000
00100000
00000000
00000000
01000000
00000000
10000000
00000000
00000000
00000000
,
01000000
00000000
00000000
00000000
00100000
00000000
00000000
00001000
00000000
00000000
00010000
00000000
00001000
00000000
00000000
00000000
,
00011000
00000000
00010100
00000000
00000100
00010000
00001000
00000000
,
00000100
00000100
00000010
00000010
00001000
00000001
00000010
00000000
,
00002002
00003003
00000000
00001000
00001000
00000010
00010000
00001000
,
01000000
00000000
00000000
00010000
00000000
00000000
10000000
00000000
20020000
00000000
00000000
00000000
30030000
00000000
00000000
00000000
,
10000000
00000000
01000000
10000000
00000000
00000000
00000000
00000000
00010000
00000000
00100000
00010000
00000000
00000000
00000000
00000000
,
00100000
00000000
00001000
00010000
00000000
00000000
00000100
00000000
00001000
00000000
00000100
00000000
00000010
00000000
00000000
00000000
,
00000001
00000000
00000010
00000001
00000000
00000000
00000000
00000000
00001000
00000000
00000100
00001000
00000000
00000000
00000000
00000000
,
00000100
00010000
00001000
00010000
01000000
00000000
11000000
00000000
,
10000000
00000000
00010000
00000000
01000000
00000000
00000000
00100000
00000000
00000000
01000000
00000000
00001000
00000000
00000000
00000000
,
00010000
00000000
00001000
00000000
00010000
00000000
00000000
00000100
00000000
00000000
00010000
00000000
00001000
00000000
00000000
00000000
,
00010000
00000000
00001000
00000000
00000010
00000000
00000000
00000001
00000000
00000000
00000010
00000000
00000100
00000000
00000000
00000000
,
00001000
00000000
00000100
00000000
00010000
00000000
00000000
00001000
00000000
00000000
01000000
00000000
00100000
00000000
00000000
00000000
,
00100000
01000000
01000000
00000000
00010000
10000000
01000000
00100000
,
00010000
01000000
00100000
00010000
00001000
00010000
00010010
00000000
,
00000010
00000010
00010000
00010000
00001000
00001000
00000010
00000010
,
00000001
00000000
00000000
00000100
00000000
00000000
00000001
00000000
00002002
00000000
00000000
00000000
00003003
00000000
00000000
00000000
,
00000001
00000000
00000010
00000001
00000000
00000000
00000000
00000000
00001000
00000000
00000100
00001000
00000000
00000000
00000000
00000000
,
00000100
00000000
00010000
00001000
00000000
00000000
00100000
00000000
00010000
00000000
00100000
00000000
01000000
00000000
00000000
00000000
,
10000000
00000000
01000000
10000000
00000000
00000000
00000000
00000000
00010000
00000000
00100000
00010000
00000000
00000000
00000000
00000000
,
00100000
00001000
00010000
00001000
00000010
00000000
00001000
00000000
,
00021000
00000000
00000000
00031000
00002000
00000000
00000000
00003100
,
00000200
00000000
00000000
00000310
00000020
00001030
00002000
00003001
,
00000002
00000000
00000000
00000013
00000020
00000000
00000000
00000130
,
00000100
00001000
00000010
00010000
00022000
00000000
00033000
00000000
,
00001000
00010000
00100000
00000000
00010000
00001000
00100000
00000000
,
00010000
00100000
01000000
10000000
00100000
00000000
01000000
00000000
,
00010000
10000000
01000000
00000000
00100000
00001000
00010000
00000000
,
00001000
00000000
00000100
00000000
00000001
00000000
00000010
00000100
,
00010000
00001000
00100000
00000000
00001000
00010000
00100000
00000000
,
10000000
00010000
10000000
00010000
01000000
00000000
00100000
00000000
,
10000000
01000000
10000000
01000000
00010000
00001000
00010000
00001000
,
00000100
00000001
00000010
00000100
,
00010000
00001000
00000010
00000000
00001000
00010000
00000010
00000000
,
00001000
00000010
00000100
00000001
00000010
00000000
00000001
00000000
,
00001000
00000001
00000100
00000000
00000010
00010000
00001000
00000000
,
00010000
00000000
01000000
00000000
10000000
00000000
00100000
01000000
,
00001000
00010000
00000010
00000000
00010000
00001000
00000010
00000000
,
00000001
00001000
00000001
00001000
00000100
00000000
00000010
00000000
,
00000001
00000100
00000001
00000100
00001000
00010000
00001000
00010000
,
01000000
00000000
10000000
00000000
00100000
01000000
00010000
00000000
,
20020000
00000000
30030000
00000000
,
10000000
00000000
01000000
00000000
00100000
00010000
00100000
00000000
,
00001000
00000000
00010000
00000000
00000010
00001000
00000100
00000000
,
00001000
00000010
00000001
00000010
,
00000110
00001010
00010010
00011000
,
00001000
00000000
00000000
00000000
00001000
00000000
00000000
01000000
00000000
00000000
00010000
00000000
00100000
00000000
00001000
00000000
,
00010000
00000000
00000000
00000000
00010000
00000000
00000000
00000100
00000000
00000000
00001000
00000000
00000010
00000000
00010000
00000000
,
00001000
00000000
00000000
00000000
00001000
00000000
00000000
00100000
00000000
00000000
00010000
00000000
01000000
00000000
00001000
00000000
,
00010000
00000000
00000000
00000000
00010000
00000000
00000000
00000010
00000000
00000000
00001000
00000000
00000100
00000000
00001000
00000000
,
00000001
00000000
00000100
00000000
00001000
00000000
00010000
00001000
,
00010000
00000000
00100000
00000000
00010000
00001000
00010000
00000000
,
00000010
00000000
00010000
00001000
00010000
00000000
01000000
00000000
,
00010000
00001000
00010000
00000000
00000100
00000000
00000010
00000000
,
00002002
00000000
00000000
00003003
,
00000100
00000000
00000000
00000100
00000000
00000000
00000100
00000000
00000000
00000000
00000000
00000000
00000000
00000000
00000000
00000000
,
00000000
00000000
00000000
00000000
;
#NOTES:
     dance-double:
     :
     Hard:
     15:
     :
00000000
00000000
00000000
00000000
,
00000000
00000000
00000000
00000000
,
00000000
00000000
00000000
00000000
,
00000000
00000000
00000000
00000000
,
00000000
00000000
00000000
00000000
,
00001000
00000000
00010000
00000000
00001000
00000000
00100000
00010000
00000000
01000000
00001000
00000000
00010000
00000000
01000000
00000000
,
00100000
00000000
00010000
00000000
10000000
00000000
00100000
01000000
00000000
01000000
00010000
00000000
00100000
00000000
00001000
00000000
,
00010000
00000000
00001000
00000000
00010000
00000000
00000100
00001000
00000000
00000010
00010000
00000000
00001000
00000000
00000100
00000000
,
00000010
00000000
00001000
00000000
00000100
00000000
00000010
00000001
00000000
00000001
00000100
00000000
00000010
00001000
00000001
00000000
,
00000010
00000000
00000100
00000000
00001001
00000000
00000000
00000000
00000001
00000000
00001000
00000001
00000100
00000000
00000100
00000000
,
00000010
00000000
00000010
00000000
00001000
00000001
00001000
00000001
00000010
00000000
00000100
00001000
00000010
00000000
00010000
00000000
,
00022000
00000000
00033000
00000000
00000000
00000000
00001000
00000000
01000000
00000000
00010000
00000000
00100000
01000000
10000000
01000000
,
10000000
00000000
00000000
01010000
00000000
00000000
00100000
00000000
10010000
00000000
00000000
00000000
00010000
00000000
00000000
00000000
,
10000000
00000000
01000000
00100000
00000000
00000000
00010000
00100000
00001000
00000000
00010000
00001000
00000000
00000000
00010000
00000100
,
00001000
00000000
00000100
00000010
00000000
00000000
00000001
00000010
00000100
00000000
00001000
00000000
00001000
00000000
00000001
00000100
,
00000010
00000000
00001000
00000010
00000000
00000000
00001000
00000010
00010000
00000000
00001000
00010000
00000000
00000000
00001000
01000000
,
00010000
00000000
01000000
00100000
10000000
00000000
00010000
00000000
00110000
00000000
00000000
00000000
11000000
00000000
00000000
00000000
,
10000000
00000000
00100000
00000000
01000000
00000000
00010000
00100000
00000000
00100000
00001000
00000000
00010000
00000000
01000000
00000000
,
00100000
00000000
00001000
00000000
00010000
00000000
00000100
00001000
00000000
00001000
00000010
00000000
00010000
00000000
00001000
00000000
,
00000100
00000000
00001000
00000000
00010000
00000000
00000010
00001000
00000000
00001000
00000100
00000000
00000010
00000000
00001000
00000000
,
00010000
00000000
00001000
00000000
00100000
00000000
00010000
01000000
00000000
01000000
00100000
00000000
10000000
01000000
00100000
00000000
,
00010000
00000000
01000000
00000000
01100000
00000000
00000000
00000000
00100000
00000000
10000000
00010000
10000000
00000000
01000000
00000000
,
00100000
00000000
00001000
00010000
00001000
00000000
00010000
00000000
00010100
00000000
00000010
00000000
00001001
00000000
00000000
00000000
,
00000001
00000100
00000000
00000100
00000010
00000000
00001000
00000000
00000100
00010000
00000000
00010000
00001000
00000000
00100000
00000000
,
00110000
00000000
00000000
11000000
00000000
00000000
00100000
00000000
10010000
00000000
00000000
00000000
10000000
00000000
00000000
00000000
,
00010000
00000000
10000000
00010000
00000000
00000000
10000000
01000000
00010000
00000000
00001000
00010000
00000000
00000000
00001000
00000010
,
00000001
00000000
00001000
00000001
00000000
00000000
00000001
00000000
00000100
00000000
00001000
00000000
00010000
00000000
00100000
00000000
,
10000000
00000000
00010000
10000000
00000000
00000000
10000000
01000000
00010000
00000000
00001000
00010000
00000000
00000000
00001000
00000010
,
00000001
00000000
00000010
00000100
00001000
00000000
00000010
00000000
00010000
00000000
00000000
00000000
00001000
00000000
00000000
00000000
,
00021000
00000000
00000000
00000010
00000020
00000030
00000000
00001000
,
00002000
00003000
00000000
01000000
02030000
03010000
00020000
00031000
,
00002000
00000000
00000000
00000100
00000200
00000300
00000000
00013000
,
00011000
00010000
00110000
00100000
01100000
00000000
00100000
00010000
,
00001000
00000000
00000010
00000000
00000001
00000000
00001000
00000010
00000000
00000010
00000100
00000000
00000001
00000000
00000100
00000000
,
00001000
00000000
00010000
00000000
01000000
00000000
10000000
00100000
00000000
00100000
01000000
00000000
00010000
00000000
10000000
00000000
,
01000000
00000000
00010000
00000000
00001000
00000000
00000010
00000001
00000000
00000001
00000100
00000000
00000010
00000000
00010000
00000000
,
00001000
00010000
00001000
00000000
00010000
00100000
00010000
00000000
00100000
10000000
00100000
00000000
10000000
00000000
00100000
00000000
,
00010000
00000000
00001000
00000000
00010000
00000000
01000000
00100000
00000000
00100000
00001000
00000000
00010000
00000000
00001000
00000000
,
00000100
00000000
00000010
00000000
00001000
00000000
00000100
00010000
00000000
00010000
00001000
00000000
00000010
00000000
00000001
00000100
,
00000010
00001000
00000100
00010000
00001000
00000100
00000010
00010000
,
00010100
00000000
00011000
00000000
01001000
00100000
10010000
00000000
,
10000000
00000000
00100000
00000000
00010000
00000000
00001000
00000010
00000000
00000010
00000001
00000000
00000010
00000000
00001000
00000000
,
00010000
00000000
01000000
00000000
10000000
00000000
00100000
00010000
00000000
00010000
00001000
00000000
00010000
00000000
01000000
00000000
,
10000000
00000000
01000000
00000000
00010000
00000000
00001000
00000010
00000000
00000010
00000001
00000000
00000100
00000000
00000010
00000000
,
00010000
00001000
00010000
00000000
00001000
00000010
00001000
00000000
00000010
00000001
00000010
00000000
00000001
00000000
00000010
00000000
,
00001000
00000000
00010000
00000000
00001000
00000000
00000100
00000010
00000000
00000010
00010000
00000000
00001000
00000000
00010000
00000000
,
01000000
00000000
00100000
00000000
00010000
00000000
01000000
00001000
00000000
00001000
00010000
00000000
00100000
00000000
10000000
00000000
,
01000000
00100000
00001000
00010000
00100000
01000000
00010000
10000000
,
00010000
00100000
00010000
00100000
00010000
00100000
01000000
10000000
00010000
01000000
00010000
01000000
00010000
01000000
00100000
10000000
,
00020000
00000000
00030000
00000000
,
00010000
00000000
00100000
00000000
00001000
00010000
00000100
00001000
,
00000100
00000000
00000000
00000010
00000000
00000000
00000002
00000000
00000000
00000000
00000003
00000000
00000000
00000000
00000010
00000000
,
00000100
00000000
00000000
00010000
00000000
00000000
00002000
00000000
00000000
00000000
00000000
00000000
00003000
00000000
00000000
00000000
,
00101000
00000000
00011000
00000000
00010010
00000100
00001001
00000000
,
00000001
00000000
00000010
00000000
00000100
00000000
00001000
00000010
00000000
00000010
00000100
00000000
00000001
00001000
00000100
00000000
,
00010000
00000000
00001000
00000000
00100000
00000000
00010000
01000000
00000000
01000000
00100000
00000000
10000000
00010000
00100000
00000000
,
01000000
00000000
10000000
00000000
01000000
00000000
00010000
00001000
00000000
00001000
00000010
00000000
00000001
00000010
00000100
00000000
,
00001000
00000000
00000010
00000000
00010000
00000000
00001000
01000000
00000000
01000000
00100000
00000000
00010000
00000000
00001000
00000000
,
00010000
00000000
00000000
00000100
00000000
00000000
00000010
00000000
00000000
00000000
00001000
00000000
00010000
00000000
00000000
00100000
,
00000000
00000000
01000000
00000000
00000000
00000000
00001000
00000000
00010000
00000000
00000000
00000100
00000000
00000000
00000010
00000000
,
00000000
00000000
00001000
00000000
00010000
00000000
00000000
01000000
00000000
00000000
00100000
00000000
00000000
00000000
00001000
00000000
,
00010000
00000000
00000000
00001000
00000000
00000000
00000100
00000000
00000000
00000000
00000010
00000000
00001000
00000001
00001000
00000001
,
00000200
00000000
00000000
00000000
00000000
00000000
00000000
00000310
,
00010000
00000000
00000000
00001000
00000000
00000000
00011000
00000000
00000000
00000000
00000000
00000000
00000000
00000000
00000000
00000000
,
00000000
00000000
00000000
00000000
;
