
//----- song ID: tomb -----//
#TITLE:Touch My Body;
#ARTIST:anubasu-anubasu;
#BANNER:Touch My Body.png;
#BACKGROUND:Touch My Body-bg.png;
#CDTITLE:./CDTitles/MUSECA 1.5.png;
#MUSIC:Touch My Body.ogg;
#SAMPLESTART:77.372;
#SAMPLELENGTH:15;
#BPMS:0=150;
#BGSTAGE:2;
#NOTES:
     dance-single:
     :
     Beginner:
     3:
     :
0000
0000
0000
0000
,
0000
0000
0000
0000
,
0000
0000
0000
0000
,
0000
0000
0000
0000
,
0000
0000
0000
0000
,
0000
0000
0000
0000
,
0001
0000
0000
0000
,
1000
0000
0000
0000
,
0001
0000
0000
0000
,
1001
0000
0000
0000
,
1000
0000
1000
0000
,
0100
0000
0000
0000
,
1000
0000
1000
0000
,
0010
0000
0000
0000
,
0001
0000
0001
0000
,
0100
0000
0000
0000
,
0001
0000
0001
0000
,
0010
0000
0000
0000
,
0002
0000
0000
0000
,
0003
0000
0000
0000
,
0020
0000
0000
0000
,
0030
0000
0000
0000
,
0200
0000
0000
0000
,
0300
0000
0000
0000
,
2000
0000
0000
0000
,
3000
0000
0000
0000
,
1001
0000
0000
0000
,
0000
0000
0000
0000
,
1000
0000
0000
0000
,
1000
0000
0000
0000
,
0100
0000
0000
0000
,
0100
0000
0000
0000
,
0010
0000
0000
0000
,
0010
0000
0000
0000
,
0001
0000
0000
0000
,
0001
0000
0000
0000
,
0002
0000
0000
0000
,
0003
0000
0000
0000
,
0020
0000
0000
0000
,
0030
0000
0000
0000
,
2000
0000
0000
0000
,
3000
0000
0000
0000
,
0200
0000
0000
0000
,
0300
0000
0000
0000
,
1001
0000
0000
0000
,
0000
0000
0000
0000
,
1001
0000
0000
0000
,
0000
0000
0000
0000
,
1000
0000
0010
0000
,
1000
0000
0000
0000
,
1000
0000
1000
0000
,
0010
0000
0000
0000
,
0001
0000
0010
0000
,
0001
0000
0000
0000
,
0001
0000
0001
0000
,
0010
0000
0000
0000
,
0020
0000
0000
0000
,
0030
0000
0000
0000
,
0010
0000
0010
0000
,
1000
0000
0000
0000
,
1000
0000
0100
0000
,
0010
0000
0000
0000
,
0010
0000
0010
0000
,
0001
0000
0000
0000
,
1001
0000
0000
0000
,
0000
0000
0000
0000
,
1001
0000
0000
0000
,
0000
0000
0000
0000
,
0001
0000
0010
0000
,
1000
0000
0000
0000
,
1000
0000
0010
0000
,
0001
0000
0000
0000
,
1001
0000
0000
0000
,
0000
0000
0000
0000
;
#NOTES:
     dance-single:
     :
     Easy:
     6:
     :
0000
0000
0000
0000
,
0000
0000
0000
0000
,
0000
0000
0000
0000
,
0000
0000
0000
0000
,
0000
0000
0000
0000
,
0000
0000
0000
0000
,
0001
0100
0001
0001
,
1000
0100
1000
1000
,
0001
0001
1000
1000
,
1001
0000
0000
0000
,
0001
0010
0001
0001
,
0100
0010
0100
0010
,
1000
0010
1000
1000
,
0100
0010
0001
0000
,
1000
0100
1000
1000
,
0010
0100
0010
0100
,
0001
0100
0001
0001
,
0010
0100
1000
0000
,
0002
1000
1000
1003
,
2000
0001
0001
3001
,
0020
0100
0100
0130
,
0200
0010
0010
0310
,
0110
0000
1001
0000
,
0110
0000
1001
0000
,
1000
0001
1000
0001
,
1000
0000
0000
0000
,
1001
0000
0000
0000
,
0000
0000
0000
0000
,
2000
0000
0000
3000
,
1000
0100
0010
0000
,
0002
0000
0000
0003
,
0001
0100
0010
0000
,
2000
0000
0000
3000
,
1000
0010
0100
0000
,
0002
0000
0000
0003
,
1001
0000
0000
0000
,
1000
0100
1000
1000
,
0001
0010
0001
0010
,
0001
0100
0001
0001
,
1000
0010
1000
0000
,
0001
0010
0001
0001
,
1000
0100
1000
0100
,
1000
0010
1000
1000
,
1001
0000
0000
0000
,
0002
0000
0000
0003
,
2000
0000
0000
3000
,
0020
0000
0000
0030
,
0110
0000
0000
0000
,
0001
0100
0010
0100
,
0001
0010
0100
1000
,
0001
1000
0010
0100
,
0001
1000
0001
0000
,
1000
0010
0100
0010
,
1000
0100
0010
0001
,
1000
0001
0100
0010
,
1000
0001
1000
0000
,
0002
0000
0000
0003
,
1000
0001
1000
1001
,
0001
0010
0100
1000
,
0010
0100
0001
0000
,
1000
0100
0010
0001
,
0100
0010
1000
0001
,
0100
0010
0100
0010
,
0110
0000
0000
0000
,
1000
0010
0100
0010
,
1000
1000
0001
0001
,
0010
0100
0010
0001
,
1000
0001
1001
0000
,
0001
1000
0100
0010
,
0001
0001
0100
0100
,
0010
1000
0100
0010
,
0110
0000
0000
0000
,
1001
0000
0000
0000
,
0000
0000
0000
0000
;
#NOTES:
     dance-single:
     :
     Medium:
     11:
     :
0000
0000
0000
0000
,
0000
0000
0000
0000
,
0000
0000
0000
0000
,
0000
0000
0000
0000
,
0000
0000
0000
0000
,
0000
0000
0000
0000
,
1000
0100
1000
0000
0001
0100
0001
0000
,
1000
0010
1000
0000
0001
0010
0001
0000
,
1000
0100
0010
0001
1000
0001
1000
0000
,
1001
0000
0000
0000
,
1001
0000
0001
0100
0010
0100
0001
0000
,
1000
0100
0010
0100
1000
0001
1000
0000
,
1001
0000
0001
0010
0100
0010
0001
0000
,
1000
0010
0100
0010
2000
0000
3001
0000
,
1001
0000
0001
0100
1000
0100
0001
0000
,
1000
0100
0001
0100
1000
0001
1000
0000
,
1001
0000
0001
0010
1000
0010
0001
0000
,
1000
0010
0001
0010
1000
0001
1000
0000
,
1001
0011
1100
1001
,
1010
0101
1010
1001
,
0110
1001
0011
1100
,
1010
0101
2002
3003
,
0101
0110
1010
1001
,
1100
0110
0011
1001
,
0011
1100
0101
1010
,
2002
0000
0000
3003
,
1001
0000
0000
0000
,
0000
0000
0000
0000
,
0002
0000
0000
0000
0023
0000
0000
0130
0000
0100
0000
0000
1000
0000
0000
0000
,
0002
0000
0000
0003
,
2000
0000
0000
0000
3020
0000
0000
0130
0000
0100
0000
0000
0001
0000
0000
0000
,
2000
0000
0000
3000
,
0002
0000
0000
0000
0203
0000
0000
0310
0000
0010
0000
0000
1000
0000
0000
0000
,
0002
0000
0000
0003
,
2000
0000
0000
0000
3200
0000
0000
0310
0000
0010
0000
0000
0001
0000
0000
0000
,
2000
0000
0000
3000
,
0001
0000
0000
0000
1000
0000
0000
0010
0000
0010
0000
0000
0100
0000
0000
0000
,
0001
0100
0010
1000
0010
0100
0001
0000
,
1000
0000
0000
0000
0001
0000
0000
0010
0000
0010
0000
0000
0100
0000
0000
0000
,
1000
0100
0010
0001
0010
0100
1000
0000
,
0001
0000
0000
0000
0010
0000
0000
0100
0000
0100
0000
0000
1000
0000
0000
0000
,
0001
0010
1000
0010
0001
1000
0100
0000
,
1000
0000
0000
0000
0010
0000
0000
0100
0000
0100
0000
0000
0001
0000
0000
0000
,
2002
0000
0000
3003
,
1000
0000
0000
1000
0000
0000
1010
0000
0000
1010
0000
0000
1001
0000
0000
0000
,
0001
0000
0000
0001
0000
0000
0101
0000
0000
0101
0000
0000
1001
0000
0000
0000
,
1000
0100
0010
0001
1000
0100
0010
0001
,
2000
0000
0000
3000
,
0001
0010
0100
0010
0001
0100
0010
1000
,
0001
0100
0010
1000
0100
0010
0100
0000
,
1000
0010
0100
0001
1000
0001
0010
0100
,
1000
0001
0010
0001
0100
0010
1000
0000
,
0001
0010
0001
0100
0001
0010
0100
1000
,
0010
0100
0001
0100
0010
1000
0001
0000
,
1000
0100
0010
0001
0100
0010
1000
0001
,
0010
0001
0100
0001
1000
0010
1000
0000
,
0002
0000
0000
0003
,
1000
1000
1000
0000
1010
0000
0101
0000
,
0001
0100
1000
0100
0001
1000
0001
0000
,
1000
0100
0001
0100
1000
0001
1000
0000
,
0001
0010
1000
0010
0001
0100
0010
1000
,
0100
0001
0100
1000
0010
0100
0001
0000
,
1000
0010
0001
0010
1000
0100
0010
0001
,
0100
1000
0100
0001
0010
0100
1000
0000
,
1001
0000
0000
0000
1000
0000
0000
0010
0000
0100
0000
0000
0010
0000
0000
0000
,
1000
0100
0010
0001
0010
0001
1000
0000
,
1001
0000
0000
0000
0001
0000
0000
0100
0000
0010
0000
0000
0100
0000
0000
0000
,
0001
0100
0010
1000
0020
0000
1030
0000
,
1001
0000
0000
0000
0001
0000
0000
0010
0000
0100
0000
0000
0010
0000
0000
0000
,
0001
1000
0100
0001
0100
1000
0001
0000
,
0100
0000
0000
0010
0000
0000
1000
0000
0000
0001
0000
0000
1000
0000
0000
0000
,
2002
0000
0000
3003
,
1001
0000
0000
0000
,
0000
0000
0000
0000
;
#NOTES:
     dance-single:
     :
     Hard:
     15:
     :
0000
0000
0000
0000
,
0000
0000
0000
0000
,
0000
0000
0000
0000
,
0000
0000
0000
0000
,
0000
0000
0000
0000
,
0000
0000
0000
0000
,
1000
0100
1000
0100
0010
0001
0010
0001
,
0100
0001
0100
0001
1000
0010
1000
0010
,
1000
0100
0010
0001
1000
0100
0010
0000
0001
0100
0010
1000
0001
0100
0010
0000
,
2002
0000
0000
3003
,
1001
0000
0000
0000
0001
0100
0010
0100
0001
0100
0010
0100
0001
0000
0000
0000
,
1000
0100
0010
0001
1000
0010
0100
0000
0010
1000
0001
0000
1000
0000
0000
0000
,
1001
0000
0000
0000
1000
0100
0010
0100
1000
0100
0010
0100
1000
0000
0000
0000
,
0001
0010
0001
0010
0000
0001
0100
0000
0002
0000
0010
0000
1003
0000
0000
0000
,
1001
0000
0000
0000
1000
0001
0100
0001
1000
0001
0100
0001
1000
0000
0000
0000
,
0001
0100
0010
1000
0001
1000
0001
0000
1000
0000
0100
0010
0000
0100
0010
0000
,
0110
0000
0000
0000
0001
1000
0010
1000
0001
1000
0010
1000
0001
0000
0000
0000
,
1000
0000
0100
0010
0001
1000
0001
0000
2000
0000
0010
0000
3001
0000
0000
0000
,
1001
0000
0000
0000
0001
0000
0100
1000
0000
0100
0001
0000
1000
0000
0000
0000
,
1000
0000
0001
0000
1000
0000
0100
0001
0000
0100
1000
0000
0001
0000
0000
0000
,
1001
0000
0000
0000
0001
0000
0010
1000
0000
0010
0001
0000
1000
0000
0000
0000
,
1000
0000
0010
0000
0001
0000
0010
1000
0000
0001
0010
0001
1000
0100
1000
0100
,
1000
0000
0000
0000
0001
0000
0010
0100
0000
0010
0001
1000
0010
0000
0000
0000
,
1000
0000
0010
0000
0100
0000
1000
0100
0000
0010
1000
0001
1000
0000
0000
0000
,
1001
0000
0000
0000
1000
0000
0100
0010
0000
0001
0100
0010
1000
0000
0000
0000
,
2002
0000
0000
3003
,
1001
0000
0000
0000
,
0000
0000
0000
0000
,
2000
0000
0000
0000
3200
0000
0000
0310
0000
0001
0000
0010
0001
0000
0000
0000
,
1000
0000
0100
0001
0000
0100
1000
0000
0002
0000
1000
0000
1003
0000
0000
0000
,
0002
0000
0000
0000
0203
0000
0000
0310
0000
1000
0000
0010
1000
0000
0000
0000
,
0001
0100
0101
1001
1000
0100
0010
0000
,
0002
0000
0000
0000
0023
0000
0000
0130
0000
1000
0000
0100
1000
0000
0000
0000
,
0001
0000
0010
1000
0000
0010
0001
0000
2000
0000
0001
0000
3001
0000
0000
0000
,
2000
0000
0000
0000
3020
0000
0000
0130
0000
0001
0000
0100
0001
0000
0000
0000
,
1001
0000
0000
0000
,
1001
0000
0000
0000
1010
0000
0000
0010
1000
0001
0000
0001
1000
0000
0001
0010
,
0100
0000
1000
0001
0000
1000
0000
0010
0000
0100
0001
0100
0001
0000
0000
0000
,
1001
0000
0000
0000
0011
0000
0000
0010
0001
1000
0000
1000
0001
0000
1000
0010
,
0100
0000
0001
1000
0000
0001
0000
0010
0000
0100
1000
0100
1000
0000
0000
0000
,
1001
0000
0000
0000
1100
0000
0000
0100
1000
0001
0000
0001
1000
0000
0001
0100
,
0010
0000
1000
0001
0000
1000
0000
0100
0000
0010
0001
0010
0001
0000
0000
0000
,
1001
0000
0000
0000
0101
0000
0000
0100
0001
1000
0000
1000
0001
0000
1000
0100
,
0020
0000
0000
0000
0000
0000
0030
0000
0010
0100
0010
0100
0010
0000
0000
0000
,
0001
0000
0010
0001
0000
0010
0001
0000
0100
0010
0000
0100
0010
0000
1000
0100
,
0010
0000
0001
0100
0000
0001
0100
0000
0010
1000
0000
0010
1000
0000
0100
0010
,
0001
0010
0001
1000
0001
0010
0001
0000
1000
0100
1000
0001
1000
0100
1000
0000
,
2002
0000
0000
3003
,
1001
0000
0000
0000
0101
0000
0000
0100
0010
1000
0000
0010
0100
0000
0000
0000
,
0001
1000
0001
0000
0010
0100
0000
0110
0000
0010
0001
1000
0100
0000
0010
0000
,
0011
0000
0000
0000
0101
0000
0000
0100
0010
1000
0000
0001
1000
0000
0000
0000
,
0001
0100
0001
0000
1000
0100
0000
0110
0000
0010
0001
1000
0100
0000
1000
0000
,
1001
0000
0000
0000
1010
0000
0000
0010
0100
0001
0000
0100
0010
0000
0000
0000
,
1000
0001
1000
0000
0100
0010
0000
0110
0000
0100
1000
0001
0010
0000
0100
0000
,
1100
0000
0000
0000
1010
0000
0000
0010
0100
0001
0000
1000
0001
0000
0000
0000
,
1000
0010
1000
0000
0001
0010
0000
0110
0000
0100
1000
0001
0010
0000
0001
0000
,
2000
0000
0000
0000
0010
0000
0000
0001
0000
0001
0000
0000
3100
0000
0000
0000
,
1100
0000
1001
0000
0001
0100
0000
0001
0000
1000
0100
0010
0001
0000
1000
0000
,
0011
0000
0000
0000
1100
0000
0000
1000
0000
0001
0000
0100
0010
0000
0000
0000
,
1000
0010
0100
0000
0001
0010
0100
1000
0000
0100
0010
0100
0010
0000
0001
0000
,
1100
0000
0000
0000
1010
0000
0000
0101
0000
0101
0000
0001
1000
0000
0000
0000
,
0001
1000
0001
0000
1000
0010
0100
0001
0000
0010
0100
0010
0001
0000
1000
0100
,
0010
0000
0000
0000
0011
0000
0000
1001
0000
1001
0000
1000
0001
0000
0000
0000
,
1000
0010
0100
0000
0001
1000
0001
1000
0000
1001
0000
0001
0010
0100
1000
0001
,
0010
0000
0000
0000
0110
0000
0000
0100
1000
0100
0000
1000
0001
0000
0000
0000
,
1000
0100
0010
0001
1000
0100
1000
0000
0001
0100
0001
0100
0010
0000
0010
0000
,
0110
0000
0000
0000
1001
0000
0000
0001
0010
0001
0000
0010
0100
0000
0000
0000
,
1000
0010
1000
0010
0000
0001
0010
0000
2000
0000
0010
0000
3001
0000
1000
0001
,
1000
0000
0000
0000
0110
0000
0000
0001
0010
0100
0000
0100
1000
0000
0000
0000
,
0002
0000
0023
0000
1030
0000
0010
0001
0000
0010
1000
0000
0010
0001
0010
0000
,
0011
0000
0000
0101
0000
0000
1010
0000
0000
1100
0000
0000
0110
0000
0000
0000
,
2002
0000
0000
3003
,
1001
0000
0000
0000
,
0000
0000
0000
0000
;
#NOTES:
     dance-double:
     :
     Easy:
     6:
     :
00000000
00000000
00000000
00000000
,
00000000
00000000
00000000
00000000
,
00000000
00000000
00000000
00000000
,
00000000
00000000
00000000
00000000
,
00000000
00000000
00000000
00000000
,
00000000
00000000
00000000
00000000
,
00001000
00010000
00001000
00001000
,
00010000
00001000
00010000
00010000
,
00001000
00000010
00000001
00000000
,
00001001
00000000
00000000
00000000
,
00000001
00000010
00000001
00000100
,
00000010
00001000
00000010
00000000
,
00001000
00000010
00010000
00000010
,
00010000
00001000
00010000
00000000
,
00001000
00100000
00010000
00100000
,
00010000
01000000
00100000
00000000
,
01000000
00100000
01000000
00010000
,
10000000
00010000
10000000
00000000
,
20000000
00010000
30010000
00000000
,
00020000
00100000
00130000
00000000
,
00200000
00001000
00301000
00000000
,
00002000
00010000
00013000
00000000
,
00020000
00000010
00030010
00000000
,
00000020
00001000
00001030
00000000
,
00002000
00000001
00003001
00000000
,
00001001
00000000
00000000
00000000
,
00001001
00000000
00000000
00000000
,
00000000
00000000
00000000
00000000
,
00000002
00000000
00000000
00000003
,
00000001
00000010
00000100
00000000
,
00002000
00000000
00000000
00003000
,
00001000
00000100
00010000
00000000
,
00002000
00000000
00000000
00003000
,
00001000
01000000
00010000
00000000
,
00200000
00000000
00000000
00300000
,
01100000
00000000
00000000
00000000
,
10000000
01000000
10000000
00100000
,
01000000
00010000
01000000
00000000
,
00010000
00100000
00001000
00100000
,
00001000
00010000
00001000
00000000
,
00010000
00000100
00001000
00000100
,
00001000
00000001
00000010
00000000
,
00000001
00001000
00000010
00000000
,
00001001
00000000
00000000
00000000
,
00000002
00000000
00000000
00000003
,
00002000
00000000
00000000
00003000
,
00000200
00000000
00000000
00000300
,
00020000
00000000
00000000
00030000
,
00010000
00001000
00100000
00010000
,
00100000
01000000
10000000
00010000
,
10000000
00100000
01000000
00010000
,
01000000
00001000
00010000
00000000
,
00001000
00010000
00000100
00001000
,
00000100
00000010
00000001
00001000
,
00000001
00000100
00000010
00001000
,
00000010
00010000
00001000
00000000
,
00020000
00000000
00000000
00030000
,
00001000
00010000
00001000
00011000
,
00001000
00010000
01000000
10000000
,
00010000
01000000
00100000
00000000
,
10000000
01000000
00100000
00001000
,
00010000
00000100
00001000
00000010
,
00001000
00000100
00000001
00000100
,
00000110
00000000
00000000
00000000
,
00000001
00000100
00001000
00010000
,
00100000
00100000
10000000
00000000
,
10000000
01000000
00010000
00001000
,
00000010
00000010
00000001
00000000
,
00000001
00001000
00000010
00010000
,
00001000
01000000
00010000
00000000
,
10000000
01000000
00100000
00001000
,
00010000
00000000
00000000
00000000
,
00011000
00000000
00000000
00000000
,
00000000
00000000
00000000
00000000
;
#NOTES:
     dance-double:
     :
     Medium:
     11:
     :
00000000
00000000
00000000
00000000
,
00000000
00000000
00000000
00000000
,
00000000
00000000
00000000
00000000
,
00000000
00000000
00000000
00000000
,
00000000
00000000
00000000
00000000
,
00000000
00000000
00000000
00000000
,
00001000
00010000
00001000
00000000
00010000
00001000
00010000
00000000
,
00001000
00100000
00001000
00000000
00100000
00010000
00100000
00000000
,
00010000
00100000
01000000
10000000
00010000
10000000
00010000
00000000
,
10010000
00000000
00000000
00000000
,
10010000
00000000
10000000
00100000
10000000
00100000
01000000
00000000
,
00010000
01000000
00010000
01000000
00001000
01000000
00001000
00000000
,
00011000
00000000
00010000
00000100
00010000
00000100
00001000
00000000
,
00000100
00001000
00000010
00000100
00000002
00000000
00001003
00000000
,
00001001
00000000
00000001
00000010
00000001
00000010
00000100
00000000
,
00001000
00000100
00001000
00000100
00010000
00000100
00010000
00000000
,
00011000
00000000
00001000
01000000
00001000
01000000
00010000
00000000
,
01000000
00010000
00100000
01000000
20000000
00000000
30010000
00000000
,
10010000
11000000
00110000
00101000
,
00011000
00010010
00001010
00000101
,
00001001
00000101
00001010
00010010
,
00011000
00101000
00110000
11000000
,
10010000
10100000
01010000
01001000
,
00011000
00010100
00001100
00000011
,
00001001
00000011
00001100
00010100
,
00022000
00000000
00000000
00033000
,
00011000
00000000
00000000
00000000
,
00000000
00000000
00000000
00000000
,
00002000
00000000
00000000
00000000
02003000
00000000
00000000
03010000
00000000
00010000
00000000
00000000
10000000
00000000
00000000
00000000
,
02000000
00000000
00000000
03000000
,
20000000
00000000
00000000
00000000
30200000
00000000
00000000
01300000
00000000
01000000
00000000
00000000
00001000
00000000
00000000
00000000
,
00020000
00000000
00000000
00030000
,
00020000
00000000
00000000
00000000
00030200
00000000
00000000
00001300
00000000
00001000
00000000
00000000
00000001
00000000
00000000
00000000
,
00000200
00000000
00000000
00000300
,
00000002
00000000
00000000
00000000
00000023
00000000
00000000
00000130
00000000
00000100
00000000
00000000
00010000
00000000
00000000
00000000
,
00002000
00000000
00000000
00003000
,
00001000
00100000
00010000
00000000
00100000
01000000
10000000
00000000
,
00010000
00100000
10000000
00100000
00010000
10000000
01000000
00000000
,
10000000
01000000
00100000
00000000
00001000
00010000
00000100
00000000
,
00001000
00000100
00000010
00000001
00000100
00000010
00001000
00000000
,
00000001
00001000
00000100
00000000
00000010
00000001
00001000
00000000
,
00000100
00010000
00001000
00100000
00010000
10000000
00100000
00000000
,
10000000
01000000
00100000
00000000
00010000
00100000
00001000
00000000
,
00022000
00000000
00000000
00033000
,
00010000
00000000
00000000
00010000
00000000
00000000
00010010
00000000
00000000
00010010
00000000
00000000
00001010
00000000
00000000
00000000
,
00001000
00000000
00000000
00001000
00000000
00000000
00001001
00000000
00000000
00001001
00000000
00000000
00000101
00000000
00000000
00000000
,
00000001
00000100
00000010
00001000
00010000
01000000
00100000
10000000
,
00020000
00000000
00000000
00030000
,
10000000
01000000
00100000
00001000
00010000
01000000
00100000
00000000
,
00010000
01000000
00100000
00010000
00001000
00010000
00001000
00000000
,
00010000
00000100
00001000
00000010
00010000
00001000
00000010
00000000
,
00000001
00000010
00000100
00001000
00000010
00000100
00000001
00000000
,
00001000
00000100
00000001
00000100
00001000
00000010
00000100
00000000
,
00000001
00000010
00000100
00010000
00001000
00100000
00010000
00000000
,
00100000
00001000
00010000
01000000
10000000
00010000
01000000
00000000
,
00100000
10000000
00010000
00100000
00001000
00010000
00001000
00000000
,
00020000
00000000
00000000
00030000
,
00001000
00001000
00001000
00000000
00011000
00000000
00011000
00000000
,
00010000
00001000
00000010
00000001
00000100
00000010
00010000
00000010
,
00000100
00001000
00010000
00100000
01000000
00010000
10000000
00000000
,
00010000
10000000
01000000
00100000
00001000
00010000
00001000
00010000
,
00000100
00001000
00000010
00001000
00000100
00000010
00000001
00000000
,
00001000
00000001
00000010
00000100
00010000
00001000
00100000
01000000
,
10000000
00010000
00100000
10000000
00100000
00010000
10000000
00000000
,
10010000
00000000
00000000
00000000
10000000
00000000
00000000
00100000
00000000
00100000
00000000
00000000
01000000
00000000
00000000
00000000
,
00010000
00100000
00001000
00010000
00001000
00010000
00000100
00000000
,
00000110
00000000
00000000
00000000
00000001
00000000
00000000
00001000
00000000
00001000
00000000
00000000
00000010
00000000
00000000
00000000
,
00000100
00001000
00010000
00001000
00020000
00000000
00031000
00000000
,
00011000
00000000
00000000
00000000
00001000
00000000
00000000
00010000
00000000
01000000
00000000
00000000
10000000
00000000
00000000
00000000
,
00010000
00100000
01000000
10000000
00100000
01000000
00010000
00000000
,
10000000
00000000
00000000
01000000
00000000
00000000
00010000
00000000
00000000
00001000
00000000
00000000
00000010
00000000
00000000
00000000
,
00000220
00000000
00000000
00000330
,
00001001
00000000
00000000
00000000
,
00000000
00000000
00000000
00000000
;
#NOTES:
     dance-double:
     :
     Hard:
     15:
     :
00000000
00000000
00000000
00000000
,
00000000
00000000
00000000
00000000
,
00000000
00000000
00000000
00000000
,
00000000
00000000
00000000
00000000
,
00000000
00000000
00000000
00000000
,
00000000
00000000
00000000
00000000
,
00001000
00010000
00001000
00010000
00001000
00100000
00001000
00000000
,
00100000
00010000
00100000
00010000
10000000
00010000
10000000
00000000
,
00010000
10000000
01000000
00000000
00100000
00010000
00100000
00000000
00001000
00010000
00001000
00010000
00000100
00001000
00000100
00000000
,
00000220
00000000
00000000
00000330
,
00000110
00000000
00000000
00000000
00000001
00000010
00000001
00000010
00000100
00000010
00000100
00000010
00000100
00000000
00000000
00000000
,
00001000
00000100
00001000
00000100
00010000
00000100
00010000
00000100
00010000
00000000
00001000
00000000
00010000
00000000
00000000
00000000
,
00011000
00000000
00000000
00000000
00001000
00100000
00001000
00100000
00010000
00100000
00010000
00100000
00010000
00000000
00000000
00000000
,
01000000
00010000
01000000
00010000
00000000
10000000
00100000
00000000
20000000
00000000
00100000
00000000
30010000
00000000
00000000
00000000
,
10010000
00000000
00000000
00000000
10000000
00100000
10000000
00100000
01000000
00010000
01000000
00010000
01000000
00000000
00000000
00000000
,
00010000
01000000
00010000
01000000
00001000
00010000
00001000
00010000
00001000
00000000
00010000
00001000
00000000
00010000
00001000
00000000
,
00011000
00000000
00000000
00000000
00010000
00001000
00010000
00001000
00010000
00000010
00010000
00000010
00001000
00000000
00000000
00000000
,
00000001
00000000
00000010
00000100
00001000
00000000
00000100
00000000
00020000
00000000
00000100
00000000
00031000
00000000
00000000
00000000
,
00011000
00000000
00000000
00000000
00001000
00000000
00010000
00100000
00000000
00010000
00001000
00000000
00010000
00000000
00000000
00000000
,
00001000
00000000
00000010
00000000
00001000
00000000
00010000
00001000
00000000
00010000
01000000
00000000
00010000
00000000
00000000
00000000
,
00011000
00000000
00000000
00000000
00010000
00000000
00001000
00000010
00000000
00001000
00010000
00000000
00001000
00000000
00000000
00000000
,
00010000
00000000
00100000
00000000
00010000
00000000
00001000
00010000
00000000
00001000
00000100
00000000
00001000
00000000
00010000
00000000
,
00011000
00000000
00000000
00000000
00001000
00000000
00010000
01000000
00000000
00100000
00010000
00000000
10000000
00000000
00000000
00000000
,
10000000
00000000
00100000
00000000
00010000
00000000
00001000
00000100
00000000
00000001
00001000
00000001
00001000
00000000
00000000
00000000
,
00001001
00000000
00000000
00000000
00000001
00000000
00000010
00001000
00000000
00010000
01000000
00000000
10000000
00000000
00010000
00000000
,
20020000
00000000
00000000
30030000
,
10010000
00000000
00000000
00000000
,
00000000
00000000
00000000
00000000
,
20000000
00000000
00000000
00000000
32000000
00000000
00000000
03010000
00000000
00001000
00000000
00000010
00000001
00000000
00000000
00000000
,
00001000
00000000
00000100
00000001
00000000
00000100
00001000
00000000
00000002
00000000
00001000
00000000
00001003
00000000
00000000
00000000
,
00000002
00000000
00000000
00000000
00000203
00000000
00000000
00001300
00000000
00010000
00000000
00100000
10000000
00000000
00000000
00000000
,
00010000
01000000
01100000
10100000
10000000
00010000
10000000
00000000
,
20000000
00000000
00000000
00000000
30200000
00000000
00000000
00310000
00000000
00001000
00000000
00000100
00000001
00000000
00000000
00000000
,
00001000
00000000
00000100
00000001
00000000
00000100
00001000
00000000
00000200
00000000
00000010
00000000
00000310
00000000
00000000
00000000
,
00000002
00000000
00000000
00000000
00000023
00000000
00000000
00001030
00000000
00010000
00000000
01000000
10000000
00000000
00000000
00000000
,
10010000
00000000
00000000
00000000
,
10010000
00000000
00000000
00000000
11000000
00000000
00000000
01000000
00100000
00010000
00000000
00100000
00001000
00000000
00010000
00001000
,
00010000
00000000
00000100
00001000
00000000
00000010
00000000
00001000
00000000
00000100
00000010
00000001
00000010
00000000
00000000
00000000
,
00001001
00000000
00000000
00000000
00000101
00000000
00000000
00000100
00000010
00001000
00000000
00000010
00010000
00000000
00001000
00010000
,
00001000
00000000
01000000
00010000
00000000
00100000
00000000
00010000
00000000
01000000
00100000
10000000
00100000
00000000
00000000
00000000
,
10010000
00000000
00000000
00000000
00110000
00000000
00000000
00010000
00100000
01000000
00000000
00010000
01000000
00000000
00100000
00010000
,
00100000
00000000
00001000
00010000
00000000
00000010
00000000
00001000
00000000
00000100
00001000
00000001
00000100
00000000
00000000
00000000
,
00001001
00000000
00000000
00000000
00001010
00000000
00000000
00001000
00000010
00000100
00000000
00001000
00000100
00000000
00000010
00010000
,
00002000
00000000
00000000
00000000
00000000
00000000
00003000
00000000
00001000
00010000
00001000
00010000
00001000
00000000
00000000
00000000
,
00001000
00000000
00100000
00010000
00000000
00100000
00010000
00000000
10000000
00100000
00000000
10000000
00100000
00000000
01000000
00000000
,
00010000
00000000
01000000
00001000
00000000
01000000
00001000
00000000
00010000
00001000
00000000
00010000
00001000
00000000
00010000
00000000
,
00001000
00010000
00000100
00010000
00000100
00010000
00001000
00000000
00010000
00001000
01000000
00001000
01000000
00001000
00010000
00000000
,
00022000
00000000
00000000
00033000
,
00001000
00010000
00000100
00000010
00001000
00010000
00000100
00000010
,
00001000
00010000
00000100
00000000
00000010
00000001
00000000
00000001
00000000
00000100
00000000
00001000
00010000
00000000
00001000
00000000
,
00010000
00001000
01000000
00100000
00010000
00001000
01000000
00100000
,
00010000
00001000
01000000
00000000
00100000
10000000
00000000
10000000
00000000
01000000
00000000
00010000
00001000
00000000
00010000
00000000
,
00001000
00000010
00000100
00010000
00001000
00000100
00000010
00010000
,
00001000
00000010
00001000
00000000
00000010
00000001
00000000
00001000
00000000
00000100
00010000
00000100
00010000
00000000
00001000
00000000
,
00010000
00100000
01000000
00001000
00010000
01000000
00100000
00001000
,
00010000
00100000
00010000
00000000
00100000
10000000
00000000
00010000
00000000
01000000
00001000
01000000
00001000
00000000
00010000
00000000
,
00022000
00000000
00000000
00033000
,
00011000
00000000
00011000
00000000
00010000
00000010
00001000
00000010
00000000
00001000
00000100
00000010
00000001
00000000
00001000
00000000
,
00000011
00000000
00000000
00000000
00001100
00000000
00000000
00001000
00000000
00000100
00000000
00010000
00001000
00000000
00000000
00000000
,
00010000
00001000
01000000
00000000
00010000
00100000
01000000
10000000
00000000
00010000
10000000
00010000
10000000
00000000
00010000
00000000
,
11000000
00000000
00000000
00000000
00110000
00000000
00000000
00101000
00000000
00101000
00000000
00001000
00010000
00000000
00000000
00000000
,
00001000
00010000
00001000
00000000
00010000
00000010
00001000
00000010
00000000
00001000
00000100
00000010
00000001
00000000
00001000
00000001
,
00001000
00000000
00000000
00000000
00001100
00000000
00000000
00010100
00000000
00010100
00000000
00010000
00001000
00000000
00000000
00000000
,
00010000
00001000
01000000
00000000
00010000
00100000
00010000
00100000
00000000
01000000
00000000
10000000
00010000
00100000
01000000
10000000
,
00010000
00000000
00000000
00000000
10010000
00000000
00000000
10000000
01000000
00100000
00000000
00100000
00001000
00000000
00000000
00000000
,
00010000
00000010
00001000
00000010
00000100
00000010
00000100
00000000
00000001
00000010
00000100
00001000
00000001
00000000
00001000
00000000
,
00001001
00000000
00000000
00000000
00001100
00000000
00000000
00000100
00010000
00001000
00000000
00001000
00010000
00000000
00000000
00000000
,
00001000
00010000
00001000
00010000
00000000
00100000
00010000
00000000
00200000
00000000
01000000
00000000
10300000
00000000
00010000
10000000
,
00010000
00000000
00000000
00000000
01100000
00000000
00000000
10000000
00100000
01000000
00000000
01000000
00010000
00000000
00000000
00000000
,
20000000
00000000
32000000
00000000
03010000
00000000
00001000
00000010
00000000
00000010
00000001
00000000
00001000
00000001
00001000
00000000
,
00001100
00000000
00000000
00010010
00000000
00000000
00010100
00000000
00000000
00101000
00000000
00000000
01001000
00000000
00000000
00000000
,
00022000
00000000
00000000
00033000
,
00011000
00000000
00000000
00000000
,
00000000
00000000
00000000
00000000
;
