
//----- song ID: tema -----//
#TITLE:天弓ノ舞;
#ARTIST:龍;
#TITLETRANSLIT:Tenkyuu no mai;
#ARTISTTRANSLIT:RYU;
#BANNER:Tenkyuu no mai.png;
#BACKGROUND:Tenkyuu no mai-bg.png;
#CDTITLE:./CDTitles/GITADORA NEX_AGE.png;
#MUSIC:Tenkyuu no mai.ogg;
#SAMPLESTART:86.976;
#SAMPLELENGTH:15;
#BPMS:0=140;
#BGSTAGE:1;
#NOTES:
     dance-single:
     :
     Beginner:
     2:
     :
0000
0000
0000
0000
,
0000
0000
0000
0000
,
0000
0000
0000
0000
,
1000
0000
0000
0000
,
1000
0000
0000
0000
,
1000
0000
0000
0000
,
0000
0000
0000
0000
,
0001
0000
0000
0000
,
0001
0000
0000
0000
,
0001
0000
0000
0000
,
0000
0000
0000
0000
,
0001
0000
0001
0000
,
0010
0000
0000
0000
,
0010
0000
0001
0000
,
0010
0000
0000
0000
,
0010
0000
0010
0000
,
1000
0000
0000
0000
,
1000
0000
0010
0000
,
1000
0000
0000
0000
,
2000
0000
0000
0000
,
3000
0000
0000
0000
,
0020
0000
0000
0000
,
0030
0000
0000
0000
,
0002
0000
0000
0000
,
0003
0000
0000
0000
,
0020
0000
0000
0000
,
0030
0000
0000
0000
,
1000
0000
1000
0000
,
0100
0000
0000
0000
,
1000
0000
1000
0000
,
0010
0000
0000
0000
,
0001
0000
0001
0000
,
0100
0000
0000
0000
,
0001
0000
0001
0000
,
0010
0000
0000
0000
,
0002
0000
0000
0000
,
0003
0000
0000
0000
,
2000
0000
0000
0000
,
3000
0000
0000
0000
,
0002
0000
0000
0000
,
0003
0000
0000
0000
,
0001
0000
0001
0000
,
0010
0000
0000
0000
,
0020
0000
0000
0000
,
0030
0000
0000
0000
,
0010
0000
1000
0000
,
1000
0000
0000
0000
,
0010
0000
0000
0000
,
0000
0000
0000
0000
,
0010
0000
0001
0000
,
0001
0000
0000
0000
,
0002
0000
0000
0000
,
0003
0000
0000
0000
,
0020
0000
0000
0000
,
0030
0000
0000
0000
,
0200
0000
0000
0000
,
0300
0000
0000
0000
,
2000
0000
0000
0000
,
3000
0000
0000
0000
,
1000
0000
1000
0000
,
0010
0000
0000
0000
,
0010
0000
0000
0000
,
0000
0000
0000
0000
,
1001
0000
0000
0000
,
0000
0000
0000
0000
;
#NOTES:
     dance-single:
     :
     Easy:
     6:
     :
0000
0000
0000
0000
,
0000
0000
0000
0000
,
0000
0000
0000
0000
,
0001
0001
0100
0100
,
0010
0000
1000
0001
0000
0000
1001
0000
,
1000
0000
0100
0000
0010
0000
0001
0010
,
0000
0001
1000
1001
,
0001
0001
0100
0100
,
0010
1000
0010
0010
,
1000
1000
0100
0100
,
0010
0001
0010
0000
,
1001
0000
0110
0000
,
1001
0000
0001
0100
,
1010
0000
0101
0000
,
1010
0000
1000
0100
,
1000
1000
0001
0000
,
0001
0001
0100
0000
,
0100
0100
0010
0000
,
0010
0010
1000
0000
,
0002
0000
0000
0003
,
0020
0000
0000
0030
,
0200
0000
0000
0300
,
2000
0000
0000
3000
,
1000
0100
1000
0000
,
0001
0100
0001
0000
,
1000
0010
1000
0000
,
0001
0010
0001
0000
,
1000
1000
1000
0000
,
0001
0001
0001
0000
,
0110
0000
1001
0000
,
0001
1000
0001
0000
,
1000
0010
0100
0010
,
1000
0000
1001
0000
,
0001
0010
0100
0010
,
0001
0000
1001
0000
,
2000
0000
3000
1000
,
0002
0000
0003
0001
,
0020
0000
0030
0010
,
0200
0000
0300
0100
,
1000
0010
1000
0001
,
1000
0100
1000
0000
,
0001
0100
0001
1000
,
0001
0010
0001
0000
,
2000
0000
0000
3000
,
1000
0010
0100
0000
,
0002
0000
0000
0003
,
0001
0010
0100
0000
,
1000
0001
0100
0010
,
1000
0001
1000
0000
,
0001
1000
0100
0010
,
0001
1000
0001
0000
,
1000
0000
1100
0000
,
0001
0000
0011
0000
,
1000
0000
1010
0000
,
0001
0000
0101
0000
,
1000
0010
0100
0001
,
1000
0100
0010
0000
,
0001
1000
0001
0010
,
0100
1000
0010
0000
,
2000
0000
0000
3000
,
0002
0000
0000
0003
,
1001
0000
0000
0000
,
0000
0000
0000
0000
,
1001
0000
0000
0000
,
0000
0000
0000
0000
;
#NOTES:
     dance-single:
     :
     Medium:
     12:
     :
0000
0000
0000
0000
,
0000
0000
0000
0000
,
0000
0000
0000
0000
,
0001
0010
0001
0000
1000
0100
1000
0000
,
1001
0000
1000
0001
0000
0001
1000
0000
,
0001
0100
0001
0100
0010
1000
0010
1000
,
0000
1000
0100
1000
0010
0100
0010
0000
,
1001
0000
1000
0010
0001
0010
1000
0000
,
0001
0010
1000
0000
1000
0010
0001
0000
,
1001
0000
1000
0100
0010
0001
0100
0000
,
0002
0000
0000
0000
0103
0000
0010
0000
1000
0000
0001
0000
1000
0000
0000
1001
,
0000
0000
0000
0000
0001
0000
0000
1010
0000
0000
0000
0000
1000
0000
0000
0011
,
0000
0000
0000
0000
0001
0000
0000
1100
0000
0000
0000
0000
1000
0000
0000
0101
,
0000
0000
0000
0000
0001
0000
0000
0110
0000
0000
0000
0000
1000
0000
0000
0110
,
0000
0000
0000
0000
0010
0000
0000
1001
0000
0000
0000
0000
0001
1000
0001
0000
,
0000
0000
0001
0000
1000
0010
0000
0010
0000
0000
0000
0000
1000
0000
1000
0100
,
0000
0000
0000
0000
1000
0001
0000
0001
0000
0000
0000
0000
0001
0000
0001
0010
,
0000
0000
0000
0000
0001
0100
0000
0100
0000
0000
0000
0000
0010
0000
1000
0010
,
1000
0100
1000
0100
0010
0001
0010
0000
,
0000
0001
1000
0010
0100
0001
1000
0000
,
0001
0100
1000
0100
0000
0110
0000
0010
,
1000
0000
0100
2000
0000
0000
0000
0000
,
3000
0001
1000
0000
1010
0000
0101
0000
,
0002
0000
0000
0000
0000
0000
0003
1000
,
0010
1000
0010
0000
0100
0001
0100
0000
,
0001
0000
0000
1000
0000
0000
1001
0000
,
1000
0100
0010
0001
0100
0010
1000
0000
,
0001
0010
0001
0010
1000
0010
0001
0000
,
1000
0010
1000
0010
0001
0010
1000
0000
,
0001
0100
0001
0100
1000
0100
0001
0000
,
1000
0100
1000
0100
0001
0100
1000
0000
,
0001
0010
0100
0010
0001
0100
1000
0100
,
0001
0010
0100
0001
0100
0010
0001
0000
,
1000
0010
1000
0010
0001
0010
0001
0010
,
1000
0010
0100
0001
1000
0010
0100
0000
,
0002
0000
0000
0000
1003
0000
0010
0200
,
0000
0000
0000
1300
0100
0001
1000
0001
,
2000
0000
0000
0000
3100
0000
0010
0002
,
0000
0000
0000
1003
0010
1000
0100
0000
,
2000
0000
0000
0000
3010
0000
0100
0020
,
0000
0000
0000
1030
0001
0100
0001
0000
,
1001
0000
1000
0100
0010
0000
0001
0100
,
0010
0000
1000
0100
0001
0100
1000
0000
,
1001
0000
0000
0000
1000
0100
0000
0100
0000
0000
0010
0000
0001
0000
0000
0000
,
1001
0000
0000
0000
0001
0100
0000
0100
0000
0000
0010
0000
1000
0000
0000
0000
,
1001
0000
0000
0000
1000
0010
0000
0010
0000
0000
0100
0000
0001
0000
0000
0000
,
1000
0100
0001
0100
1000
0001
1000
0000
,
0001
0010
0000
0001
0000
0000
0100
0010
0000
0000
1000
0000
0001
0000
0000
0000
,
1000
0010
0000
1000
0000
0000
0100
0010
0000
0000
0001
0000
1000
0000
0000
0000
,
0001
0010
0000
0100
0000
0000
1000
0010
0000
0000
0100
0000
0001
0000
0000
0000
,
1000
0000
0100
0000
0001
0000
0100
0000
1000
0000
0001
0000
0010
0100
0010
0000
,
0002
0000
1003
0010
,
0200
0000
0310
1000
,
0020
0000
0130
0001
,
2000
0000
3100
0010
,
0001
0100
0001
0010
0001
0000
1000
0010
,
1000
0000
0000
0100
0000
0000
0010
0000
0000
0000
0010
0000
0100
0000
1000
0000
,
0001
0001
0100
0100
0010
0010
1000
1000
,
0002
0000
0000
0000
1003
0000
0000
1000
,
0100
0100
0010
0010
0001
0001
1000
1000
,
0020
0000
0000
0000
0000
0000
0000
0000
0030
0000
0000
0000
0100
0000
0000
1001
,
0000
0000
0000
0000
,
0000
0000
0000
0000
0000
0000
0000
1000
,
0001
0000
0000
0000
,
0000
0000
0000
0000
;
#NOTES:
     dance-single:
     :
     Hard:
     14:
     :
0000
0000
0000
0000
,
0000
0000
0000
0000
,
0000
0000
0000
0000
,
0001
0000
0100
0000
0010
0000
1000
0000
0001
0000
0010
0001
0100
0000
0010
1000
,
0100
0001
0100
2000
0000
0001
3001
0000
,
1000
0010
0100
0010
1000
0100
0010
0001
,
0000
0000
0101
0000
0000
0000
0100
0010
1000
0000
0001
0000
1000
0000
0100
0000
,
1000
0000
1001
0001
0010
1000
0010
0001
,
1000
0000
0100
0010
0001
0000
0100
0010
1000
0010
1000
0000
0001
0000
1000
0000
,
0100
0000
0110
0010
0001
0100
0001
0001
,
2000
0000
0000
0000
3000
0000
0000
0000
1000
0000
0010
0000
0100
0001
0000
1001
,
0000
0000
1001
0000
1000
0100
0010
0001
0000
0000
0100
0000
1000
0000
0100
0001
,
0000
0000
1001
0000
0001
0100
0010
1000
0000
0000
0100
0000
0001
0000
0100
1000
,
0000
0000
1001
0000
1000
0010
0100
0001
0000
0000
0010
0000
1000
0000
0010
0001
,
0000
0000
1001
0000
0001
0010
0100
1000
0000
0000
0010
0000
0001
0010
0000
1000
,
0000
0000
0001
0000
1000
0100
1000
0010
0000
0000
0001
0000
0010
0000
0100
0001
,
0000
0000
1001
0000
0001
0100
0001
0010
0000
0000
1000
0000
0010
0000
0100
1000
,
0000
0000
1001
0000
1000
0010
1000
0100
0000
0000
0001
0000
0100
0000
0010
0001
,
0010
0010
0001
0001
1000
1000
0100
0100
,
0000
0000
1000
0001
1000
0000
0010
0000
0100
0000
0001
1000
0001
0000
1000
0000
,
0100
0010
0001
1000
0000
0110
0000
1001
,
0001
0010
0100
2000
0000
0000
0000
0000
,
3000
1000
0100
0010
0001
1000
1000
0010
,
2000
0000
0010
0000
0001
0000
3010
0100
,
0000
0000
0100
0000
0001
0000
0010
0000
0001
0000
1000
0100
1000
0000
0001
0000
,
0100
0000
0000
0110
0000
0000
1001
0000
,
1000
0100
0010
0000
0001
0100
0010
0000
1000
0000
1010
0000
0010
0000
0110
0000
,
0100
0000
0001
0000
0010
0100
0010
0000
0001
0000
1000
0000
1100
0000
0110
0000
,
0001
0000
1001
0000
1000
0000
1001
0000
0001
0010
0001
0000
1000
0010
1000
0000
,
0001
0000
0100
0010
1000
0000
1000
0000
0001
0000
0010
0100
1000
0000
1000
0000
,
0001
0101
1000
1100
0100
0010
0110
1001
,
1000
0010
0100
0000
0010
0100
0001
0000
1000
0000
0110
0000
0001
0000
0110
0000
,
1000
0000
1010
0000
1001
0000
0001
0100
0010
0000
1000
0000
0100
0010
0100
0010
,
0001
0000
0100
0010
0100
0000
1000
0000
0100
0000
0001
0000
1000
0000
0100
0000
,
0010
0001
0010
0000
0001
1000
0001
0000
1000
0010
1000
0000
0010
0000
0100
0000
,
0002
0000
0000
0000
1003
0000
0010
0200
,
0000
0000
0000
0000
0300
0000
0100
0010
0100
0000
0001
1000
0001
0000
0010
0000
,
0200
0000
0000
0000
1300
0000
0001
0020
,
0000
0000
0000
0000
0030
0000
0010
0100
0010
0000
0001
0000
1000
0000
0010
0000
,
0100
0000
0001
1000
0000
0001
1000
0000
0100
0000
1000
0001
0000
1000
0001
0000
,
0010
0000
0001
0100
0000
0001
0100
0000
0010
0000
1000
0000
0100
1000
0100
0000
,
1000
0010
1000
0000
1010
0000
1001
0000
0001
0010
0001
0000
0101
0000
1001
0000
,
1000
0000
0100
0000
0010
0001
0010
0000
0001
0000
0100
0000
0010
0100
0001
1000
,
0001
0000
1000
0000
0010
1000
0001
0100
0000
0000
0001
0000
1000
0001
1000
0000
,
0100
0000
0010
0000
0100
1000
0001
0010
0000
0000
0001
0000
1000
0001
1000
0000
,
0010
0000
0100
0000
0001
0010
0100
1000
0000
0000
0010
0000
1000
0100
0010
0000
,
0001
0100
0001
0000
0100
0010
0100
0000
0010
1000
0010
0000
1000
0001
1000
0000
,
0002
0000
0000
0000
0003
0000
1000
0010
2000
0000
0000
0000
0000
0000
0000
0000
,
3001
0000
0100
0000
0001
1000
0100
0010
0000
0000
0001
0000
0100
0010
1000
0000
,
0010
0000
0100
0000
0001
0010
0100
1000
0000
0000
0010
0000
0100
0001
1000
0000
,
0001
0100
0010
0000
1000
0100
0010
0000
0001
0010
0100
0000
1000
0010
0100
0000
,
0002
0000
0103
0110
,
2000
0000
3100
0110
,
0002
0000
0000
0000
0000
0000
0013
0000
1000
0000
0010
0100
0010
0000
0001
1000
,
0002
0000
0000
0000
0003
0001
1000
0010
,
0100
0101
0001
0011
1000
2010
3020
1030
,
1010
0000
1000
0001
0000
0001
0100
0000
0010
0000
1000
0100
0010
0000
0001
0010
,
0001
0000
0001
0010
0100
0000
1000
0010
1000
0000
1000
0010
0100
0000
0001
1000
,
0002
0000
0000
0000
0000
0000
0000
0000
2003
0000
0000
0000
3000
0000
1000
0100
,
1000
0000
1000
0100
0010
0000
0001
0100
0001
0000
0001
0100
0010
0000
1000
0001
,
2000
0000
0000
0000
0000
0000
0000
0000
3000
0000
0000
0000
1000
0001
0000
2002
,
0000
0000
0000
0000
,
0000
0000
0000
0000
0000
0000
0000
0000
0000
0000
0000
0000
3003
0000
0001
1000
,
0001
0000
0000
0000
,
0000
0000
0000
0000
;
#NOTES:
     dance-double:
     :
     Easy:
     6:
     :
00000000
00000000
00000000
00000000
,
00000000
00000000
00000000
00000000
,
00000000
00000000
00000000
00000000
,
10000000
00100000
10000000
00100000
,
01000000
00000000
00010000
01000000
00000000
00000000
00010000
00000000
,
00100000
00000000
00001000
00000000
00100000
00000000
00001000
00010000
,
00000000
00001000
00010000
00000100
,
00001000
00001000
00000010
00000010
,
00000100
00000001
00000010
00000010
,
00000001
00000010
00000100
00001000
,
00000100
00010000
00001000
00000000
,
00011000
00000000
00001000
00010000
,
00100000
00000000
01100000
00000000
,
10010000
00000000
10000000
01000000
,
00010000
00000000
00011000
00000000
,
00001000
00010000
00000100
00000000
,
00001000
00000100
00000010
00000000
,
00000001
00001000
00000010
00000000
,
00001000
00000010
00010000
00000000
,
00002000
00000000
00000000
00003000
,
00200000
00000000
00000000
00300000
,
00020000
00000000
00000000
00030000
,
02000000
00000000
00000000
03000000
,
00100000
10000000
01000000
00000000
,
00100000
00010000
00100000
00000000
,
00001000
00010000
00001000
00000000
,
00010000
00000010
00001000
00000000
,
00000001
00000010
00000100
00001000
,
00000100
00010000
00001000
00000000
,
00010000
00001000
01000000
00010000
,
00100000
00010000
01000000
00000000
,
01100000
00000000
10010000
00000000
,
10000000
01000000
00100000
00000000
,
00010000
00100000
00001000
00000000
,
00010000
00001000
00010000
00000000
,
00002000
00000000
00000000
00003000
,
00020000
00000000
00000000
00030000
,
00000200
00000000
00000000
00000300
,
00002000
00000000
00000000
00003000
,
00000001
00000010
00001000
00000000
,
00001000
00010000
00001000
00000000
,
00010000
01000000
10000000
00000000
,
00010000
10000000
00010000
00000000
,
20000000
00000000
00000000
30000000
,
10000000
00010000
00100000
00000000
,
00020000
00000000
00000000
00030000
,
00010000
00100000
00001000
00000000
,
00020000
00000000
00000000
00030000
,
00010000
00000010
00001000
00000000
,
00000020
00000000
00000000
00000030
,
00000100
00000001
00001000
00000000
,
00000001
00000010
00001000
00010000
,
00002000
00000000
00000000
00003000
,
00010000
00001000
00010000
00100000
,
20000000
00000000
00000000
30000000
,
10010000
00000000
01100000
00000000
,
10000000
01000000
00100000
00001000
,
00010000
00000000
00011000
00000000
,
00001000
00010000
00000100
00001000
,
00000002
00000000
00000000
00000003
,
00002000
00000000
00000000
00003000
,
00001001
00000000
00000000
00000000
,
00000000
00000000
00000000
00000000
,
00001001
00000000
00000000
00000000
,
00000000
00000000
00000000
00000000
;
#NOTES:
     dance-double:
     :
     Medium:
     11:
     :
00000000
00000000
00000000
00000000
,
00000000
00000000
00000000
00000000
,
00000000
00000000
00000000
00000000
,
10000000
01000000
00100000
00000000
00010000
01000000
00100000
00000000
,
01100000
00000000
01000000
00010000
00000000
00010000
01000000
00000000
,
00010000
00100000
00010000
00100000
00001000
00010000
00001000
00010000
,
00000000
00010000
00000010
00001000
00000100
00001000
00000010
00000000
,
00001001
00000000
00000001
00000010
00000100
00001000
00000100
00000000
,
00000010
00001000
00010000
00000000
00010000
01000000
10000000
00000000
,
10010000
00000000
10000000
00100000
01000000
00010000
01000000
00000000
,
00020000
00000000
00000000
00000000
00130000
00000000
01000000
00000000
00100000
00000000
00001000
00000000
00010000
00000000
00000000
00011000
,
00000000
00000000
00010000
00000000
00000100
00000000
00000000
00000010
00000000
00000000
00000001
00000000
00001000
00000000
00000000
00000001
,
00000000
00000000
00000100
00000000
00001000
00000000
00000000
00010000
00000000
00000000
00100000
00000000
01000000
00000000
00000000
10000000
,
00000000
00000000
01000000
00000000
00010000
00000000
00000000
10000000
00000000
00000000
01000000
00000000
00010000
00000000
00000000
00001000
,
00000000
00000000
00000010
00000000
00000100
00000000
00000000
00001000
00000000
00000000
00000001
00000000
00000100
00000000
00000010
00000000
,
00000000
00000000
00000100
00000000
00000010
00000000
00000000
00010000
00000000
00000000
00001000
00000000
01000000
00000000
00000000
00010000
,
00000000
00000000
00100000
00000000
10000000
00000000
00000000
00100000
00000000
00000000
00001000
00000000
00010000
00000000
00000000
00000100
,
00000000
00000000
00000001
00000000
00000100
00000000
00000000
00001000
00000000
00000000
00000010
00000000
00010000
00000000
00001000
00000000
,
01000000
00010000
00100000
00000000
01000000
10000000
00100000
00000000
,
00000000
10000000
00100000
10000000
00010000
00100000
00010000
00000000
,
00100000
00001000
00010000
00001000
00000000
00000010
00000001
00000000
,
00001000
00000000
00000010
00000200
00000000
00000000
00000000
00000000
,
00000300
00000001
00001000
00000000
00001010
00000000
00000101
00000000
,
00000002
00000000
00000000
00000003
,
00000100
00000001
00000100
00000000
00000010
00000100
00001000
00000000
,
00010000
00000000
00000000
00011000
00000000
00000000
00001000
00000000
,
00010000
00001000
00100000
00010000
01000000
00100000
10000000
00000000
,
00010000
01000000
00010000
01000000
10000000
01000000
00010000
00000000
,
10000000
01000000
00010000
00000000
00001000
00000010
00000001
00000000
,
00000001
00000100
00000001
00000100
00001000
00000100
00000001
00000000
,
00000001
00000100
00001000
00000000
00010000
00100000
10000000
00000000
,
10000000
01000000
00010000
00001000
00100000
00010000
01000000
00100000
,
01000000
00010000
00100000
00001000
00010000
00000100
00000010
00000000
,
00000001
00000100
00001000
00010000
00000010
00001000
00000100
00000010
,
00000100
00001000
00000010
00010000
00001000
01000000
00100000
00000000
,
20000000
00000000
00000000
00000000
31000000
00000000
00100000
00020000
,
00000000
00000000
00000000
00130000
00001000
00010000
00001000
00000000
,
00020000
00000000
00000000
00000000
00030010
00000000
00000100
00000002
,
00000000
00000000
00000000
00000013
00000100
00001000
00000001
00000000
,
00002000
00000000
00000000
00000000
00003100
00000000
00010000
00002000
,
00000000
00000000
00000000
00013000
00001000
01000000
00010000
00000000
,
10000000
00000000
01000000
10000000
00100000
00000000
01000000
00010000
,
00100000
00000000
00010000
00100000
00001000
00010000
00000100
00000000
,
00001000
00000000
00000000
00000000
00000010
00000100
00000000
00000100
00000000
00000000
00000001
00000000
00001000
00000000
00000000
00000000
,
00000001
00000000
00000000
00000000
00001000
00000100
00000000
00000100
00000000
00000000
00010000
00000000
00001000
00000000
00000000
00000000
,
00010000
00000000
00000000
00000000
00001000
00100000
00000000
00100000
00000000
00000000
00010000
00000000
01000000
00000000
00000000
00000000
,
00100000
10000000
01000000
00010000
01000000
10000000
00010000
00000000
,
10000000
01000000
00000000
00100000
00000000
00000000
00010000
00100000
00000000
00000000
00001000
00000000
00010000
00000000
00000000
00000000
,
00000010
00001000
00000000
00000010
00000000
00000000
00000100
00000001
00000000
00000000
00000010
00000000
00000100
00000000
00000000
00000000
,
00000010
00000001
00000000
00000100
00000000
00000000
00000010
00001000
00000000
00000000
00000010
00000000
00010000
00000000
00000000
00000000
,
00001000
00010000
00001000
01000000
00010000
00100000
01000000
00000000
,
20000000
00000000
31000000
00010000
,
00002000
00000000
00013000
00001000
,
00000020
00000000
00000031
00001000
,
00000002
00000000
00000000
00000003
,
00000001
00000010
00000001
00000100
00000001
00000000
00000010
00000100
,
00001000
00000000
00000000
00000100
00000000
00000000
00010000
00000000
00000000
00000000
00010000
00000000
00001000
00000000
00000000
00000000
,
00011000
00101000
00110000
01010000
,
01000000
00100000
10000000
00000000
01000000
00100000
00010000
00000000
,
00110000
00101000
00011000
00010010
,
00000010
00000000
00001000
00000000
00000100
00000000
00000000
00000000
00000010
00000000
00000001
00000000
00000010
00000000
00000000
00001001
,
00000000
00000000
00000000
00000000
,
00000000
00000000
00000000
00000000
00000000
00000000
00000000
00001000
,
00000001
00000000
00000000
00000000
,
00000000
00000000
00000000
00000000
;
#NOTES:
     dance-double:
     :
     Hard:
     14:
     :
00000000
00000000
00000000
00000000
,
00000000
00000000
00000000
00000000
,
00000000
00000000
00000000
00000000
,
10000000
00000000
01000000
00000000
00100000
00000000
00010000
00000000
10000000
00000000
00100000
01000000
00010000
00000000
00100000
00001000
,
00010000
00000100
00001000
00000200
00000000
00000010
00000310
00000000
,
00000001
00000100
00001000
00010000
00001000
00000010
00000100
00010000
,
00000000
00000000
00011000
00000000
00000000
00000000
00001000
00010000
00001000
00000000
00100000
00000000
00010000
00000000
01000000
00000000
,
00010000
00000000
10010000
10000000
00100000
00010000
00100000
10000000
,
01000000
00000000
00100000
00010000
00100000
00000000
00010000
00100000
00001000
00010000
00001000
00000000
00010000
00000000
00000000
00000000
,
00011000
00000000
00010000
00001000
00000010
00000001
00001000
00000100
,
00000020
00000000
00000000
00000000
00000030
00000000
00000000
00000000
00000001
00000000
00000010
00000000
00000100
00001000
00000000
00001001
,
00000000
00000000
00001001
00000000
00000001
00001000
00000100
00001000
00000000
00000000
00000100
00000000
00010000
00000000
00001000
00010000
,
00000000
00000000
00100000
00000000
10000000
00100000
01000000
00010000
00000000
00000000
10000000
00000000
01000000
00000000
00100000
01000000
,
00000000
00000000
01100000
00000000
00100000
00010000
00100000
00001000
00000000
00000000
00000010
00000000
00000001
00000000
00000100
00000010
,
00000000
00000000
00000110
00000000
00000100
00000001
00001000
00000100
00000000
00000000
00000010
00000000
00000001
00001000
00000000
00000100
,
00000000
00000000
00001000
00000000
00000100
00010000
00001000
00010000
00000000
00000000
01000000
00000000
00100000
00000000
00010000
10000000
,
00000000
00000000
10010000
00000000
10000000
00100000
01000000
00010000
00000000
00000000
00100000
00000000
00001000
00000000
00010000
00000010
,
00000000
00000000
00000100
00000000
00000001
00000010
00000001
00000100
00000000
00000000
00010000
00000000
00001000
00000000
00000010
00001000
,
00000010
00000010
00010000
00010000
00001000
00001000
01000000
01000000
,
00000000
00000000
01000000
00010000
01000000
00000000
00010000
00000000
00100000
00000000
01000000
00000000
00010000
00000000
00001000
00000000
,
00000010
00000001
00001000
00000100
00000000
00000110
00000000
00000010
,
00000001
00001000
00000100
00020000
00000000
00000000
00000000
00000000
,
00030000
00010000
00001000
00000010
00001000
00010000
01000000
00100000
,
00020000
00000000
00000000
00000000
00000000
00000000
00030000
10000000
,
10000000
00000000
00010000
00000000
00010000
00000000
01000000
00000000
01000000
00000000
00001000
00010000
00001000
00000000
00010000
00000000
,
00011000
00000000
00000000
00000110
00000000
00000000
00001001
00000000
,
00000001
00000100
00000010
00000000
00001000
00000100
00000010
00000000
00000001
00000000
00000101
00000000
00000100
00000000
00000110
00000000
,
00000010
00000000
00001000
00000000
00000100
00001000
00000100
00000000
00010000
00000000
00001000
00000000
00101000
00000000
00110000
00000000
,
00010000
00000000
01010000
00000000
01000000
00000000
01100000
00000000
00100000
10000000
00100000
00000000
10000000
00000000
00010000
00000000
,
00100000
00000000
01000000
00010000
00001000
00000000
00000010
00000000
00000001
00000000
00000100
00000010
00001000
00000000
00000001
00000000
,
00000010
00000110
00000100
00001100
00001000
00000100
00010100
00011000
,
00010000
00001000
01000000
00000000
00010000
01000000
00100000
00000000
10000000
00000000
01000000
00000000
01100000
00000000
00110000
00000000
,
00010000
00000000
00110000
00000000
00101000
00000000
00001000
00010000
00001000
00000000
00010000
00000100
00010000
00000000
00000100
00000000
,
00001000
00000000
00000100
00000001
00000100
00000000
00000010
00000000
00000001
00000000
00000100
00000000
00001000
00000000
00010000
00000000
,
00100000
01000000
00100000
00000000
10000000
00000000
00010000
00000000
00100000
01000000
00100000
00000000
00010000
00000000
10000000
00000000
,
02000000
00000000
00000000
00000000
03010000
00000000
00001000
00020000
,
00000000
00000000
00000000
00000000
00030000
00000000
00010000
00001000
00010000
00000000
00001000
00000000
00000010
00000000
00000001
00000000
,
00002000
00000000
00000000
00000000
00003001
00000000
00000100
00000020
,
00000000
00000000
00000000
00000000
00000030
00000000
00000010
00000100
00000010
00000000
00000100
00000000
00001000
00000000
00010000
00000000
,
00100000
00000000
01000000
00010000
00000000
01000000
00010000
00000000
00100000
00000000
01000000
10000000
00000000
01000000
10000000
00000000
,
00010000
00000000
00100000
00001000
00000000
00100000
00001000
00000000
00010000
00000000
00000010
00001000
00000000
00000010
00001000
00000000
,
00000100
00000010
00000001
00000000
00000100
00000000
00000110
00000000
00000010
00010000
00001000
00000000
00010000
00000000
00011000
00000000
,
00001000
00000000
00100000
00010000
00100000
00010000
00100000
00000000
00010000
00000000
01000000
00100000
10000000
00000000
01000000
00100000
,
00010000
00000000
10000000
00000000
01000000
00100000
00010000
00100000
00000000
00000000
00100000
00000000
00001000
00010000
00001000
00000000
,
00010000
00000000
00000100
00000000
00001000
00000010
00000100
00000001
00000000
00000000
00000001
00000000
00000100
00000010
00000100
00000000
,
00000001
00000000
00000010
00000000
00000100
00001000
00000100
00010000
00000000
00000000
00010000
00000000
00001000
00010000
00001000
00000000
,
00010000
00001000
01000000
00000000
00010000
00100000
01000000
00000000
10000000
00100000
01000000
00000000
00010000
00000000
10000000
00000000
,
02000000
00000000
00000000
00000000
00000000
00000000
03100000
00001000
00020000
00000000
00000000
00000000
00000000
00000000
00000000
00000000
,
00031000
00000000
00010000
00000000
00000100
00001000
00000100
00000010
00000000
00000000
00000010
00000000
00000001
00001000
00000001
00000000
,
00000100
00000000
00000010
00000000
00000100
00001000
00010000
00001000
00000000
00000000
00001000
00000000
00010000
00001000
00010000
00000000
,
00001000
01000000
00100000
00010000
00001000
00000010
00000100
00010000
,
00002000
00000000
00013000
00100000
,
20000000
00000000
31000000
00010000
,
00002000
00000000
00003010
00000001
,
00000200
00000000
00000000
00000000
00000310
00000100
00000010
00000000
,
00000100
00000010
00001000
00000010
00010000
00000000
00011000
00001000
,
00010000
00000000
01000000
00100000
00000000
00100000
00010000
00000000
10000000
00000000
00100000
01000000
00010000
00000000
00100000
00001000
,
00010000
00000000
00000100
00001000
00000010
00000000
00000100
00000001
00000010
00000000
00000100
00010000
00001000
00000000
00100000
00010000
,
02000000
00000000
00000000
00000000
00000000
00000000
00000000
00000000
03200000
00000000
00000000
00000000
00000000
00000000
10300000
01000000
,
10000000
00000000
01000000
00000000
00010000
00000000
00001000
00000010
00001000
00000000
00000010
00000000
00000001
00000000
00000100
00000000
,
00002000
00000000
00000000
00000000
00000000
00000000
00000000
00000000
00003000
00000000
00000000
00000000
00010000
00001000
00000000
00022000
,
00000000
00000000
00000000
00000000
,
00000000
00000000
00000000
00000000
00000000
00000000
00000000
00000000
00000000
00000000
00000000
00000000
00033000
00000000
00001000
00010000
,
00001000
00000000
00000000
00000000
,
00000000
00000000
00000000
00000000
;
