
//----- song ID: suim -----//
#TITLE:すいみん不足;
#ARTIST:パーキッツ;
#TITLETRANSLIT:Suimin busoku;
#ARTISTTRANSLIT:Parquets;
#BANNER:Suimin busoku.png;
#BACKGROUND:Suimin busoku-bg.png;
#CDTITLE:./CDTitles/pnm 6.png;
#MUSIC:Suimin busoku.ogg;
#SAMPLESTART:63.791;
#SAMPLELENGTH:15;
#BPMS:0=142;
#STAGE:16;
#NOTES:
     dance-single:
     :
     Beginner:
     2:
     :
0000
0000
0000
0000
,
0000
0000
0000
0000
,
0000
0000
0000
0000
,
0000
0000
0000
0000
,
0000
0000
0000
0000
,
0000
0000
0000
0000
,
0000
0000
1000
0000
,
0000
0000
0000
0000
,
0000
0000
0001
0000
,
0000
0000
0000
0000
,
0000
0000
0000
0000
,
1000
0000
0000
0000
,
1000
0000
0000
0000
,
0001
0000
0000
0000
,
0010
0000
0000
0000
,
0100
0000
0000
0000
,
0100
0000
0000
0000
,
0010
0000
0000
0000
,
1000
0000
0000
0000
,
0100
0000
0100
0000
,
0100
0000
0000
0000
,
0001
0000
0000
0000
,
0001
0000
0000
0000
,
1000
0000
0000
0000
,
0010
0000
0100
0000
,
0010
0000
0000
0000
,
0010
0000
0000
0000
,
0100
0000
0000
0000
,
0110
0000
0000
0000
,
0001
0000
0000
0000
,
0001
0000
0000
0000
,
1000
0000
0000
0000
,
1000
0000
0000
0000
,
0001
0000
0000
0000
,
0001
0000
0000
0000
,
0100
0000
0000
0000
,
0200
0000
0000
0000
,
0300
0000
0000
0000
,
0001
0000
1000
0000
,
0001
0000
0000
0000
,
1000
0000
0001
0000
,
1000
0000
0000
0000
,
0010
0000
0100
0000
,
0010
0000
0000
0000
,
0100
0000
0010
0000
,
0100
0000
0000
0000
,
0001
0000
0001
0000
,
0001
0000
0000
0000
,
1000
0000
0001
0000
,
1000
0000
0000
0000
,
0001
0000
1000
0000
,
0001
0000
0000
0000
,
0010
0000
0100
0000
,
0010
0000
0000
0000
,
0100
0000
0010
0000
,
0100
0000
0000
0000
,
1000
0000
1000
0000
,
1000
0000
0000
0000
,
0000
0000
0000
0000
;
#NOTES:
     dance-single:
     :
     Easy:
     3:
     :
0000
0000
0000
0000
,
0000
0000
0000
0000
,
0000
0000
0000
0000
,
0000
0000
0000
0000
,
0000
0000
0000
0000
,
0000
0000
0000
0000
,
0000
0000
0001
0000
,
0000
0000
1000
0000
,
0000
0000
1001
0000
,
0000
0000
0002
0000
,
0000
0000
0000
0000
,
0103
0000
0000
0000
,
0010
0000
1000
0000
,
0010
0000
0000
0000
,
0110
0000
0000
0000
,
1000
0000
0000
0000
,
0001
0000
0100
0000
,
0001
0000
0000
0000
,
1001
0000
0000
0000
,
1000
0000
0100
0000
,
0010
0000
0010
0000
,
0001
0000
0000
0000
,
0100
0000
0010
0000
,
1000
0000
0000
0000
,
1001
0000
0000
0000
,
0001
0000
0000
0000
,
0010
0000
0001
0000
,
1000
0000
0000
0000
,
0110
0000
0000
0000
,
0001
0000
0100
0000
,
0002
0000
0000
0000
,
1003
0000
0010
0000
,
2000
0000
0000
0000
,
3010
0000
0100
0000
,
0020
0000
0000
0000
,
1030
0000
0001
0000
,
2000
0000
0000
0000
,
3000
0000
0000
0000
,
0001
0000
0010
0000
,
0001
0000
0001
0000
,
1000
0000
0010
0000
,
1000
0000
0000
0000
,
0010
0000
0100
0000
,
0001
0000
0001
0000
,
1000
0000
0001
0000
,
1001
0000
0000
0000
,
1000
0000
0010
0000
,
0100
0000
0100
0000
,
0001
0000
0100
0000
,
0010
0000
0010
0000
,
1000
0000
0001
0000
,
0010
0000
0000
0000
,
0001
0000
1000
0000
,
0100
0000
0100
0000
,
0010
0000
0100
0000
,
0110
0000
0000
0000
,
0001
0000
1000
0000
,
0001
0000
0001
1001
,
0000
0000
0000
0000
;
#NOTES:
     dance-single:
     :
     Medium:
     7:
     :
0000
0000
0000
0000
,
0000
0000
0000
0000
,
0000
0000
0000
0000
,
0000
0000
0000
0000
,
0000
0000
0000
0000
,
0000
0000
0000
0000
,
0000
0000
0100
0000
,
0000
0000
0010
0000
,
0000
0000
1001
0000
,
0000
0000
2000
0000
,
0000
3020
0000
0000
,
0130
0001
0100
0001
,
1000
0000
0010
0000
0100
0010
0100
0000
,
0001
0010
0100
1000
,
0001
1001
1001
0000
,
1000
0010
1000
0010
,
0100
0000
0001
0000
1000
0001
1000
0000
,
0100
0010
0001
1000
,
0010
0110
0110
0000
,
1000
0100
0010
0001
,
1000
0010
1000
0010
1000
0000
0000
0000
,
0001
0010
0001
0010
,
0100
0000
1000
0000
0001
1000
0001
0000
,
0100
0010
1000
0001
,
0100
0110
0110
0000
,
1000
0010
1000
0010
,
0100
0000
0001
1000
,
0001
1000
0100
0010
,
0001
1001
0110
0000
,
0001
0100
1000
0100
,
0020
1000
1030
0000
,
1000
0100
0001
0100
,
0020
0001
0031
0000
,
0001
0010
1000
0010
,
0200
1000
1300
0000
,
1000
0010
0001
0010
,
2000
0000
3002
0000
,
1003
0010
0100
0001
,
1000
0100
1000
0100
,
0010
0001
1000
0000
,
0110
0000
0001
1000
,
0001
0010
0100
1000
,
0001
0100
0001
0100
,
0010
1000
0001
1000
,
0010
0000
0100
0000
,
0110
1001
0000
0000
,
1000
0100
0010
0001
,
1000
0010
1000
0010
1000
0000
0000
0000
,
0001
0100
0001
0100
,
0010
1000
0001
0000
,
0110
0000
1000
0001
,
1000
0100
0010
0001
,
1000
0010
1000
0010
,
0100
0001
1000
0001
,
0010
0000
0100
0000
,
0110
1001
0000
0000
,
0001
0010
0100
1000
,
0001
0100
0001
0100
0001
0000
1001
0000
,
0000
0000
0000
0000
;
#NOTES:
     dance-single:
     :
     Hard:
     10:
     :
0000
0000
0000
0000
,
0000
0000
0000
0000
,
0000
0000
0000
0000
,
0000
0000
0000
0000
,
0000
0000
0000
0000
,
0000
0000
0000
0000
,
0000
0000
1000
1000
,
1000
1000
0001
0001
,
0001
0001
1001
0000
,
0000
0000
2000
0000
,
0000
3200
0000
0000
,
0310
0000
0001
0010
0001
0000
1000
0010
,
0100
0000
0010
0000
1000
0100
0010
0000
,
0001
0100
0001
0100
0001
1000
0100
1000
,
0010
0000
0100
0010
0100
0000
0001
0010
,
0100
0000
1000
0000
0001
0000
1000
0010
,
1000
0001
0010
0100
1000
0000
0001
0000
,
1000
0010
1000
0010
0100
0001
1000
0100
,
1000
0010
0010
0010
0010
0000
0110
0000
,
0001
0100
0010
0100
0001
0100
0010
0100
,
0001
0010
0100
1000
0001
0000
0100
0001
,
0100
0000
0010
1000
0010
0000
1000
0001
,
0010
0000
0001
0000
0100
0010
1000
0000
,
0001
0010
0001
0010
0001
0100
0010
1000
,
0010
0100
0010
0100
0010
0000
1000
0100
,
0010
0000
0001
0100
0001
0000
1000
0100
,
1000
0000
0000
0001
0010
0100
1000
0000
,
0001
0100
0001
0100
0001
0000
1000
0001
,
0010
0100
0100
0100
0100
0000
0010
0000
,
0011
0101
1100
1010
,
0001
0100
1000
0100
0001
0000
1000
0000
,
1100
0101
0011
1010
,
1000
0100
0001
0100
1000
0000
0001
0000
,
0101
0011
1010
1100
,
0001
0010
1000
0010
0001
0000
1000
0000
,
1010
0011
0101
1100
,
1000
0010
1000
0010
0100
0001
0100
0001
,
1000
0100
0010
0001
1000
0100
1000
0001
,
0100
0000
0010
0100
0010
0000
1000
0100
,
0010
0001
0010
0001
0010
0000
0001
0100
,
0001
0000
0000
1000
0010
0100
0001
1000
,
0010
1000
0010
1000
0001
0100
0001
0010
,
0100
0000
1000
0000
0001
0000
1000
0100
,
1000
0100
0010
0001
1000
0010
0100
0000
,
0010
0100
0010
1000
0001
0010
0001
1000
,
0010
0010
0010
0010
0000
1000
0001
0000
,
1000
0100
0010
0100
1000
0100
0010
0100
,
1000
0010
0100
0001
1000
0000
0001
0100
,
0010
0000
1000
0100
1000
0000
0001
0010
,
0100
1000
0100
1000
0100
0000
1000
0010
,
1000
0000
0000
0001
0010
0100
1000
0001
,
0010
0001
0010
0001
1000
0010
1000
0100
,
0010
0000
0001
0000
1000
0000
0001
0010
,
0001
0100
0010
1000
0001
1000
0100
0000
,
0010
0100
0010
0001
1000
0010
1000
0001
,
0100
0100
0100
0100
0000
0001
1000
0000
,
0001
0010
0100
0010
0001
0010
0100
0010
,
0001
0100
0010
1000
0001
0000
0110
0000
,
0000
0000
0000
0000
;
#NOTES:
     dance-double:
     :
     Easy:
     3:
     :
00000000
00000000
00000000
00000000
,
00000000
00000000
00000000
00000000
,
00000000
00000000
00000000
00000000
,
00000000
00000000
00000000
00000000
,
00000000
00000000
00000000
00000000
,
00000000
00000000
00000000
00000000
,
00000000
00000000
00000001
00000000
,
00000000
00000000
00001000
00000000
,
00000000
00000000
00001001
00000000
,
00000000
00000000
00002000
00000000
,
00000000
00000000
00000000
00000000
,
00003100
00000000
00010000
00000000
,
00001000
00000000
00010000
00000000
,
00001000
00000000
00100000
00000000
,
00010000
00000000
00000000
00000000
,
10000000
00000000
01000000
00000000
,
10000000
00000000
01000000
00000000
,
00100000
00000000
00010000
00000000
,
00100000
00000000
00000000
00000000
,
00001000
00000000
00010000
00000000
,
00001000
00000000
00010000
00000000
,
00000010
00000000
00001000
00000000
,
00000010
00000000
00001000
00000000
,
00000100
00000000
00000010
00000000
,
00000001
00000000
00000000
00000000
,
00001000
00000000
00000010
00000000
,
00010000
00000000
00001000
00000000
,
00010000
00000000
00001000
00000000
,
01000000
00000000
00000000
00000000
,
00010000
00000000
10000000
00000000
,
00200000
00000000
00000000
00000000
,
01300000
00000000
00001000
00000000
,
00020000
00000000
00000000
00000000
,
00030010
00000000
00001000
00000000
,
00000002
00000000
00000000
00000000
,
00000013
00000000
00000100
00000000
,
00002000
00000000
00000000
00000000
,
00003000
00000000
00000000
00000000
,
00000001
00000000
00000100
00000000
,
00000001
00000000
00000000
00000000
,
00001000
00000000
00000100
00000000
,
00001000
00000000
00000000
00000000
,
00000100
00000000
00010000
00000000
,
00001000
00000000
00000000
00000000
,
00010000
00000000
00001000
00000000
,
00011000
00000000
00000000
00000000
,
00001000
00000000
00001000
00000000
,
00100000
00000000
00100000
00000000
,
00010000
00000000
10000000
00000000
,
00010000
00000000
00000000
00000000
,
00100000
00000000
00001000
00000000
,
00100000
00000000
00000000
00000000
,
00001000
00000000
00010000
00000000
,
00000100
00000000
00000000
00000000
,
00001000
00000000
00000001
00000000
,
00001001
00000000
00000000
00000000
,
00001000
00000000
00000010
00000000
,
00010000
00000000
00001000
00011000
,
00000000
00000000
00000000
00000000
;
#NOTES:
     dance-double:
     :
     Medium:
     6:
     :
00000000
00000000
00000000
00000000
,
00000000
00000000
00000000
00000000
,
00000000
00000000
00000000
00000000
,
00000000
00000000
00000000
00000000
,
00000000
00000000
00000000
00000000
,
00000000
00000000
00000000
00000000
,
00000000
00000000
10000000
00000000
,
00000000
00000000
00010000
00000000
,
00000000
00000000
01100000
00000000
,
00000000
00000000
20000000
00000000
,
00000000
30020000
00000000
00000000
,
00130000
00001000
00010000
00001000
,
00010000
00000100
00001000
00001000
,
00000001
00000010
00000100
00001000
,
00000100
00010000
00011000
00000000
,
00001000
00100000
00010000
00100000
,
01000000
10000000
00100000
00100000
,
10000000
01000000
00100000
00010000
,
00100000
00001000
00011000
00000000
,
00010000
00001000
00010000
00000100
,
00001000
00000001
00001000
00000000
,
00000010
00010000
00001000
00010000
,
00001000
00100000
00010000
00010000
,
10000000
01000000
00100000
00010000
,
00100000
00001000
00011000
00000000
,
00010000
00000100
00001000
00000100
,
00001000
00000000
00000001
00001000
,
00000001
00000010
00000100
00001000
,
00000100
00010000
00011000
00000000
,
00001000
00010000
01000000
10000000
,
00020000
00000000
10030000
00000000
,
10000000
00100000
00010000
00001000
,
00020000
00000000
00031000
00000000
,
00010000
00001000
00000100
00000001
,
00002000
00000000
00003001
00000000
,
00000001
00000010
00001000
00010000
,
00002000
00000000
00023000
00000000
,
00031000
01000000
00010000
00100000
,
01000000
10000000
01000000
10000000
,
00010000
00100000
00001000
00000000
,
00010000
00000000
00000010
00001000
,
00000001
00001000
00000100
00000010
,
00000001
00000100
00000001
00001000
,
00000100
00010000
00001000
01000000
,
00010000
00000000
10000000
00000000
,
01100000
10010000
00000000
00000000
,
10000000
01000000
10000000
01000000
,
00010000
00001000
00010000
00000000
,
00000100
00001000
00000100
00001000
,
00000001
00000010
00000100
00000000
,
00010000
00000000
00001000
00100000
,
00010000
10000000
01000000
00100000
,
00010000
00100000
00001000
00010000
,
00001000
00010000
00000100
00001000
,
00000001
00000000
00001000
00000000
,
00000110
00001001
00000000
00000000
,
00000001
00000100
00001000
00010000
,
00001000
00010000
00001000
00011000
,
00000000
00000000
00000000
00000000
;
#NOTES:
     dance-double:
     :
     Hard:
     10:
     :
00000000
00000000
00000000
00000000
,
00000000
00000000
00000000
00000000
,
00000000
00000000
00000000
00000000
,
00000000
00000000
00000000
00000000
,
00000000
00000000
00000000
00000000
,
00000000
00000000
00000000
00000000
,
00000000
00000000
00000001
00000001
,
00000001
00000001
00001000
00001000
,
00001000
00001000
00001001
00000000
,
00000000
00000000
00000002
00000000
,
00000000
00000203
00000000
00000000
,
00001300
00000000
00010000
00001000
00010000
00000000
00001000
00100000
,
00010000
00000000
10000000
00000000
00100000
01000000
00100000
00000000
,
10000000
01000000
10000000
01000000
00100000
00010000
00100000
00001000
,
00010000
00000000
00000100
00001000
00000100
00000000
00001000
00000100
,
00000010
00000000
00000001
00000000
00001000
00000000
00000010
00001000
,
00000001
00000010
00000100
00001000
00000100
00000000
00010000
00000000
,
00001000
01000000
00010000
01000000
00010000
10000000
00100000
01000000
,
00100000
10000000
10000000
10000000
10000000
00000000
10100000
00000000
,
00010000
01000000
00001000
01000000
00001000
00010000
00000010
00010000
,
00000010
00001000
00000100
00000010
00000001
00000000
00001000
00000010
,
00001000
00000000
00000100
00010000
00000100
00000000
00010000
00001000
,
00100000
00000000
00010000
00000000
01000000
00100000
01000000
00000000
,
00010000
10000000
00010000
10000000
00010000
00100000
00001000
00100000
,
00001000
00010000
00001000
00010000
00001000
00000000
00010000
00000100
,
00001000
00000000
00000001
00000010
00000001
00000000
00001000
00000010
,
00001000
00000000
00000000
00000010
00010000
00001000
00010000
00000000
,
00001000
01000000
00001000
01000000
00010000
00000000
10000000
01000000
,
00100000
00010000
00010000
00010000
00010000
00000000
00100000
00000000
,
00101000
00011000
00010010
00001010
,
00001000
00000100
00000001
00000100
00001000
00000000
00000100
00000000
,
00010100
00011000
01001000
01010000
,
00010000
00100000
10000000
00100000
00010000
00000000
00100000
00000000
,
00101000
00011000
00010100
00001100
,
00001000
00000010
00000001
00000010
00001000
00000000
00000010
00000000
,
00010010
00011000
01001000
01010000
,
10000000
00100000
10000000
00100000
10000000
00000000
00010000
00000000
,
00100000
00001000
00010000
00001000
00010000
00000100
00001000
00000001
,
00000100
00000000
00000001
00000010
00000001
00000000
00001000
00000010
,
00010000
00001000
00010000
00001000
00010000
00000000
00001000
00100000
,
00001000
00000000
00000000
00100000
00010000
10000000
01000000
00100000
,
00010000
00100000
00010000
00100000
00001000
00010000
00000010
00001000
,
00000001
00000000
00000100
00000000
00000001
00000000
00001000
00000100
,
00010000
00001000
00010000
00001000
00100000
00010000
10000000
00000000
,
00100000
01000000
00100000
10000000
01000000
00100000
00010000
00100000
,
00001000
00001000
00001000
00001000
00000000
00010000
00001000
00000000
,
00010000
00000010
00001000
00000010
00001000
00000001
00000100
00000001
,
00001000
00000100
00010000
00001000
01000000
00000000
00010000
10000000
,
00100000
00000000
10000000
01000000
10000000
00000000
00010000
00100000
,
00001000
00010000
00001000
00010000
00001000
00000000
00010000
00000100
,
00010000
00000000
00000000
00000010
00001000
00000001
00000010
00000100
,
00001000
00000100
00001000
00000100
00010000
00001000
00100000
00010000
,
10000000
00000000
01000000
00000000
10000000
00000000
00010000
00100000
,
00001000
00010000
00001000
00010000
00000010
00001000
00000001
00000000
,
00000010
00000100
00000010
00000001
00001000
00000100
00001000
00000010
,
00010000
00010000
00010000
00010000
00000000
00001000
00010000
00000000
,
00001000
00100000
00010000
00100000
00010000
10000000
01000000
00010000
,
00001000
00010000
00000010
00001000
00000100
00000000
00001001
00000000
,
00000000
00000000
00000000
00000000
;
