
//----- song ID: akue -----//
#TITLE:創聖のアクエリオン;
#TITLETRANSLIT:Sousei no Aquarion;
#BANNER:Sousei no Aquarion.png;
#BACKGROUND:Sousei no Aquarion-bg.png;
#CDTITLE:./CDTitles/pnm 16 PARTY.png;
#MUSIC:Sousei no Aquarion.ogg;
#SAMPLESTART:57.194;
#SAMPLELENGTH:15;
#DISPLAYBPM:61:151;
#BPMS:0=151.038,4=150.999,224=136.674,225=133.333,226=131.004,227=126.05,228=108.108,229=103.986,230=75.949,231=61.009;
#STAGE:1;
#NOTES:
     dance-single:
     :
     Beginner:
     1:
     :
0000
0000
0000
0000
,
0000
0000
0000
0000
,
0000
0000
0000
0000
,
0000
0000
0000
0000
,
0000
0000
0000
0000
,
0000
0000
0000
0000
,
0100
0000
0000
0000
,
0000
0000
0000
0000
,
0010
0000
0000
0000
,
0000
0000
0000
0000
,
1000
0000
0000
0000
,
1000
0000
0000
0000
,
0001
0000
0000
0000
,
0001
0000
0000
0000
,
0010
0000
0000
0000
,
0000
0000
0000
0000
,
0100
0000
0000
0000
,
1000
0000
0000
0000
,
0001
0000
0000
0000
,
0100
0000
0000
0000
,
0001
0000
0000
0000
,
0000
0000
0000
0000
,
1000
0000
0000
0000
,
0010
0000
0000
0000
,
1000
0000
0000
0000
,
0000
0000
0000
0000
,
0100
0000
0000
0000
,
0010
0000
0000
0000
,
0100
0000
0000
0000
,
0000
0000
0000
0000
,
1000
0000
0000
0000
,
0001
0000
0000
0000
,
1000
0000
0000
0000
,
0001
0000
0000
0000
,
0010
0000
0000
0000
,
0000
0000
0000
0000
,
0100
0000
0000
0000
,
0100
0000
0000
0000
,
1000
0000
0001
0000
,
1000
0000
0000
0000
,
0010
0000
0000
0000
,
1000
0000
0000
0000
,
0001
0000
0000
0000
,
0100
0000
0000
0000
,
0010
0000
0000
0000
,
0010
0000
0000
0000
,
1000
0000
0001
0000
,
1000
0000
0000
0000
,
0100
0000
0000
0000
,
1000
0000
0000
0000
,
0001
0000
0000
0000
,
0010
0000
0000
0000
,
0100
0000
0000
0000
,
0000
0000
0000
0000
,
0100
0000
0000
0000
,
0000
0000
0000
0000
;
#NOTES:
     dance-single:
     :
     Easy:
     4:
     :
0000
0000
0000
0000
,
0000
0000
0000
0000
,
0000
0000
0000
0000
,
0000
0000
0000
0000
,
0000
0000
0000
0000
,
0000
0000
0000
0000
,
0001
0000
0000
0000
,
1000
0000
0000
0000
,
0010
0000
0000
0000
,
0100
0000
0000
0000
,
0001
0000
0010
0000
,
0100
0000
0000
0000
,
0010
0000
0100
0000
,
1000
0000
0000
0000
,
1000
0000
0010
0000
,
0100
0000
0000
0000
,
0010
0000
0100
0000
,
0001
0000
0000
0000
,
1000
0000
0010
0000
,
1000
0000
0001
0000
,
0020
0000
0000
0000
,
0030
0000
0000
0000
,
0001
0000
0010
0000
,
0001
0000
1000
0000
,
0020
0000
0000
0000
,
0230
0000
0000
0000
,
0301
0000
1000
0000
,
0100
0000
0010
0000
,
0002
0000
0000
0000
,
0003
0000
0000
0000
,
1000
0000
0000
0000
,
0001
0000
0000
0000
,
0100
0000
0010
0000
,
0100
0000
0100
0000
,
0002
0000
0000
0000
,
2003
0000
3010
0000
,
1000
0000
0001
0000
,
0100
0000
0010
0000
,
1000
0100
0010
0001
,
2000
0000
0000
0000
,
3010
0000
0100
0000
,
0001
0000
1000
0000
,
0020
0000
0000
0000
,
0230
0000
0000
0000
,
0301
0000
1000
0000
,
0010
0000
0100
0000
,
0001
0010
0100
1000
,
0002
0000
0000
0000
,
0103
0000
0010
0000
,
1000
0000
0001
0000
,
0010
0000
0010
0000
,
0100
0000
0100
0000
,
2000
0000
0000
0000
,
3000
0000
0000
0000
,
0002
0000
0000
0000
,
0003
0000
0000
0000
,
0200
0000
0000
0000
,
0000
0000
0000
0000
,
0302
0000
0000
0000
,
0003
0000
0000
0000
,
0000
0000
0000
0000
;
#NOTES:
     dance-single:
     :
     Medium:
     7:
     :
0000
0000
0000
0000
,
0000
0000
0000
0000
,
0000
0000
0000
0000
,
0000
0000
0000
0000
,
0000
0000
0000
0000
,
0000
0000
0000
0000
,
0100
0000
0000
0000
,
0100
0000
0000
0000
,
0010
0000
0000
0000
,
0010
0000
0000
0000
,
1000
0000
0100
0000
,
0010
0000
0001
0000
,
1000
0000
0010
0000
,
0100
0000
0001
0000
,
1000
0000
0100
0000
,
1000
0000
0001
0000
,
0200
0000
0000
0000
,
0310
0000
0000
0000
,
1000
0010
0100
0010
,
1000
0001
0010
0100
,
0020
0000
0000
0000
,
0230
0000
2300
0000
,
3001
0100
0010
0100
,
0001
1000
0100
0010
,
0200
0000
2300
0000
,
3001
0010
0100
1000
,
0001
0100
0001
1000
,
0100
1000
0010
0100
,
0002
0000
0000
0000
,
0023
0000
0230
0000
,
1300
0010
1000
0010
,
0100
0001
0100
0001
,
1000
0100
0010
0100
,
1000
0010
0100
0001
,
0010
0100
0010
0100
,
1000
0001
0100
0000
,
0001
0000
1000
0010
1000
0000
0001
0010
,
0001
0000
1000
0100
1000
0000
0001
0100
,
0002
0203
2300
3200
,
0302
0000
0000
0000
,
1003
0010
0100
0001
,
0010
0100
1000
0001
,
0100
0100
0100
0100
,
0020
0000
2030
0000
,
3001
0000
1000
0100
1000
0000
0001
0100
,
0001
0000
1000
0010
1000
0000
0001
0010
,
0002
0023
2030
3020
,
0032
0000
0000
0000
,
1003
0100
0010
0001
,
1000
0000
0010
0100
0010
0000
1000
0001
,
1000
0000
0100
0010
0100
0000
1000
0001
,
0200
0320
2030
3002
,
0203
0000
0000
0000
,
0302
0000
0023
0000
,
0230
0000
0000
0000
,
2300
0000
0000
0000
,
3020
0000
0000
0000
,
0230
0000
0000
0000
,
0302
0000
0000
0000
,
0003
0000
0000
0000
,
0000
0000
0000
0000
;
#NOTES:
     dance-single:
     :
     Hard:
     11:
     :
0000
0000
0000
0000
,
0000
0000
0000
0000
,
0000
0000
0000
0000
,
0000
0000
0000
0000
,
0000
0000
0000
0000
,
0000
0000
0000
0000
,
0002
0000
0000
0000
,
0200
0000
0003
0000
,
0020
0000
0300
0000
,
2030
0000
3200
0000
,
0310
0000
0001
0100
0000
0100
0010
0000
,
2000
0000
3002
0000
,
1003
0000
0100
0010
0000
0010
0100
0000
,
2000
0000
0000
0000
3002
0000
0000
0103
,
0010
0100
0010
0200
0000
0320
0000
2030
,
0000
0001
3001
0000
0100
0000
0010
1000
,
0001
0010
0100
0020
0000
0000
0030
0000
,
1001
0000
0000
0000
,
1000
0000
0001
0100
0010
0000
1000
0100
,
0010
0000
0001
0010
1000
0010
0100
1000
,
0002
0000
0000
0000
,
1003
0000
0010
0100
0001
0000
1001
0000
,
1000
0000
0001
0010
0100
0000
1000
0010
,
0100
0000
0001
0100
1000
0100
0010
0200
,
0000
0000
0302
0000
0013
0100
1000
0020
,
0000
0230
2300
3200
,
0301
0000
1000
0010
0100
0000
0001
0010
,
0100
0000
1000
0100
0001
0100
0010
0001
,
2000
0000
0000
0000
,
3001
0000
0010
0000
0100
1000
0010
0100
,
0001
0000
0001
0010
0100
0010
0001
0100
,
0000
0100
0010
1000
0010
0100
0001
1000
,
0100
0001
0100
1000
0000
1000
0020
0000
,
0130
0000
0001
0000
0001
0010
0100
1000
,
0000
1000
0010
0100
0001
0010
0100
1000
,
0001
0010
0100
1000
0001
0011
0000
0000
,
0001
0010
1000
0000
0011
0000
1000
0010
,
0110
0000
0001
0010
0110
0000
0100
1000
,
1010
1100
0101
0011
,
0210
1000
0001
1300
,
1000
0100
0010
0100
0001
0000
0001
0100
,
0010
0000
0010
0001
1000
0000
1000
0010
,
0100
0010
0100
0010
0100
0010
1000
0001
,
0020
0000
0000
0000
0031
0100
0010
0000
,
1000
0010
0001
0000
1010
0000
0001
0010
,
0110
0000
1000
0010
0110
0000
0100
0001
,
0011
0101
1100
1010
,
0120
1000
0001
1030
,
1000
0100
0010
0001
0000
1000
0200
0000
,
0302
0000
0103
1000
0020
0000
0031
1000
,
0200
0000
0301
1000
0200
0000
0301
1000
,
0020
0000
0230
0000
1300
0001
0100
1000
,
0200
0000
0000
0000
,
0000
0000
0302
0000
,
0023
0000
0000
0000
,
0200
0000
0030
0000
,
2000
0000
0300
0000
,
0020
0000
3000
0000
,
0200
0000
0000
0000
,
0330
0000
0000
0000
,
0000
0000
0000
0000
;
#NOTES:
     dance-double:
     :
     Easy:
     4:
     :
00000000
00000000
00000000
00000000
,
00000000
00000000
00000000
00000000
,
00000000
00000000
00000000
00000000
,
00000000
00000000
00000000
00000000
,
00000000
00000000
00000000
00000000
,
00000000
00000000
00000000
00000000
,
00010000
00000000
00000000
00000000
,
00001000
00000000
00000000
00000000
,
00000010
00000000
00000000
00000000
,
00000001
00000000
00000000
00000000
,
00001000
00000000
00000100
00000000
,
00010000
00000000
00000000
00000000
,
00001000
00000000
01000000
00000000
,
00010000
00000000
00000000
00000000
,
10000000
00000000
01000000
00000000
,
00100000
00000000
00000000
00000000
,
01000000
00000000
00100000
00000000
,
00010000
00000000
00000000
00000000
,
00100000
00000000
00001000
00000000
,
00010000
00000000
00001000
00000000
,
00020000
00000000
00000000
00000000
,
00030000
00000000
00000000
00000000
,
00000100
00000000
00001000
00000000
,
00000001
00000000
00000010
00000000
,
00000200
00000000
00000000
00000000
,
00002300
00000000
00000000
00000000
,
00003100
00000000
00010000
00000000
,
00001000
00000000
00100000
00000000
,
02000000
00000000
00000000
00000000
,
03000000
00000000
00000000
00000000
,
10000000
00000000
00000000
00000000
,
00010000
00000000
00000000
00000000
,
00100000
00000000
00001000
00000000
,
00010000
00000000
00010000
00000000
,
00002000
00000000
00000000
00000000
,
00023000
00000000
00030100
00000000
,
00001000
00000000
00000001
00000000
,
00000010
00000000
00000100
00000000
,
00001000
00000100
00010000
00001000
,
00200000
00000000
00000000
00000000
,
00310000
00000000
10000000
00000000
,
01000000
00000000
00100000
00000000
,
00002000
00000000
00000000
00000000
,
00203000
00000000
00000000
00000000
,
00310000
00000000
10000000
00000000
,
01000000
00000000
00100000
00000000
,
00010000
00100000
00001000
00010000
,
00000200
00000000
00000000
00000000
,
00001300
00000000
00000001
00000000
,
00000100
00000000
00000010
00000000
,
00001000
00000000
00001000
00000000
,
00000100
00000000
00000100
00000000
,
00020000
00000000
00000000
00000000
,
00030000
00000000
00000000
00000000
,
00002000
00000000
00000000
00000000
,
00003000
00000000
00000000
00000000
,
00200000
00000000
00000000
00000000
,
00000000
00000000
00000000
00000000
,
02300000
00000000
00000000
00000000
,
03000000
00000000
00000000
00000000
,
00000000
00000000
00000000
00000000
;
#NOTES:
     dance-double:
     :
     Medium:
     7:
     :
00000000
00000000
00000000
00000000
,
00000000
00000000
00000000
00000000
,
00000000
00000000
00000000
00000000
,
00000000
00000000
00000000
00000000
,
00000000
00000000
00000000
00000000
,
00000000
00000000
00000000
00000000
,
00001000
00000000
00000000
00000000
,
00001000
00000000
00000000
00000000
,
00010000
00000000
00000000
00000000
,
00010000
00000000
00000000
00000000
,
00001000
00000000
00100000
00000000
,
00010000
00000000
10000000
00000000
,
00100000
00000000
01000000
00000000
,
00010000
00000000
00100000
00000000
,
00001000
00000000
00010000
00000000
,
00000100
00000000
00000010
00000000
,
00000002
00000000
00000000
00000000
,
00001003
00000000
00000000
00000000
,
00000001
00001000
00000010
00010000
,
00001000
00100000
00010000
10000000
,
00020000
00000000
00000000
00000000
,
00230000
00000000
02300000
00000000
,
13000000
00010000
00100000
00001000
,
00010000
00000010
00001000
00000001
,
00002000
00000000
00000000
00000000
,
00003010
00000100
00000001
00001000
,
00000100
00000010
00000001
00001000
,
00000100
00010000
00001000
00100000
,
00020000
00000000
00000000
00000000
,
20030000
00000000
32000000
00000000
,
03100000
00010000
00100000
00001000
,
00010000
00001000
00010000
00000100
,
00001000
00000010
00000100
00000001
,
00000010
00000100
00001000
00000100
,
00010000
00001000
00010000
00001000
,
00100000
00010000
10000000
00000000
,
00010000
00000000
00100000
00010000
00100000
00000000
00001000
00010000
,
00001000
00000000
00100000
00010000
00100000
00000000
01000000
10000000
,
02000000
03020000
00032000
00003020
,
00000032
00000000
00000000
00000000
,
00001003
00000100
00010000
00001000
,
00100000
00010000
10000000
01000000
,
00100000
00001000
00001000
00001000
,
00020000
00000000
00030200
00000000
,
00001300
00000000
00000010
00001000
00000010
00000000
00010000
00001000
,
00010000
00000000
00000010
00001000
00000010
00000000
00000100
00000001
,
00000200
00002300
00023000
00230000
,
20300000
00000000
00000000
00000000
,
30010000
00100000
01000000
10000000
,
00100000
00000000
01000000
00010000
01000000
00000000
00001000
00010000
,
00001000
00000000
00010000
00000100
00010000
00000000
00000100
00001000
,
00000200
00000320
00000032
00002003
,
00003020
00000000
00000000
00000000
,
00002030
00000000
00003200
00000000
,
00020300
00000000
00000000
00000000
,
00032000
00000000
00000000
00000000
,
00203000
00000000
00000000
00000000
,
00320000
00000000
00000000
00000000
,
02030000
00000000
00000000
00000000
,
03000000
00000000
00000000
00000000
,
00000000
00000000
00000000
00000000
;
#NOTES:
     dance-double:
     :
     Hard:
     11:
     :
00000000
00000000
00000000
00000000
,
00000000
00000000
00000000
00000000
,
00000000
00000000
00000000
00000000
,
00000000
00000000
00000000
00000000
,
00000000
00000000
00000000
00000000
,
00000000
00000000
00000000
00000000
,
00020000
00000000
00000000
00000000
,
00002000
00000000
00030000
00000000
,
00000020
00000000
00003000
00000000
,
00000032
00000000
00002003
00000000
,
00003010
00000000
00000100
00000001
00000000
00000001
00000010
00000000
,
00000200
00000000
00020300
00000000
,
00031000
00000000
00100000
00010000
00000000
00010000
01000000
00000000
,
00200000
00000000
00000000
00000000
20300000
00000000
00000000
30010000
,
01000000
00100000
01000000
00020000
00000000
00230000
00000000
00302000
,
00000000
00010000
00013000
00000000
00000100
00000000
00001000
00000100
,
00000010
00000001
00000100
00000020
00000000
00000000
00000030
00000000
,
00001001
00000000
00000000
00000000
,
00001000
00000000
00000001
00000100
00000010
00000000
00000100
00001000
,
00010000
00000000
00100000
01000000
10000000
01000000
00100000
00010000
,
00200000
00000000
00000000
00000000
,
10300000
00010000
00100000
10010000
,
10000000
00000000
10000000
01000000
00100000
00000000
01000000
00010000
,
00001000
00000000
00000010
00000100
00000001
00000100
00000010
00002000
,
00000000
00000000
00023000
00000000
01030000
00100000
10000000
00200000
,
00000000
00320000
02030000
03200000
,
10300000
00000000
01000000
00100000
00010000
00000000
00100000
00010000
,
00001000
00000000
00000100
00000010
00000001
00000100
00000010
00000100
,
00000002
00000000
00000000
00000000
,
00000103
00000000
00000010
00000000
00001000
00000100
00000010
00000100
,
00001000
00000000
00001000
00000100
00001000
00010000
00100000
01000000
,
00000000
01000000
10000000
00100000
00010000
00100000
01000000
00100000
,
00010000
00001000
00000100
00000010
00000000
00000010
00000200
00000000
,
00000301
00000000
00001000
00000000
00000010
00000100
00000001
00000010
,
00000000
00000010
00000001
00001000
00000010
00000100
00001000
00010000
,
00001000
00010000
00100000
01000000
00010000
10000000
00000000
00000000
,
10000000
01000000
00010000
10000000
00100000
00000000
00010000
00001000
,
00000100
00000000
00000001
00000100
00001000
00000000
00000100
00000010
,
00000011
00001100
00011000
00110000
,
21000000
00100000
01000000
30100000
,
00100000
01000000
10000000
01000000
00010000
00000000
00010000
00100000
,
00001000
00000000
00001000
00010000
00000100
00000000
00000100
00001000
,
00000100
00000001
00000100
00001000
00000100
00000001
00000100
00001000
,
00000020
00000000
00000000
00000000
00000130
00000001
00000010
00000000
,
00000001
00000100
00001000
00000001
00000010
00000000
00001000
00010000
,
01000000
00000000
10000000
01000000
00010000
00000000
01000000
00100000
,
10100000
01010000
00011000
00001010
,
00000102
00000010
00000100
00000013
,
00000010
00000100
00000001
00000100
00000000
00000100
00002000
00000000
,
00023000
00000000
00130000
01000000
20000000
00000000
30100000
00010000
,
00002000
00000000
00003100
00000001
00000020
00000000
00000130
00001000
,
00020000
00000000
00230000
00000000
01300000
10000000
01000000
00010000
,
00002000
00000000
00000000
00000000
,
00000000
00000000
00023000
00000000
,
00030200
00000000
00000000
00000000
,
00002000
00000000
00000300
00000000
,
00000002
00000000
00003000
00000000
,
00000020
00000000
00000003
00000000
,
00000200
00000000
00000000
00000000
,
00000330
00000000
00000000
00000000
,
00000000
00000000
00000000
00000000
;
