#TITLE:空色デイズ;
#TITLETRANSLIT:Sorairo days;
#BANNER:Sorairo days.png;
#BACKGROUND:Sorairo days-bg.png;
#CDTITLE:./CDTitles/jubeat ripples.png;
#MUSIC:Sorairo days.ogg;
#SAMPLESTART:49.31;
#SAMPLELENGTH:15;
#BPMS:0=174;
#BGSTAGE:16;

//---------------dance-single - ----------------
#NOTES:
     dance-single:
     :
     Beginner:
     1:
     :
0000
0000
0000
0000
,
0000
0000
0000
0000
,
0000
0000
0000
0000
,
0000
0000
0000
0000
,
0000
0000
0000
0000
,
0001
0000
0000
0000
,
0000
0000
0000
0000
,
0010
0000
0000
0000
,
0000
0000
0000
0000
,
0100
0000
0000
0000
,
0000
0000
0000
0000
,
0000
0000
0000
0000
,
1000
0000
0000
0000
,
0000
0000
0000
0000
,
1000
0000
0000
0000
,
0000
0000
0000
0000
,
0100
0000
0000
0000
,
0000
0000
0000
0000
,
0010
0000
0000
0000
,
0000
0000
0000
0000
,
0001
0000
0000
0000
,
0000
0000
0000
0000
,
0001
0000
0000
0000
,
0000
0000
0000
0000
,
0100
0000
0000
0000
,
0000
0000
0000
0000
,
0100
0000
0000
0000
,
0000
0000
0000
0000
,
0010
0000
0000
0000
,
0000
0000
0000
0000
,
0010
0000
0000
0000
,
0000
0000
0000
0000
,
0100
0000
0000
0000
,
0000
0000
0000
0000
,
0100
0000
0000
0000
,
0000
0000
0000
0000
,
1000
0000
0000
0000
,
0000
0000
0000
0000
,
0100
0000
0000
0000
,
0000
0000
0000
0000
,
1000
0000
0000
0000
,
0010
0000
0000
0000
,
1000
0000
0000
0000
,
0000
0000
0000
0000
,
0001
0000
0000
0000
,
0000
0000
0000
0000
,
0100
0000
0000
0000
,
0000
0000
0000
0000
,
0001
0000
0000
0000
,
0010
0000
0000
0000
,
0001
0000
0000
0000
,
0000
0000
0000
0000
,
0001
0000
0000
0000
,
0000
0000
0000
0000
,
0100
0000
0000
0000
,
0000
0000
0000
0000
,
1000
0000
0000
0000
,
0000
0000
0000
0000
,
0000
0000
0000
0000
,
0000
0000
0000
0000
,
0010
0000
0000
0000
,
0000
0000
0000
0000
,
0010
0000
0000
0000
,
0000
0000
0000
0000
,
0100
0000
0000
0000
,
0100
0000
0000
0000
;

//---------------dance-single - ----------------
#NOTES:
     dance-single:
     :
     Easy:
     5:
     :
0000
0000
0000
0000
,
0000
0000
0000
0000
,
0000
0000
0000
0000
,
0000
0000
0000
0000
,
0000
0000
0000
0000
,
0001
0000
0010
0000
,
0001
0000
0000
0000
,
1000
0000
0010
0000
,
1000
0000
0000
0000
,
0001
0100
0001
0000
,
1000
0000
0000
1001
0000
0000
0000
0000
,
0000
0000
0000
0000
,
0002
0000
0000
0000
,
0003
0000
0000
0000
,
2000
0000
0000
0000
,
3000
0000
0000
0000
,
0020
0000
0000
0000
,
0030
0000
0000
0000
,
0100
0000
0000
0100
0000
0000
0100
0000
,
0000
0000
1001
0000
,
1000
0010
1000
0000
,
0001
0100
0001
0000
,
1000
0000
0010
0000
,
0100
0001
1000
0000
,
0001
0010
0001
0000
,
1000
0100
1000
0000
,
0001
1000
0001
1000
,
0001
0000
1001
0000
,
1000
1000
0010
0000
,
0001
0001
0010
0000
,
1001
0000
0110
0000
,
1001
0000
0000
0000
,
0001
0001
0100
0000
,
1000
1000
0100
0000
,
1001
0000
0110
0000
,
1001
0000
0000
0000
,
1000
0100
1000
0100
,
0020
0000
0000
0030
,
0001
0100
0010
0100
,
0002
0000
0000
0003
,
1000
0010
0100
0000
,
0001
0010
0100
0000
,
0110
0000
0110
0000
,
2002
0000
0000
3003
,
0001
0010
0001
0010
,
0200
0000
0000
0300
,
1000
0010
0100
0010
,
2000
0000
0000
3000
,
0001
0100
0010
0000
,
1000
0100
0010
0000
,
0110
0000
0110
0000
,
2002
0000
0000
3003
,
2000
0000
0000
0000
,
0000
0000
0000
3000
,
0002
0000
0000
0000
,
0000
0000
0000
0003
,
2002
0000
0000
0000
,
0000
0000
0000
0000
,
3003
0000
0000
0000
,
0000
0000
0000
0000
,
1000
0000
0010
0000
,
0100
0010
1000
0000
,
0001
0000
0010
0000
,
0100
0010
0001
0000
,
1000
0010
0100
0000
,
0010
0000
0000
0110
0000
0000
0000
0000
;

//---------------dance-single - ----------------
#NOTES:
     dance-single:
     :
     Medium:
     7:
     :
0000
0000
0000
0000
,
0000
0000
0000
0000
,
0000
0000
0000
0000
,
0000
0000
0000
0000
,
0000
0000
0000
0000
,
1000
0000
0010
0000
1000
0010
0000
0100
,
0001
0100
0001
0000
,
0001
0000
0010
0000
0001
0010
0000
0100
,
1000
0100
1000
0000
,
0001
0000
1000
0000
0001
1000
0000
0000
,
0010
0100
0000
0220
0000
0000
0000
0000
,
0000
0000
0000
0330
,
2000
0000
0000
3000
,
0200
0000
0000
0300
,
0020
0000
0000
0030
,
0002
0000
0000
0003
,
0002
0000
0000
0003
,
0200
0000
0000
0300
,
0010
0000
0000
0010
0000
0000
0020
0000
,
0000
0030
1000
1001
,
0001
0000
0100
0000
0001
0010
0001
0000
,
1000
0100
1000
0000
,
0001
0000
1000
0000
0010
1000
0010
0000
,
0100
0001
1000
0000
,
0001
0000
1000
0000
0100
0010
0001
0000
,
0100
0001
1000
0000
,
0001
0000
0000
0100
0000
0100
0000
0100
,
0000
0001
1000
1001
,
0001
0100
1000
0100
,
0001
0000
1000
0001
1000
0000
0000
0000
,
0001
0001
0010
0000
,
0100
0100
1000
0000
,
1000
0010
0001
0010
,
1000
0000
0001
1000
0001
0000
0000
0000
,
1000
1000
0100
0100
,
0010
0001
0010
0000
0001
0000
0000
0000
,
1000
0100
0010
0100
,
1000
0000
0001
0000
0100
0010
0100
0000
,
0001
0000
1000
0010
0000
0010
0000
0010
,
0000
0000
1000
1000
,
0001
0100
0001
0100
,
1000
0100
1000
0100
,
0001
0000
0000
1000
0000
0001
0000
2002
,
0000
0000
3003
1001
,
0001
0010
0100
0010
,
0001
0000
1000
0000
0010
0100
0010
0000
,
1000
0000
0001
0100
0000
0100
0000
0100
,
0000
0000
0001
0001
,
1000
0010
1000
0010
,
0001
0010
0001
0010
,
1000
0000
0000
0001
0000
1000
0000
2002
,
0000
0000
0000
3003
,
0002
0000
0000
0000
,
0000
0000
0000
0003
,
2000
0000
0000
0001
0000
0001
0000
0002
,
0000
0000
0000
0000
,
3003
0001
0100
0100
,
0001
0010
0001
0000
,
0000
1000
0100
0100
,
1000
0010
1000
0000
,
0001
0000
0100
0000
0010
1000
0010
0000
,
1000
0001
1000
0100
,
0010
0000
0001
0000
1000
0100
1000
0000
,
0010
0100
0010
1000
,
0001
0000
0001
0000
0100
0010
0000
1000
,
0010
0000
1000
0002
0000
0000
0000
0000
,
0000
0000
0000
0000
,
0000
0000
0000
0000
,
0003
0000
0000
0000
;

//---------------dance-single - ----------------
#NOTES:
     dance-single:
     :
     Hard:
     14:
     :
0000
0000
0000
0000
,
0000
0000
0000
0000
,
0000
0000
0000
0000
,
0000
0000
0000
0000
,
0000
0000
0000
0000
,
1000
0010
1000
0010
0100
0001
0000
1000
,
0010
0100
0001
0000
0100
0010
1000
0000
,
0001
0010
0001
0010
0100
1000
0000
0001
,
0010
0100
1000
0000
0100
0010
0001
0000
,
1000
0000
1000
0000
0100
0000
0100
0000
0010
0000
0001
0000
0000
0000
0001
1000
,
0001
0100
0001
2002
0000
0000
0000
0000
,
0000
0000
3003
1001
,
0001
0000
0000
0010
0001
0000
0000
0001
,
0000
0100
0000
0010
2000
0000
3000
0000
,
1000
0000
0000
0100
0010
0000
0001
1000
,
0000
0001
0100
0000
2002
0000
3003
0000
,
0001
0000
0000
0010
1000
0000
0000
0010
,
0000
0001
0000
0001
2000
0000
3000
1000
,
1100
0000
1000
1010
0000
0001
2002
0000
,
0000
0000
0000
0000
3003
0000
0000
0000
0001
0000
0100
0000
0001
1000
0001
1000
,
0001
0000
0100
0000
0001
0000
0010
0100
0010
0000
0001
0000
1000
0000
0010
0000
,
0000
1010
0000
0010
1000
0001
0001
0000
,
1000
0000
0010
0000
0100
0000
0010
1000
0010
0000
0100
0000
0001
0000
0011
0000
,
0000
0000
0010
0000
0001
0000
0100
0000
0010
0000
1000
0000
0100
0000
0100
1000
,
0100
1000
1010
0010
0100
0001
0010
0011
,
0000
1010
0000
0001
0011
0010
0001
0001
,
0100
0000
1000
1100
0000
0001
0100
0101
,
0000
0000
0001
0000
0100
0000
0010
0000
1000
0100
1000
0000
0001
0010
0001
0000
,
1000
0100
0001
0100
1000
0001
0010
0110
,
0000
1001
1000
0010
0100
0001
0001
0001
,
1000
1000
0010
1000
0000
1100
0100
0010
,
0000
0000
0011
0000
0001
0000
0100
0000
0010
0000
1000
0001
0000
1000
0001
0000
,
1000
1000
0010
0001
0010
0010
1000
0010
,
0000
0000
1010
0000
0010
0000
0100
0000
0001
0000
0010
0001
0000
0100
0001
0000
,
1000
1000
0100
0100
0010
0010
0001
0001
,
0100
0100
0100
0100
1001
0000
0000
0000
,
1000
0100
0010
0001
0100
0010
1000
0100
,
0010
0000
0001
0010
0001
0000
0010
0100
0010
0000
0100
1000
0100
0000
1000
0000
,
0001
0001
0100
1010
0000
1100
0000
1001
,
0000
1000
0100
0001
0100
1000
1001
0000
,
0011
0001
0100
0001
0011
1000
0010
1010
,
0000
1000
1010
0010
0100
0001
0010
0001
,
0100
0100
0000
1010
0000
0011
0000
1001
,
0000
0000
1000
0000
0010
0000
0100
0000
0010
0000
1000
0000
1000
0001
1000
0000
,
0001
0010
0100
1000
0010
0100
0001
0010
,
0100
0000
1000
0100
1000
0000
0100
0010
0100
0000
0010
0001
0010
0000
0001
0000
,
1000
1000
0010
0101
0000
0011
0000
1001
,
0000
0001
0010
1000
0010
0001
1001
0000
,
1100
1000
0010
1000
1100
0001
0100
0101
,
0000
0001
0101
0100
0010
1000
0100
1000
,
0010
0010
0000
0101
0000
1100
0000
1001
,
0000
0000
0001
0000
0100
0000
0010
0000
0100
0000
0001
0000
1000
0001
1000
0001
,
0200
0000
0000
0000
,
0000
0000
0300
0110
,
0011
1000
0001
0101
0000
0110
0000
2002
,
0000
0000
0000
0000
,
3003
0001
0100
0100
1000
0100
0000
0001
,
0010
0010
1000
0000
0001
1000
1001
0000
,
0000
1000
0010
0010
0001
0010
0000
1000
,
0100
0100
0001
0000
1000
0001
1001
0000
,
1000
0000
0001
0000
0100
0000
0010
1000
0010
0000
0100
0000
0001
0000
0010
0100
,
0010
0000
0001
0000
1000
0000
0100
0010
0001
0000
1000
0000
1000
0000
0000
0000
,
0001
0000
1000
0000
0010
0000
0100
0001
0100
0000
0010
0000
1000
0000
0100
0010
,
0100
0000
1000
0000
0001
0000
0010
0100
1000
0000
0001
0000
0001
0000
0000
0000
,
1000
0000
1000
0000
0010
0000
0010
0000
0100
0000
0110
0000
0000
0000
0001
0100
,
0010
0010
1000
2002
0000
0000
0000
0000
,
0000
0000
0000
0000
,
0000
0000
0000
0000
,
3003
0000
0000
0000
;

//---------------dance-double - ----------------
#NOTES:
     dance-double:
     :
     Easy:
     5:
     :
00000000
00000000
00000000
00000000
,
00000000
00000000
00000000
00000000
,
00000000
00000000
00000000
00000000
,
00000000
00000000
00000000
00000000
,
00000000
00000000
00000000
00000000
,
10000000
00000000
10000000
00000000
,
01000000
00000000
00000000
00000000
,
10000000
00000000
10000000
00000000
,
00100000
00000000
00000000
00000000
,
10000000
00010000
00100000
00000000
,
00001000
00000000
00000000
00011000
00000000
00000000
00000000
00000000
,
00000000
00000000
00000000
00000000
,
00002000
00000000
00000000
00000000
,
00003000
00000000
00000000
00000000
,
00000020
00000000
00000000
00000000
,
00000030
00000000
00000000
00000000
,
00000002
00000000
00000000
00000000
,
00000003
00000000
00000000
00000000
,
00001000
00000000
00000000
00000001
00000000
00000000
00001000
00000000
,
00000000
00000000
00001001
00000000
,
00000001
00000000
00000010
00000000
,
00000100
00001000
00000100
00000000
,
00010000
00000000
00001000
00000000
,
00011000
00000000
00000000
00000000
,
00010000
00000000
00001000
00000000
,
01000000
00010000
01000000
00000000
,
00100000
00000000
10000000
00000000
,
10010000
00000000
00000000
00000000
,
10000000
01000000
10000000
01000000
,
00100000
00000000
00100000
00000000
,
00001000
00000000
00010000
00000000
,
00011000
00000000
00000000
00000000
,
00001000
00010000
00001000
00010000
,
00000010
00000000
00001000
00000000
,
00000001
00000000
00000010
00000000
,
00001001
00000000
00000000
00000000
,
00000001
00000100
00000010
00001000
,
00000020
00000000
00000000
00000030
,
00000010
00010000
00001000
00010000
,
00002000
00000000
00003000
00000000
,
00010000
00001000
00100000
00000000
,
00010000
01000000
00010000
00000000
,
01100000
00000000
01100000
00000000
,
20020000
00000000
00000000
30030000
,
10000000
01000000
00100000
00010000
,
00200000
00000000
00000000
00300000
,
00100000
00001000
00010000
00001000
,
00020000
00000000
00030000
00000000
,
00001000
00010000
00000010
00000000
,
00001000
00000100
00001000
00000000
,
00000110
00000000
00000110
00000000
,
00002002
00000000
00000000
00003003
,
00000002
00000000
00000000
00000000
,
00000003
00000000
00000000
00000000
,
00000200
00000000
00000000
00000000
,
00000300
00000000
00000000
00000000
,
00002000
00000000
00000000
00000000
,
00000000
00000000
00000000
00000000
,
00003000
00000000
00000000
00000000
,
00000000
00000000
00000000
00000000
,
00010000
00000000
00001000
00000000
,
01000000
00010000
00100000
00000000
,
00001000
00000000
00010000
00000000
,
00011000
00000000
00000000
00000000
,
00001000
00010000
00000100
00000000
,
00000010
00000000
00000000
00000110
00000000
00000000
00000000
00000000
;

//---------------dance-double - ----------------
#NOTES:
     dance-double:
     :
     Medium:
     7:
     :
00000000
00000000
00000000
00000000
,
00000000
00000000
00000000
00000000
,
00000000
00000000
00000000
00000000
,
00000000
00000000
00000000
00000000
,
00000000
00000000
00000000
00000000
,
10000000
00000000
01000000
00000000
00100000
00010000
00000000
01000000
,
00010000
00100000
00001000
00000000
,
00010000
00000000
00001000
00000000
00010000
00000100
00000000
00010000
,
00000010
00001000
00000100
00000000
,
00001000
00000000
00000001
00000000
00001000
00000001
00000000
00000000
,
00000100
00000010
00000000
00000220
00000000
00000000
00000000
00000000
,
00000000
00000000
00000000
00000330
,
00000002
00000000
00000000
00000003
,
00000200
00000000
00000000
00000300
,
00002000
00000000
00000000
00003000
,
00020000
00000000
00000000
00030000
,
00002000
00000000
00000000
00003000
,
00020000
00000000
00000000
00030000
,
00100000
00000000
00000000
00100000
00000000
00000000
00200000
00000000
,
00000000
00300000
00000000
10010000
,
10000000
00000000
01000000
00000000
00100000
00010000
00100000
00000000
,
00010000
01000000
00010000
00000000
,
01000000
00000000
00001000
00000000
00010000
00001000
00010000
00000000
,
00000100
00010000
00001000
00000000
,
00001000
00000000
00010000
00000000
00000010
00001000
00000010
00000000
,
00001000
00000100
00000010
00000000
,
00000001
00000000
00000000
00000100
00000000
00000010
00000000
00000100
,
00000000
00000000
00000001
00000001
,
00001000
00000000
00000100
00000000
00001000
00000100
00001000
00000000
,
00000100
00010000
00001000
00000000
,
00010000
00000000
00100000
00000000
,
10000000
00010000
10000000
00000000
,
00010000
00000000
01000000
00000000
00010000
00100000
00010000
00000000
,
00100000
00001000
00010000
00000000
,
00001000
00001000
00010000
00010000
,
00001000
00010000
00001000
00000000
00011000
00000000
00000000
00000000
,
00001000
00010000
00000010
00001000
,
00000010
00000000
00000100
00000000
00000001
00001000
00000001
00000000
,
00000010
00000000
00000000
00000001
00000000
00001000
00000000
00001001
,
00000000
00000000
00000001
00000001
,
00001000
00000010
00001000
00000100
,
00010000
00001000
00010000
00000100
,
00010000
00000000
00000000
00001000
00000000
00010000
00000000
00022000
,
00000000
00000000
00033000
00000000
,
00010000
00001000
01000000
00010000
,
01000000
00000000
00100000
00000000
10000000
00010000
10000000
00000000
,
01000000
00000000
00000000
10000000
00000000
00010000
00000000
10010000
,
00000000
00000000
10000000
10000000
,
00010000
01000000
00010000
00100000
,
00001000
00010000
00001000
00100000
,
00001000
00000000
00000000
00010000
00000000
00001000
00000000
00022000
,
00000000
00000000
00000000
00033000
,
00020000
00000000
00000000
00000000
,
00000000
00000000
00000000
00030000
,
00002000
00000000
00000000
00010000
00000000
00010000
00000000
00020000
,
00000000
00000000
00000000
00000000
,
00033000
00001000
00100000
00100000
,
00010000
01000000
00100000
00000000
,
00000000
10000000
01000000
01000000
,
00100000
00010000
00100000
00000000
,
00100000
00000000
00001000
00000000
00010000
00001000
00010000
00000000
,
00000010
00001000
00000010
00000000
,
00001000
00000000
00000100
00000000
00000010
00000001
00000010
00000000
,
00000001
00000100
00000001
00000000
,
00000001
00000001
00000100
00000100
,
00001000
00000000
00010000
00002000
00000000
00000000
00000000
00000000
,
00000000
00000000
00000000
00000000
,
00000000
00000000
00000000
00000000
,
00003000
00000000
00000000
00000000
;

//---------------dance-double - ----------------
#NOTES:
     dance-double:
     :
     Hard:
     14:
     :
00000000
00000000
00000000
00000000
,
00000000
00000000
00000000
00000000
,
00000000
00000000
00000000
00000000
,
00000000
00000000
00000000
00000000
,
00000000
00000000
00000000
00000000
,
10000000
01000000
00100000
00010000
01000000
00100000
00000000
10000000
,
01000000
00100000
00010000
00000000
00001000
00000100
00000010
00000000
,
00000001
00000100
00000010
00001000
00000100
00000010
00000000
00000001
,
00000100
00000010
00001000
00000000
00010000
01000000
00100000
00000000
,
10000000
10000000
01000000
01000000
00010000
01000000
00000000
00100000
,
00001000
00010000
00001000
00022000
00000000
00000000
00000000
00000000
,
00000000
00000000
00033000
00011000
,
00010000
00000000
00000100
00001000
00000010
00000000
00000100
00000001
,
00000000
00000001
00000000
00000001
00000200
00000000
00000300
00000000
,
00000100
00000000
00000010
00010000
00001000
00000000
00001000
00010000
,
00000000
00100000
01000000
00100000
20000000
00000000
30000000
00000000
,
10000000
00000000
01000000
10000000
00100000
00000000
01000000
00001000
,
00000000
00001000
00000000
00001000
00020000
00000000
00030000
00001000
,
00010000
00000000
00000010
00001000
00000000
00000001
00002002
00000000
,
00000000
00000000
00000000
00000000
00003003
00000000
00000000
00000000
00000001
00000000
00000010
00000000
00000001
00001000
00000001
00001000
,
00000001
00000000
00000100
00000000
00000010
00000000
00001000
00000010
00001000
00000000
00000100
00000000
00000010
00000000
00001000
00000000
,
00010000
00001000
00010000
01000000
10000000
00100000
00100000
00000000
,
10000000
00000000
01000000
00000000
00100000
00000000
00010000
00100000
00010000
00000000
01000000
00000000
00100000
00000000
00010000
00000000
,
00001000
00010000
00001000
00000100
00000001
00000010
00000010
00000010
,
00000001
00000100
00001000
00000100
00000001
00000010
00000100
00010000
,
00001000
00100000
00010000
01000000
00100000
10000000
10100000
00100000
,
01000000
10000000
01000000
00010000
00000000
00010000
00100000
00110000
,
00000000
00000000
10000000
00000000
01000000
00000000
00010000
00000000
00001000
00010000
00001000
00000000
00010000
00001000
00010000
00000000
,
00001000
00000010
00000001
00001000
00000100
00000010
00000001
00000011
,
00000000
00001100
00001000
00000100
00010000
00001000
00001000
00001000
,
00010000
00100000
01000000
00010000
00100000
01000000
10000000
11000000
,
00000000
00000000
01010000
00000000
00000000
00000000
11000000
00000000
01000000
00000000
10000000
00010000
00000000
10000000
00010000
00000000
,
10000000
01000000
00010000
10000000
00100000
00010000
01000000
00010000
,
00100000
00000000
00001000
00000000
00010000
00000000
00001000
00000000
00000010
00000000
00000001
00000010
00000000
00000001
00000100
00000000
,
00000001
00000001
00001000
00001000
00000010
00000010
00010000
00010000
,
00001000
00001000
00001000
00001000
00011000
00000000
00000000
00000000
,
00001000
00010000
00100000
01000000
00001000
00010000
01000000
00100000
,
00010000
00000000
10000000
01000000
10000000
00000000
00010000
01000000
00010000
00000000
10000000
00000000
01000000
00000000
00010000
00000000
,
00001000
00000010
00000100
00010000
00001000
00000100
00000010
00010000
,
00001000
00000000
00000010
00000100
00000010
00000000
00000001
00001000
00000001
00000000
00000100
00000000
00000110
00000000
00000000
00000000
,
00000001
00000100
00001000
00001000
00000100
00000001
00000001
00000010
,
00001000
00010000
00001000
00011000
00000000
00010000
01000000
00100000
,
00010000
00010000
00000000
00110000
00000000
01010000
00000000
10010000
,
00000000
00000000
00010000
00000000
00100000
00000000
10000000
00000000
00100000
00000000
00010000
00000000
00010000
10000000
00010000
00000000
,
01000000
00001000
00010000
00100000
01000000
00001000
00010000
01000000
,
00100000
00000000
00001000
00010000
00001000
00000000
00010000
00000100
00010000
00000000
00000010
00000000
00000100
00000000
00000001
00000000
,
00000010
00000100
00010000
00001000
00000100
00000010
00010000
00001000
,
00000010
00000000
00000100
00010000
00000100
00000000
00010000
00001000
00010000
00000000
00001000
00000000
01000000
00000000
00010000
00000000
,
10000000
00100000
00010000
00010000
00100000
10000000
10000000
01000000
,
00010000
00001000
00010000
00001000
00000010
00000100
00000010
00000001
,
00001000
00001000
00000000
00001010
00000000
00000011
00000000
00001010
,
00000000
00000000
00001000
00000000
00000001
00000000
00000100
00000000
00000010
00000000
00010000
00000000
00001000
00010000
00001000
00010000
,
00002000
00000000
00000000
00000000
,
00000000
00000000
00003000
00011000
,
00001000
00010000
01000000
10000000
00000000
11000000
00000000
02200000
,
00000000
00000000
00000000
00000000
,
03300000
10000000
01000000
00010000
01000000
10000000
00000000
00010000
,
00100000
10000000
00100000
00000000
00001000
00010000
00011000
00000000
,
00000000
00010000
00000100
00001000
00000001
00000100
00000000
00001000
,
00000100
00000001
00000010
00000000
00001000
00010000
00011000
00000000
,
00001000
00000000
01000000
00000000
00010000
00000000
00100000
01000000
00100000
00000000
00010000
00000000
10000000
00000000
01000000
00100000
,
01000000
00000000
00100000
00000000
00010000
00000000
00100000
00001000
00010000
00000000
00001000
00000000
00011000
00000000
00000000
00000000
,
00010000
00000000
00000010
00000000
00001000
00000000
00000100
00000010
00000100
00000000
00001000
00000000
00000001
00000000
00000010
00000100
,
00000010
00000000
00000100
00000000
00001000
00000000
00000100
00010000
00001000
00000000
00010000
00000000
00011000
00000000
00000000
00000000
,
00001000
00000000
00001000
00000000
00010000
00000000
00010000
00000000
00100000
00000000
01100000
00000000
00000000
00000000
10000000
01000000
,
00100000
00001000
00010000
00022000
00000000
00000000
00000000
00000000
,
00000000
00000000
00000000
00000000
,
00000000
00000000
00000000
00000000
,
00033000
00000000
00000000
00000000
;
