
//----- song ID: sakr -----//
#TITLE:さくらんぼ;
#TITLETRANSLIT:Sakuranbo;
#BANNER:Sakuranbo.png;
#BACKGROUND:Sakuranbo-bg.png;
#CDTITLE:./CDTitles/DDR GRAND PRIX.png;
#MUSIC:Sakuranbo.ogg;
#SAMPLESTART:57.208;
#SAMPLELENGTH:15;
#DISPLAYBPM:170;
#BPMS:0=170,4=169.895;
#NOTES:
     dance-single:
     :
     Beginner:
     2:
     :
0000
0000
0000
0000
,
0000
0000
0000
0000
,
0000
0000
0000
0000
,
0000
0000
0000
0000
,
0000
0000
0000
0000
,
0000
0000
0000
0000
,
0000
0000
0000
0000
,
1000
0000
0000
0000
,
1000
0000
0000
0000
,
0010
0000
0000
0000
,
0000
0000
0000
0000
,
0001
0000
0000
0000
,
0001
0000
0000
0000
,
0010
0000
0010
0000
,
0001
0000
0000
0000
,
0100
0000
0000
0000
,
0001
0000
0000
0000
,
1000
0000
0000
0000
,
0000
0000
0000
0000
,
1000
0000
0000
0000
,
1000
0000
0000
0000
,
0010
0000
0010
0000
,
1000
0000
0000
0000
,
0100
0000
0000
0000
,
1000
0000
0000
0000
,
0001
0000
0000
0000
,
0000
0000
0000
0000
,
1001
0000
0000
0000
,
0000
0000
0000
0000
,
0001
0001
0001
0000
,
0010
0000
0000
0000
,
1000
0000
0000
0000
,
0000
0000
0000
0000
,
0010
0000
0000
0000
,
1000
0000
0100
0000
,
1000
0000
0000
0000
,
1000
0000
0000
0000
,
0020
0000
0000
0000
,
0030
0000
0000
0000
,
0200
0000
0000
0000
,
0300
0000
0000
0000
,
0010
0000
0000
0000
,
0001
0000
0100
0000
,
0001
0000
0000
0000
,
0001
0000
0000
0000
,
0020
0000
0000
0000
,
0030
0000
0000
0000
,
0200
0000
0000
0000
,
0300
0000
0000
0000
,
0000
0000
0000
0000
,
0100
0000
0000
0000
,
1000
0000
0010
0000
,
1000
0000
0000
0000
,
1000
0000
0000
0000
,
0200
0000
0000
0000
,
0300
0000
0000
0000
,
0020
0000
0000
0000
,
0030
0000
0000
0000
,
0100
0000
0000
0000
,
0001
0000
0010
0000
,
0001
0000
0000
0000
,
0001
0000
0000
0000
,
0200
0000
0000
0000
,
0300
0000
0000
0000
,
0020
0000
0000
0000
,
0030
0000
0000
0000
,
0000
0000
0000
0000
,
0001
0000
0010
0000
,
0001
0000
0000
0000
,
1000
0000
0010
0000
,
1000
0000
0000
0000
,
0010
0000
0000
0000
,
1001
0000
0000
0000
,
0000
0000
0000
0000
;
#NOTES:
     dance-single:
     :
     Easy:
     4:
     :
0000
0000
0000
0000
,
0000
0000
0000
0000
,
0000
0000
0000
0000
,
0000
0000
0000
0000
,
0000
0000
0000
0000
,
0000
0000
0000
0000
,
0000
0000
0000
0000
,
0001
0000
0100
0000
,
0001
0000
0100
0000
,
0001
0000
0010
0000
,
0001
0000
0000
0000
,
1000
0000
0010
0000
,
1000
0000
0010
0000
,
0100
0000
0001
0000
,
0100
0000
0000
0000
,
0001
0000
1000
0000
,
0001
0000
1000
0000
,
0100
0000
0010
0000
,
0100
0000
0000
0000
,
0001
0000
0010
0000
,
0001
0000
0000
0000
,
1000
0000
0010
0000
,
1000
0010
1000
0000
,
0010
0000
0100
0000
,
0001
0000
0000
0000
,
0010
0000
0100
0000
,
0010
0000
0000
0000
,
0002
0000
0000
0003
,
0100
0100
0100
0000
,
0020
0000
0000
0030
,
1000
1000
1000
0000
,
0001
0000
1000
0000
,
1001
0000
0000
0000
,
0010
0000
0010
0000
,
0100
0001
0100
0000
,
0001
0000
1000
0000
,
0001
0000
0000
0000
,
1000
0100
1000
0000
,
0001
0100
0001
0000
,
0010
0000
0100
0000
,
1000
0000
0000
0000
,
0001
0000
0001
0000
,
1000
0001
0010
0000
,
0100
0000
1000
0000
,
0001
0000
0000
0000
,
1000
0100
0001
0000
,
0001
0100
1000
0000
,
0001
0000
1000
0000
,
2002
0000
0000
0000
,
3003
0000
0000
0000
,
0100
0000
0100
0000
,
0010
1000
0010
0000
,
1000
0000
0001
0000
,
1000
0000
0000
0000
,
0001
0010
0001
0000
,
1000
0010
1000
0000
,
0100
0000
0010
0000
,
0001
0000
0000
0000
,
1000
0000
1000
0000
,
0001
1000
0100
0000
,
0010
0000
0001
0000
,
1000
0000
0000
0000
,
0001
0010
1000
0000
,
1000
0010
0001
0000
,
1000
0000
0001
0000
,
1001
0000
0000
0000
,
0010
0000
1000
0000
,
1001
0000
0000
0000
,
0010
0000
0001
0000
,
1001
0000
0000
0000
,
0100
0000
1000
0000
,
1001
0000
0000
0000
,
0110
0000
0000
0000
,
0000
0000
0000
0000
;
#NOTES:
     dance-single:
     :
     Medium:
     8:
     :
0000
0000
0000
0000
,
0000
0000
0000
0000
,
0000
0000
0000
0000
,
0000
0000
0000
0000
,
0000
0000
0000
0000
,
0000
0000
0000
0000
,
0000
0000
0000
0000
,
0010
0000
1000
0000
0001
1000
0000
0001
,
0000
0010
0001
0000
0100
0000
0100
0000
,
0010
0000
0100
0000
0001
1000
0000
1001
,
0000
0000
0000
0000
,
1000
0000
0100
0000
0010
0001
0010
0000
,
0001
0100
1000
0100
,
0001
0100
0001
0000
1000
0100
1000
0000
,
2002
0000
3003
0000
,
0001
0000
0100
0000
0001
0010
0001
0000
,
1000
0100
0001
0100
,
1000
0100
0010
0000
0001
0100
0010
0000
,
1000
0001
1001
0000
,
1000
0000
0010
0000
0100
0001
0100
0000
,
0001
0010
1000
0010
,
0001
0010
0001
0000
1000
0010
1000
0000
,
0001
1000
1001
0000
,
0001
0000
0010
0000
0001
0100
0001
0000
,
1000
0010
0001
0010
,
1000
0010
0100
0000
0001
0010
0100
0000
,
1000
1000
0001
1001
,
0010
0000
0010
0000
0010
1000
0100
0000
,
0010
0000
0010
0000
0010
0001
0100
0000
,
0010
1000
0100
0000
0010
0001
0100
0000
,
1010
1100
0011
0101
,
2200
3300
0202
0303
,
1001
0000
0000
0000
,
1000
0000
0010
0000
0100
0001
0100
0000
,
0001
0010
1000
0010
,
0001
0000
0100
0000
0010
1000
0010
0000
,
0100
0010
0100
0000
,
0001
0001
0010
0000
,
1000
1000
0010
0000
,
1000
0100
1000
0000
0001
0100
0001
0000
,
0010
0010
0010
0000
,
0001
0000
1000
0000
0010
0100
0001
0000
,
0010
1000
0010
0001
,
1000
0000
0010
0000
0100
0001
1000
0000
,
0010
0100
0010
0000
,
0100
0100
0001
0001
,
0010
0100
1000
0010
,
0100
0010
0100
0000
0001
1000
0001
0000
,
2002
0000
0000
0000
,
3003
0000
0000
0000
,
1000
0000
0100
0000
0010
0001
0010
0000
,
0001
0100
1000
0100
,
0001
0000
0010
0000
0100
1000
0100
0000
,
0010
0100
0010
0000
,
0001
0001
0100
0000
,
1000
1000
0100
0000
,
1000
0010
1000
0000
0001
0010
0001
0000
,
0100
0100
0100
0000
,
0001
0000
1000
0000
0100
0010
0001
0000
,
0100
1000
0100
0001
,
1000
0000
0100
0000
0010
0001
1000
0000
,
0100
0010
0100
0000
,
0010
0010
0001
0001
,
0100
0010
1000
0100
,
0010
0100
0010
0000
0001
1000
0001
0000
,
1000
0000
0010
0000
0100
0001
0000
0100
,
0000
0001
0010
0000
0001
1000
0001
0000
,
1000
0000
0100
0000
1000
0010
0000
1000
,
0000
0001
0100
0000
0010
1000
0010
1000
,
0100
0000
0010
0000
0001
1000
0000
0001
,
0000
0100
0001
0000
0010
0100
0010
0000
,
0001
0000
0100
0000
0010
1000
0000
1001
,
0000
0000
0000
0000
;
#NOTES:
     dance-single:
     :
     Hard:
     12:
     :
0000
0000
0000
0000
,
0000
0000
0000
0000
,
0000
0000
0000
0000
,
0000
0000
0000
0000
,
0000
0000
0000
0000
,
0000
0000
0000
0000
,
0000
0000
0000
0000
,
0010
1000
1001
0000
0100
0010
1000
0010
,
0000
1000
0100
0010
0001
1000
0001
0000
,
0010
0001
1001
0000
0100
0010
0000
0110
,
0000
2000
0000
0000
0000
0000
0000
0000
,
3001
0100
0001
0010
0001
0100
0010
1000
,
0100
0000
0100
0010
0001
0000
0001
0100
,
0010
1000
0010
0100
0010
1000
0100
0010
,
0001
0000
1000
0001
2000
0000
3000
0000
,
0100
1000
0010
1000
0000
0100
1000
0001
,
0010
0001
0100
0010
1000
0010
0100
0010
,
0100
0100
0001
0001
0000
0010
0100
0010
,
0011
1010
2002
3003
,
1000
0100
1000
0100
0001
0100
0001
0100
,
1000
1000
0100
0100
0010
0001
1001
0000
,
0001
0100
0001
0100
1000
0100
1000
0100
,
0001
0010
0001
0000
1000
0010
1000
0000
,
0100
1000
0010
0100
0000
0001
0010
0001
,
0100
0010
1000
0010
0100
0001
1000
0000
,
0100
0010
0010
0001
0010
0010
0100
1000
,
0010
0010
0110
1001
,
1000
0010
1000
0010
0100
0001
0010
0100
,
1000
0020
0000
0130
0001
0020
0000
0130
,
0010
0001
0010
0001
1000
0100
1000
0010
,
0200
0000
0302
0000
1003
0001
1000
0001
,
0010
0000
0010
0100
1000
0000
1000
0001
,
0200
0000
0000
0000
0310
1000
0001
0100
,
0010
1000
0100
0010
0001
0100
0010
1000
,
0100
0001
0100
1000
0001
0010
0100
1000
,
0010
0001
0010
0100
0001
0010
0100
0010
,
0001
1000
0100
0010
0001
0100
0100
0000
,
0001
0100
1000
0000
0001
0010
1000
0000
,
1100
0000
0010
0001
0100
0000
0100
0010
,
2000
0000
3200
0000
0320
0000
0031
0010
,
1000
0010
0001
0000
0100
0010
0110
0000
,
0001
0100
0010
1000
0010
0100
0001
1000
,
0100
0010
0001
1000
0100
0010
1000
0010
,
0001
1000
0100
0010
0001
0100
1000
0100
,
0001
1000
0010
0100
0010
1000
1000
0000
,
0001
0010
1000
0000
0001
0100
1000
0000
,
1010
0010
0011
0001
,
2000
0000
3100
0001
0100
1000
0001
0000
,
2002
0000
0000
3003
,
1010
0000
0010
0100
0010
0000
0100
0000
0001
0000
0001
0000
0001
0000
0000
0000
,
0100
0001
0010
0100
1000
0010
0100
0001
,
0010
1000
0010
0001
1000
0100
0010
0001
,
0100
1000
0100
0010
1000
0100
0010
0100
,
1000
0001
0010
0100
1000
0010
0010
0000
,
1000
0010
0001
0000
1000
0100
0001
0000
,
0011
0000
0100
1000
0010
0000
0010
0100
,
0002
0000
0023
0000
0230
0000
1300
0100
,
0001
0100
1000
0000
0010
0100
0110
0000
,
1000
0010
0100
0001
0100
0010
1000
0001
,
0010
0100
1000
0001
0010
0100
0001
0100
,
1000
0001
0010
0100
1000
0010
0001
0010
,
1000
0001
0100
0010
0100
0001
0001
0000
,
1000
0100
0001
0000
1000
0010
0001
0000
,
0101
0100
1100
1000
,
0002
0000
0013
1000
0010
0001
1000
0000
,
0010
1000
0100
0000
0010
0001
0100
0110
,
0000
1000
0010
1000
0001
0100
0001
0010
,
0100
1000
0010
0000
0100
0001
0010
0110
,
0000
0001
0010
0001
1000
0100
0010
0100
,
1000
0001
0100
0000
0010
1000
0001
1001
,
0000
0100
0001
0010
0001
1000
0100
1000
,
0010
0100
0001
0000
0100
0010
1000
1001
,
0000
0000
0000
0000
;
#NOTES:
     dance-double:
     :
     Easy:
     4:
     :
00000000
00000000
00000000
00000000
,
00000000
00000000
00000000
00000000
,
00000000
00000000
00000000
00000000
,
00000000
00000000
00000000
00000000
,
00000000
00000000
00000000
00000000
,
00000000
00000000
00000000
00000000
,
00000000
00000000
00000000
00000000
,
00010000
00000000
00001000
00000000
,
00010000
00000000
00001000
00000000
,
01000000
00000000
00010000
00000000
,
00100000
00000000
00000000
00000000
,
00010000
00000000
10000000
00000000
,
00010000
00000000
10000000
00000000
,
01000000
00000000
00100000
00000000
,
00010000
00000000
00000000
00000000
,
00100000
00000000
00001000
00000000
,
00100000
00000000
00001000
00000000
,
00010000
00000000
00001000
00000000
,
00010000
00000000
00000000
00000000
,
00000010
00000000
00001000
00000000
,
00000010
00000000
00001000
00000000
,
00000100
00000000
00000010
00000000
,
00000001
00001000
00000001
00000000
,
00000100
00000000
00001000
00000000
,
00000100
00000000
00001000
00000000
,
00010000
00000000
00001000
00000000
,
00010000
00000000
00000000
00000000
,
00001000
00000000
00011000
00000000
,
01000000
01000000
01000000
00000000
,
00100000
00000000
01100000
00000000
,
10000000
10000000
10000000
00000000
,
00010000
00000000
00100000
00000000
,
00001000
00000000
00000000
00000000
,
00010000
00000000
00010000
00000000
,
00000010
00001000
00000010
00000000
,
00000100
00000000
00000001
00000000
,
00000010
00000000
00000100
00000000
,
00020000
00000000
00030000
00000000
,
00002000
00000000
00003000
00000000
,
01000000
00000000
00010000
00000000
,
00100000
00000000
00000000
00000000
,
00010000
00000000
00010000
00000000
,
10000000
01000000
00100000
00000000
,
00001000
00000000
00010000
00000000
,
00000010
00000000
00001001
00000000
,
00000001
00000100
00001000
00000000
,
00000100
00001000
00010000
00000000
,
00100000
00000000
00010000
00000000
,
00022000
00000000
00000000
00000000
,
00033000
00000000
00000000
00000000
,
00001000
00000000
00001000
00000000
,
00100000
00010000
00100000
00000000
,
01000000
00000000
10000000
00000000
,
00100000
00000000
01000000
00000000
,
00002000
00000000
00003000
00000000
,
00020000
00000000
00030000
00000000
,
00000100
00000000
00001000
00000000
,
00000010
00000000
00000000
00000000
,
00001000
00000000
00001000
00000000
,
00000001
00000100
00000010
00000000
,
00010000
00000000
00001000
00000000
,
00100000
00000000
10010000
00000000
,
10000000
01000000
00010000
00000000
,
01000000
00010000
00001000
00000000
,
00000010
00000000
00001000
00000000
,
00011000
00000000
00000000
00000000
,
00100000
00000000
01000000
00000000
,
01100000
00000000
00000000
00000000
,
00010000
00000000
00001000
00000000
,
00011000
00000000
00000000
00000000
,
00000100
00000000
00000010
00000000
,
00000110
00000000
00000000
00000000
,
00001001
00000000
00000000
00000000
,
00000000
00000000
00000000
00000000
;
#NOTES:
     dance-double:
     :
     Medium:
     8:
     :
00000000
00000000
00000000
00000000
,
00000000
00000000
00000000
00000000
,
00000000
00000000
00000000
00000000
,
00000000
00000000
00000000
00000000
,
00000000
00000000
00000000
00000000
,
00000000
00000000
00000000
00000000
,
00000000
00000000
00000000
00000000
,
00000001
00000000
00000010
00000000
00000100
00001000
00000000
00000100
,
00000000
00010000
00001000
00000000
00100000
00000000
00010000
00000000
,
01000000
00000000
00100000
00000000
10000000
00010000
00000000
10010000
,
00000000
00000000
00000000
00000000
,
10000000
00000000
00100000
00000000
01000000
00010000
01000000
00000000
,
00010000
10000000
01000000
00010000
,
00001000
00010000
00001000
00000000
00010000
00001000
00010000
00000000
,
00022000
00000000
00033000
00000000
,
00001000
00000000
00010000
00000000
00000010
00001000
00000010
00000000
,
00001000
00000100
00000001
00000100
,
00001000
00000010
00000100
00000000
00000010
00010000
00001000
00000000
,
00010000
00010000
00010000
00000000
,
00001000
00000000
01000000
00000000
00010000
00100000
00010000
00000000
,
10000000
00100000
00010000
00001000
,
00010000
00001000
00010000
00000000
00001000
00010000
00001000
00000000
,
00010000
00010000
00010000
00000000
,
00000100
00000000
00001000
00000000
00000010
00001000
00000010
00000000
,
00000100
00000001
00000010
00000100
,
00001000
00000001
00000100
00000000
00000010
00001000
00000100
00000000
,
00010000
00001000
00010000
00011000
,
01000000
00000000
01000000
00000000
01000000
00010000
00100000
00000000
,
01000000
00000000
01000000
00000000
01000000
10000000
00010000
00000000
,
00100000
00001000
00010000
00000000
00000010
00001000
00000100
00000000
,
00000010
00000001
00000100
00001000
,
00020000
00000000
00002000
00033000
,
00011000
00000000
00000000
00000000
,
00001000
00000000
00010000
00000000
00100000
10000000
00100000
00000000
,
10000000
01000000
00010000
00001000
,
00100000
00010000
01000000
00001000
,
00100000
00000000
00001000
00010000
00001000
00000000
00000000
00000000
,
00010000
00000010
00000100
00000000
,
00000100
00000010
00001000
00000000
,
00000001
00000000
00000100
00000000
00000010
00000000
00001000
00000010
,
00010000
00001000
00010000
00000000
00001000
00000000
00001000
00000000
,
00100000
00000000
00001000
00000000
01000000
00010000
00100000
00000000
,
01000000
10000000
01000000
00010000
,
00001000
00000010
00000001
00001000
,
00000100
00000000
00000010
00000001
00000010
00000000
00000000
00000000
,
00000001
00000100
00000001
00000100
,
00001000
00010000
00001000
00010000
,
00100000
10000000
01000000
00000000
00100000
00001000
00010000
00000000
,
00022000
00000000
00000000
00000000
,
00033000
00000000
00000000
00000000
,
00010000
00000000
00001000
00000000
00000100
00000001
00000100
00000000
,
00000001
00000010
00001000
00010000
,
00000100
00001000
00000010
00010000
,
00000100
00000000
00010000
00001000
00010000
00000000
00000000
00000000
,
00001000
01000000
00100000
00000000
,
00100000
01000000
00010000
00000000
,
10000000
00000000
00100000
00000000
01000000
00000000
00010000
01000000
,
00001000
00010000
00001000
00000000
00010000
00000000
00010000
00000000
,
00000100
00000000
00010000
00000000
00000010
00001000
00000100
00000000
,
00000010
00000001
00000010
00001000
,
00010000
01000000
10000000
00010000
,
00100000
00000000
01000000
10000000
01000000
00000000
00000000
00000000
,
10000000
00100000
10000000
00100000
,
00010000
00001000
00010000
00001000
,
00000100
00000001
00000010
00000000
00000100
00010000
00001000
00000000
,
00010000
00000000
00001000
00000000
01000000
00010000
00000000
00100000
,
00000000
00010000
10000000
00000000
01000000
00000000
01000000
00000000
,
00100000
00000000
00001000
00000000
00010000
00001000
00000000
00000010
,
00000000
00000100
00000010
00000000
00000001
00000000
00000001
00000000
,
00001000
00000000
00000010
00000000
00000100
00000010
00000000
00000100
,
00000000
00001000
00010000
00000000
00001000
00000000
00001000
00000000
,
00010000
00000000
01000000
00000000
10000000
00010000
00000000
10010000
,
00000000
00000000
00000000
00000000
;
#NOTES:
     dance-double:
     :
     Hard:
     13:
     :
00000000
00000000
00000000
00000000
,
00000000
00000000
00000000
00000000
,
00000000
00000000
00000000
00000000
,
00000000
00000000
00000000
00000000
,
00000000
00000000
00000000
00000000
,
00000000
00000000
00000000
00000000
,
00000000
00000000
00000000
00000000
,
00100000
00000000
10010000
00000000
10000000
01000000
00100000
00010000
,
00000000
01000000
00010000
00100000
00001000
00010000
00001000
00000000
,
00010000
00000000
00011000
00000000
00000100
00001000
00000010
00000100
,
00000000
00000002
00000000
00000000
00000000
00000000
00000003
00000000
,
00000001
00000100
00000001
00000100
00000010
00001000
00000100
00001000
,
00000100
00000000
00010000
00001000
00010000
00000000
00001000
01000000
,
00010000
00100000
00010000
01000000
00100000
10000000
01000000
00100000
,
00010000
00000000
01000000
00100000
20000000
00000000
30000000
00000000
,
00100000
01000000
00100000
01000000
00010000
00100000
00010000
00100000
,
00001000
00010000
00000100
00010000
00001000
00000000
00000010
00000001
,
00000100
00000010
00001000
00000010
00000000
00000100
00000001
00000100
,
00001000
00010000
00022000
00033000
,
01000000
00001000
01000000
00001000
00100000
00010000
00100000
00010000
,
10000000
01000000
00010000
01000000
00010000
00001000
00010000
00000000
,
00000100
00001000
00000100
00001000
00000010
00000100
00000001
00000100
,
00000010
00001000
00000001
00000000
00000010
00000001
00001000
00000000
,
00000001
00000010
00000100
00001000
00000000
00000010
00000100
00001000
,
00010000
00100000
01000000
00100000
10000000
00010000
10000000
00000000
,
01000000
00100000
00010000
01000000
00100000
00010000
00001000
00001000
,
00010000
00010000
00022000
00033000
,
00010000
00001000
00000010
00000001
00001000
00000100
00000010
00000001
,
00000100
00000010
00000000
00000010
00001000
00000100
00000000
00000100
,
00010000
00001000
01000000
00010000
00100000
00010000
01000000
00100000
,
20000000
00000000
32000000
00000000
03010000
01000000
10000000
00100000
,
01000000
00000000
01000000
00001000
00010000
00000000
00010000
00000100
,
00002000
00000000
00000000
00000000
00003010
00001000
00000001
00000100
,
00000001
00000010
00000100
00001000
00000010
00000100
00001000
00010000
,
00100000
01000000
00010000
00100000
01000000
10000000
01000000
00010000
,
01000000
00100000
00001000
00010000
00000010
00000100
00001000
00010000
,
00000100
00000010
00001000
00010000
01000000
00100000
00010000
00000000
,
10000000
01000000
00010000
00000000
00001000
00000010
00000001
00000000
,
00001001
00000000
00000001
00000100
00001000
00000000
00001000
00010000
,
00200000
00000000
20300000
00000000
30020000
00000000
01030000
00100000
,
00010000
00001000
00010000
00000000
00001000
00000010
00001000
00000000
,
00010000
00100000
01000000
00010000
00100000
01000000
00100000
00001000
,
00010000
00000100
00001000
00000010
00000100
00001000
00000100
00000001
,
00001000
00000010
00000100
00000001
00000100
00000010
00000100
00001000
,
00010000
00100000
01000000
00010000
00100000
01000000
10000000
00000000
,
10000000
00100000
00010000
00000000
00001000
00000100
00000001
00000000
,
00000011
00000010
00001010
00001000
,
00011000
00000000
00010000
00100000
01000000
00100000
10000000
00000000
,
20020000
00000000
00000000
30030000
,
10010000
00000000
10000000
00100000
10000000
00000000
00010000
00000000
01000000
00000000
01000000
00000000
00010000
00000000
00000000
00000000
,
10000000
00100000
01000000
00010000
00100000
01000000
00010000
00001000
,
00000010
00000100
00001000
00000010
00000100
00000001
00000100
00001000
,
00000100
00000010
00010000
00001000
00100000
01000000
00010000
00001000
,
01000000
00100000
00010000
00001000
00000100
00000010
00001000
00000000
,
00000001
00000100
00001000
00000000
00010000
00100000
10000000
00000000
,
10010000
00000000
10000000
01000000
00010000
00000000
00010000
00001000
,
00000020
00000000
00000032
00000000
00002003
00000000
00003100
00000010
,
00001000
00010000
00001000
00000000
00010000
00100000
00010000
00000000
,
00001000
00000010
00000100
00001000
00000010
00000100
00000010
00010000
,
00001000
01000000
00010000
00100000
01000000
00010000
01000000
10000000
,
00010000
00100000
01000000
10000000
01000000
00100000
01000000
00010000
,
00001000
00000010
00000100
00001000
00000010
00000100
00000001
00000000
,
00000001
00000010
00001000
00000000
00010000
01000000
10000000
00000000
,
10100000
00100000
00110000
00010000
,
00011000
00000000
00001000
00000010
00000100
00000010
00000001
00000000
,
00000010
00000000
00001001
00000000
00000001
00000100
00000010
00001000
,
00000000
00010000
01000000
00000000
00100000
10000000
01000000
00000000
,
00100000
00000000
10010000
00000000
10000000
01000000
00100000
00010000
,
00000000
00001000
00000100
00000000
00000010
00000001
00000100
00000000
,
00000010
00000000
00001001
00000000
00000001
00000010
00001000
00010000
,
00000000
00001000
00000100
00001000
00010000
00100000
00010000
00000000
,
00001000
00000000
00011000
00000000
00010000
01000000
10000000
00010000
,
00000000
00000000
00000000
00000000
;
