
//----- song ID: rere -----//
#TITLE:恋愛レボリューション21;
#TITLETRANSLIT:Renai revolution 21;
#BANNER:Renai revolution 21.png;
#BACKGROUND:Renai revolution 21-bg.png;
#CDTITLE:./CDTitles/DDR GRAND PRIX.png;
#MUSIC:Renai revolution 21.ogg;
#SAMPLESTART:10.751;
#SAMPLELENGTH:15;
#BPMS:0=133;
#NOTES:
     dance-single:
     :
     Beginner:
     3:
     :
0000
0000
0000
0000
,
0000
0000
0000
0000
,
0000
0000
0000
0000
,
0000
0000
0000
0000
,
0000
0000
0000
0000
,
0001
0000
1000
0000
,
0010
0000
0010
0000
,
1000
0000
1000
0000
,
0001
0000
0001
0000
,
0100
0000
0100
0000
,
0001
0000
0001
0000
,
1000
0000
1000
0000
,
0010
0000
0010
0000
,
0100
0000
0010
0000
,
2000
0000
0000
3000
,
0001
0000
0000
0000
,
0010
0000
0001
0000
,
0100
0000
0001
0000
,
0100
0000
0010
0000
,
1000
0000
0000
0000
,
0100
0000
1000
0000
,
0010
0000
0100
0000
,
0001
0000
1000
0000
,
0100
0000
0010
0000
,
0110
0000
0000
0000
,
0001
0000
1000
0000
,
1001
0000
0000
0000
,
0010
0000
0100
0000
,
0110
0000
0000
0000
,
1000
0000
0001
0000
,
1000
0000
0010
0000
,
0100
0100
0100
0000
,
0001
0001
0001
0000
,
1000
1000
1000
0000
,
0010
0010
0010
0000
,
0100
0100
0100
0000
,
0001
0001
0001
0000
,
1000
1000
1000
0000
,
0001
0001
0001
0000
,
0100
0000
0010
0000
,
1000
0000
0010
0000
,
0100
0000
0001
0000
,
0010
0000
0001
0000
,
1001
0000
0000
0000
,
0110
0000
0000
0000
,
1001
0000
0000
0000
,
1000
0000
0100
0000
,
0010
0000
0001
0000
,
1001
0000
0000
0000
,
0110
0000
0000
0000
,
0001
0000
0010
0000
,
0100
0000
1000
0000
,
0001
0000
0100
0000
,
0001
0000
0100
0000
,
0010
0000
1000
0000
,
0010
0000
1000
0000
,
0100
0000
0010
0000
,
0100
0000
0010
0000
,
0001
0000
1000
0000
,
0010
0000
0100
0000
,
0000
0000
0000
0000
;
#NOTES:
     dance-single:
     :
     Easy:
     6:
     :
0000
0000
0000
0000
,
0000
0000
0000
0000
,
0000
0000
0000
0000
,
0000
0000
0000
0000
,
0000
0000
0000
0000
,
0010
1000
0001
1001
,
1000
0010
1000
0000
,
0010
0100
0110
0000
,
0001
0010
0001
0000
,
0100
0010
0110
0000
,
1000
0100
1000
0000
,
0001
1000
1001
0000
,
0010
0100
0010
0000
,
1000
0000
0001
0000
,
0200
0000
0000
0300
,
0001
1000
0100
0000
,
1000
0010
0100
0001
,
1000
0001
0010
0000
,
0001
0100
0110
0000
,
0001
1000
0010
0000
,
1000
0100
0010
0001
,
1000
0001
0100
0000
,
0001
0010
0100
0110
,
0000
1000
0010
0100
,
0002
0003
2000
3000
,
0000
0001
0010
0100
,
2000
3000
0002
0003
,
0000
0100
0001
1000
,
0020
0030
0200
0300
,
0000
0010
1000
0001
,
0020
0030
0200
0300
,
1000
1000
1000
1000
,
0001
0001
0100
0100
,
0010
0010
0010
0010
,
1000
1000
0100
0100
,
0010
0010
0100
0100
,
1000
1000
0001
0001
,
1000
1000
0001
0001
,
0100
0100
0010
0010
,
1000
0001
0100
0001
,
0100
0010
1000
0010
,
1000
0100
1000
0001
,
0010
0000
0100
0000
,
0020
0000
0000
0030
,
0001
1000
1001
0000
,
0100
0010
0110
0000
,
0001
0100
0010
1000
,
1001
0000
0110
0000
,
1000
0001
1001
0000
,
0100
0010
0110
0000
,
1000
0100
0010
0001
,
1001
0000
0110
0000
,
0001
1000
0100
1000
,
0100
0010
0001
0010
,
0001
0100
0001
1000
,
0010
1000
0100
0010
,
0001
0010
0001
1000
,
0010
0100
0001
0010
,
0100
1000
0010
1000
,
0001
0000
0010
0110
,
0000
0000
0000
0000
;
#NOTES:
     dance-single:
     :
     Medium:
     8:
     :
0000
0000
0000
0000
,
0000
0000
0000
0000
,
0000
0000
0000
0000
,
0000
0000
0000
0000
,
0000
0000
0000
0000
,
1000
0000
0000
1000
0000
0000
0010
0000
0100
0000
0000
0000
0110
0000
0000
0000
,
1000
0100
1000
0100
,
0010
0001
0100
1000
,
0100
0001
0100
0001
,
1000
0100
0001
0100
,
1000
0010
1000
0010
,
0100
0001
0010
0001
,
0100
0010
0100
0010
,
1000
0000
0000
1000
0000
0000
1000
0000
0001
0000
0000
0001
0000
0000
0001
0000
,
0200
0000
0000
0300
,
0010
1000
0010
0000
1001
0000
0000
0000
,
0100
0001
0100
0000
1001
0000
0010
0000
,
0110
1000
0100
0000
,
0010
0001
0010
0000
0001
0100
0001
0000
,
1000
0100
1000
0000
1001
0000
0000
0000
,
0001
0010
0001
0000
1001
0000
0100
0000
,
0110
0001
0010
0000
,
0001
0100
0001
0000
0110
0000
1001
0000
,
1000
0000
0100
0010
0100
0000
1000
0000
,
0020
0230
0320
0230
,
0301
0000
0010
0100
0010
0000
0001
0000
,
0200
0320
0230
0320
,
1030
0000
0001
0010
0001
0000
1000
0000
,
0020
0230
0320
0230
,
0301
0000
1000
0010
1000
0000
0001
0000
,
0200
0320
2030
3200
,
0310
0010
0010
0000
0100
0100
0100
0000
,
1000
0000
1000
0000
0010
0010
0010
0000
,
1000
1000
1000
0000
0001
0001
0001
0000
,
0100
0000
0100
0000
0001
0001
0001
0000
,
0010
0010
0010
0000
0100
0100
0100
0000
,
1000
0000
1000
0000
0010
0010
0010
0000
,
1000
1000
1000
0000
0001
0001
0001
0000
,
0100
0000
0100
0000
0010
0010
0010
0000
,
0000
1000
0000
0001
0000
0010
0000
0001
,
0000
1000
0000
0010
0100
0000
0110
0000
,
0000
0001
0000
1000
0000
0100
0000
1000
,
0001
0000
0000
0001
0000
0000
0001
0000
0100
0000
0000
0100
0000
0000
0100
0000
,
0020
0000
0000
1030
,
0001
0010
0001
0000
0100
0000
0110
0000
,
1000
0010
1000
0000
0100
0000
0110
0000
,
0001
0100
1000
0000
0100
0000
0010
0000
,
1000
0001
1001
0000
,
1000
0010
1000
0000
0100
0000
0110
0000
,
0001
0010
0001
0000
0100
0000
0110
0000
,
1000
0100
0001
0000
0100
0000
0010
0000
,
0001
1000
1001
0000
,
0000
0001
0000
1000
0000
0010
0000
1000
,
0000
0001
0000
0010
0100
0000
0110
0000
,
0000
1000
0000
0001
0000
0100
0000
0001
,
0000
1000
0000
0100
0010
0000
0110
0000
,
0000
1000
0000
0100
0000
0001
0000
0100
,
0000
1000
0000
0010
0100
0000
0110
0000
,
0000
0001
0000
0010
0000
1000
0000
0010
,
0001
0000
0000
0001
0000
0000
1000
0000
0100
0000
0000
0000
0110
0000
0000
0000
,
0000
0000
0000
0000
;
#NOTES:
     dance-single:
     :
     Hard:
     12:
     :
0000
0000
0000
0000
,
0000
0000
0000
0000
,
0000
0000
0000
0000
,
0000
0000
0000
0000
,
0000
0000
0000
0000
,
0010
0000
0000
0001
0000
0000
0100
0000
0010
0000
0000
0000
1001
0000
0000
0000
,
0000
1000
0010
1000
0000
0010
0100
0010
,
0000
0000
1000
0000
0100
0000
0010
0000
0100
0000
0000
1000
0000
0000
0001
0000
,
0100
0001
0100
0010
0000
0100
0010
0100
,
0000
0000
0001
0000
0010
0000
0100
0000
0010
0000
0000
0001
0000
0000
0100
0000
,
0010
1000
0100
1000
0000
0001
0010
0001
,
0000
0000
1000
0000
0100
0000
0010
0000
0001
0000
0000
0100
0000
0000
0010
0000
,
1000
0001
0100
0001
0000
1000
0010
1000
,
0001
0000
0000
0010
0000
0000
1000
0000
0010
0000
0000
0001
0000
0000
1000
0000
,
0020
0000
0000
0000
0000
0000
0030
0200
,
0000
0301
0010
0001
1000
1000
0000
0020
,
0000
1030
0100
1000
0001
0001
0000
0101
,
0000
0000
0010
0000
1000
0000
0000
0020
,
0000
1030
0001
0100
0001
0001
0000
2000
,
0000
3010
0100
0010
1000
1000
0000
0002
,
0000
0013
0100
0010
0001
0001
0000
1010
,
0000
0000
1000
0000
0001
0000
0000
0200
,
0000
0310
1000
0001
1000
1001
0110
0000
,
0001
1000
0100
0010
0001
0000
0100
0001
,
0200
0320
0230
0320
,
1030
0001
0010
0100
1000
0000
0010
1000
,
0020
0230
0320
0230
,
0301
1000
0100
0010
0001
0000
0010
0100
,
0020
0230
0320
0230
,
1300
0010
0100
0001
1000
0000
0010
0100
,
0020
2030
3002
0203
,
0310
0010
0010
0000
1000
1000
1000
0000
,
0100
0100
0100
0100
0100
0100
0100
0000
,
0010
0010
0010
0000
0001
0001
0001
0000
,
0100
0100
0100
0100
0100
0100
0100
0000
,
0001
0001
1001
0000
1000
1000
1001
0000
,
0100
0100
0100
0100
0100
0100
0110
0000
,
1000
1000
1100
0000
0001
0001
0101
0000
,
0010
0010
0010
0010
0110
0110
0110
0000
,
0001
1000
0100
1000
0000
0001
0100
0001
,
0000
0000
1000
0000
0010
0000
1000
0000
0001
0000
0000
0100
0000
0000
1000
0000
,
0100
0001
0010
0001
0000
1000
0010
1000
,
0001
0000
0000
0100
0000
0000
1000
0000
0100
0000
0000
0001
0000
0000
1000
0000
,
0200
0000
0000
0310
,
0001
0000
0100
0000
0010
1000
0000
0010
0000
0000
1000
0000
0001
0000
0000
0000
,
1000
0000
0100
0000
0010
0001
0000
0010
0000
0000
0100
0000
0010
0000
0000
0000
,
0001
0100
0001
1000
0010
0000
0010
0000
,
0110
0101
1100
0000
,
1000
0000
0100
0000
0010
0001
0000
0010
0000
0000
0001
0000
1000
0000
0000
0000
,
0001
0000
0100
0000
0010
1000
0000
0010
0000
0000
0100
0000
0010
0000
0000
0000
,
1000
0100
1000
0001
0010
0000
0010
0000
,
0110
1100
0101
0000
,
1000
0001
0100
0001
0000
1000
0100
1000
,
0000
0000
0001
0000
0010
0000
0001
0000
1000
0000
0000
0100
0000
0000
0001
0000
,
0100
1000
0010
1000
0000
0001
0010
0001
,
0000
0000
0100
0000
0010
0000
0100
0000
0001
0000
0000
0010
0000
0000
1000
0000
,
0010
0001
0100
0010
0000
1000
0100
0010
,
0000
0000
0100
0000
1000
0000
0010
0000
0100
0000
0000
0001
0000
0000
0010
0000
,
0100
1000
0010
0100
0000
0001
0010
0100
,
1100
0000
0000
1001
0000
0000
0101
0000
0110
0000
0000
0000
1001
0000
0000
0000
,
0000
0000
0000
0000
;
#NOTES:
     dance-double:
     :
     Easy:
     7:
     :
00000000
00000000
00000000
00000000
,
00000000
00000000
00000000
00000000
,
00000000
00000000
00000000
00000000
,
00000000
00000000
00000000
00000000
,
00000000
00000000
00000000
00000000
,
00000001
00001000
00000010
00001010
,
00010000
00001000
00010000
00000000
,
01000000
00100000
01100000
00000000
,
10000000
01000000
10000000
00000000
,
00010000
00100000
00110000
00000000
,
00001000
00010000
00001000
00000000
,
00000100
00000010
00000110
00000000
,
00000001
00000010
00000001
00000000
,
00001000
00000000
00000000
00000100
00010000
00000000
00000000
00001000
,
00200000
00000000
00000000
00300000
,
00010000
10000000
00100000
00000000
,
01000000
00010000
00100000
00001000
,
00010000
00000010
00001000
00000000
,
00000001
00000000
00000100
00000000
00000010
00000100
00000000
00000000
,
00000001
00000010
00001000
00000000
,
00010000
00100000
10000000
01000000
,
00100000
00010000
00100000
00000000
,
00001000
00010000
00000100
00001100
,
00000000
00000001
00000100
00001000
,
00020000
00030000
00002000
00003000
,
00000000
00010000
01000000
10000000
,
00020000
00030000
00200000
00300000
,
00000000
00001000
00010000
00000100
,
00002000
00003000
00000002
00000003
,
00000000
00000100
00000010
00001000
,
00000200
00000300
00020000
00030000
,
00001000
00001000
00001000
00001000
,
00100000
00000000
00100000
00000000
00010000
00010000
00010000
00000000
,
10000000
10000000
10000000
10000000
,
00100000
00000000
00100000
00000000
01000000
01000000
01000000
00000000
,
00010000
00010000
00100000
00100000
,
00001000
00000000
00001000
00000000
00010000
00010000
00010000
00000000
,
00000010
00000010
00001000
00001000
,
00000001
00000000
00000001
00000000
00000100
00000100
00000100
00000000
,
00000010
00001000
00000100
00010000
,
00001000
00010000
01000000
10000000
,
00100000
01000000
00100000
10000000
,
00010000
00000000
00000000
00100000
00001000
00000000
00000000
00010000
,
00000200
00000000
00000000
00000300
,
00001000
00000001
00001001
00000000
,
00000100
00010000
00011000
00000000
,
00001000
00100000
00010000
01000000
,
01100000
00000000
10010000
00000000
,
01000000
00010000
01010000
00000000
,
00001000
00010000
00011000
00000000
,
00010000
00000010
00001000
00000100
,
00000110
00000000
00001001
00000000
,
00000001
00000100
00000001
00000100
,
00001000
00010000
00001000
00010000
,
01000000
10000000
01000000
10000000
,
00010000
00100000
00001000
00010000
,
00001000
00010000
00000100
00001000
,
00000001
00000010
00000100
00001000
,
00000010
00010000
00001000
00100000
,
00010000
00000000
00000000
01000000
00100000
00000000
01100000
00000000
,
00000000
00000000
00000000
00000000
;
#NOTES:
     dance-double:
     :
     Medium:
     8:
     :
00000000
00000000
00000000
00000000
,
00000000
00000000
00000000
00000000
,
00000000
00000000
00000000
00000000
,
00000000
00000000
00000000
00000000
,
00000000
00000000
00000000
00000000
,
01000000
00000000
00000000
01000000
00000000
00000000
00010000
00000000
00100000
00000000
00000000
00000000
00011000
00000000
00000000
00000000
,
00001000
00010000
00000100
00001000
,
00000100
00000010
00000001
00000100
,
00000010
00001000
00000100
00001000
,
00000100
00010000
00001000
01000000
,
00010000
01000000
00100000
10000000
,
00010000
01000000
00001000
00100000
,
00001000
00010000
00000100
00001000
,
00000001
00000000
00000000
00000001
00000000
00000000
00000001
00000000
00000100
00000000
00000000
00000100
00000000
00000000
00000100
00000000
,
00002000
00000000
00000000
00003000
,
00010000
00001000
00010000
00000000
01010000
00000000
00000000
00000000
,
10000000
00100000
10000000
00000000
00110000
00000000
00001000
00000000
,
00011000
00010000
00000010
00000000
,
00001000
00000100
00001000
00000000
00000001
00000100
00000001
00000000
,
00000100
00000010
00000100
00000000
00001010
00000000
00000000
00000000
,
00010000
00001000
00010000
00000000
00101000
00000000
00010000
00000000
,
10010000
10000000
00100000
00000000
,
01000000
00010000
01000000
00000000
00011000
00000000
00001100
00000000
,
00000001
00000000
00001000
00000010
00001000
00000000
00000100
00000000
,
00020000
00032000
00023000
00032000
,
00103000
00000000
00010000
01000000
00010000
00000000
00100000
00000000
,
02000000
23000000
32000000
23000000
,
30010000
00000000
00100000
00001000
00100000
00000000
00001000
00000000
,
00020000
00030020
00020030
00030020
,
00001030
00000000
00000001
00000100
00000001
00000000
00001000
00000000
,
00000020
00002030
00003200
00020300
,
00031000
00001000
00001000
00000000
01000000
01000000
01000000
00000000
,
00010000
00000000
00010000
00000000
10000000
10000000
10000000
00000000
,
00010000
00010000
00010000
00000000
00100000
00100000
00100000
00000000
,
00001000
00000000
00001000
00000000
00010000
00010000
00010000
00000000
,
00000100
00000100
00000100
00000000
00001000
00001000
00001000
00000000
,
00000001
00000000
00000001
00000000
00000010
00000010
00000010
00000000
,
00000100
00000100
00000100
00000000
00001000
00001000
00001000
00000000
,
00000010
00000000
00000010
00000000
00010000
00010000
00010000
00000000
,
00000000
00001000
00000000
00010000
00000000
00001000
00000000
00100000
,
00000000
00010000
00000000
10000000
00010000
00000000
01100000
00000000
,
00000000
10000000
00000000
00100000
00000000
01000000
00000000
00010000
,
00100000
00000000
00000000
00100000
00000000
00000000
00100000
00000000
00001000
00000000
00000000
00001000
00000000
00000000
00001000
00000000
,
00020000
00000000
00000000
00031000
,
00010000
00000100
00010000
00000000
00000100
00000000
00001100
00000000
,
00000001
00000010
00000001
00000000
00000010
00000000
00001010
00000000
,
00000001
00000100
00001000
00000000
00010000
00000000
01000000
00000000
,
10000000
00100000
10100000
00000000
,
00010000
00100000
00010000
00000000
00100000
00000000
00101000
00000000
,
00001000
00010000
00001000
00000000
00010000
00000000
00010010
00000000
,
00001000
00000010
00000100
00000000
00000001
00000000
00000010
00000000
,
00001000
00010000
00011000
00000000
,
00000000
00010000
00000000
00001000
00000000
00100000
00000000
00010000
,
00000000
10000000
00000000
00010000
01000000
00000000
01001000
00000000
,
00000000
00001000
00000000
00010000
00000000
00000010
00000000
00001000
,
00000000
00000100
00000000
00000010
00000001
00000000
00000101
00000000
,
00000000
00000010
00000000
00001000
00000000
00000100
00000000
00010000
,
00000000
00001000
00000000
01000000
00010000
00000000
01010000
00000000
,
00000000
00100000
00000000
10000000
00000000
00010000
00000000
00100000
,
00001000
00000000
00000000
00001000
00000000
00000000
00010000
00000000
00000100
00000000
00000000
00000000
00001001
00000000
00000000
00000000
,
00000000
00000000
00000000
00000000
;
#NOTES:
     dance-double:
     :
     Hard:
     12:
     :
00000000
00000000
00000000
00000000
,
00000000
00000000
00000000
00000000
,
00000000
00000000
00000000
00000000
,
00000000
00000000
00000000
00000000
,
00000000
00000000
00000000
00000000
,
00000001
00000000
00000000
00001000
00000000
00000000
00000100
00000000
00010000
00000000
00000000
00000000
00011000
00000000
00000000
00000000
,
00000000
00001000
00100000
00001000
00000000
00100000
00010000
00100000
,
00000000
00000000
00010000
00000000
10000000
00000000
00100000
00000000
01000000
00000000
00000000
00010000
00000000
00000000
00100000
00000000
,
00001000
00010000
00001000
00010000
00000000
00000010
00001000
00000010
,
00000000
00000000
00000100
00000000
00000001
00000000
00001000
00000000
00000100
00000000
00000000
00010000
00000000
00000000
00001000
00000000
,
00010000
00001000
00100000
00010000
00000000
01000000
00100000
01000000
,
00000000
00000000
00100000
00000000
10000000
00000000
01000000
00000000
00010000
00000000
00000000
00001000
00000000
00000000
00010000
00000000
,
00001000
00010000
00000100
00001000
00000000
00000001
00000010
00000001
,
00000100
00000000
00000000
00001000
00000000
00000000
00010000
00000000
01000000
00000000
00000000
10000000
00000000
00000000
00100000
00000000
,
02000000
00000000
00000000
00000000
00000000
00000000
03000000
00020000
,
00000000
00130000
00001000
00010000
00000100
00000100
00000000
00002000
,
00000000
00003001
00000010
00000001
00001000
00001000
00000000
00001010
,
00000000
00000000
00010000
00000000
00001000
00000000
00000000
00200000
,
00000000
00310000
10000000
01000000
10000000
10000000
00000000
00020000
,
00000000
10030000
01000000
00010000
00001000
00001000
00000000
00020000
,
00000000
00031000
00000100
00000001
00000010
00000010
00000000
00001100
,
00000000
00000000
00010000
00000000
00001000
00000000
00000000
00020000
,
00000000
00031000
00010000
00100000
10000000
00010000
10010000
00000000
,
10000000
00100000
01000000
00010000
01000000
00000000
00001000
00010000
,
00000200
00020300
00030020
00020030
,
00031000
00010000
00000100
00001000
00000010
00000000
00000100
00000001
,
00002000
00003020
00020030
00030020
,
00010030
00001000
01000000
00010000
10000000
00000000
01000000
00100000
,
00020000
00230000
00302000
00203000
,
00301000
00010000
00000010
00001000
00000100
00000000
00000010
00000001
,
00000200
00002300
00023000
02030000
,
13000000
10000000
10000000
00000000
00010000
00010000
00010000
00000000
,
00100000
00100000
00100000
00100000
00100000
00100000
00100000
00000000
,
00001000
00001000
00001000
00000000
00010000
00010000
00010000
00000000
,
00000100
00000100
00000100
00000100
00000100
00000100
00000100
00000000
,
00001000
00001000
00001000
00000000
00000001
00000001
00000001
00000000
,
00000010
00000010
00000010
00000010
00000010
00000010
00000010
00000000
,
00001000
00001000
00001000
00000000
00010000
00010000
00010000
00000000
,
00001000
00001000
00001000
00001000
00011000
00011000
00011000
00000000
,
00010000
00001000
00010000
00100000
00000000
10000000
00100000
10000000
,
00000000
00000000
00010000
00000000
00100000
00000000
01000000
00000000
10000000
00000000
00000000
01000000
00000000
00000000
00010000
00000000
,
00001000
00010000
00001000
00000100
00000000
00000001
00000100
00000001
,
00000010
00000000
00000000
00001000
00000000
00000000
00010000
00000000
00001000
00000000
00000000
00010000
00000000
00000000
00100000
00000000
,
20000000
00000000
00000000
30010000
,
10000000
00000000
00100000
00000000
01000000
00100000
00000000
01000000
00000000
00000000
00010000
00000000
00100000
00000000
00000000
00000000
,
00001000
00000000
00010000
00000000
00000010
00001000
00000000
00000010
00000000
00000000
00000100
00000000
00000001
00000000
00000000
00000000
,
00001000
00000010
00001000
00000100
00010000
00000000
00001000
00000000
,
00011000
01010000
11000000
00000000
,
00010000
00000000
00100000
00000000
00001000
00010000
00000000
00001000
00000000
00000000
00010000
00000000
00000010
00000000
00000000
00000000
,
00001000
00000000
00000001
00000000
00000100
00000001
00000000
00000100
00000000
00000000
00000010
00000000
00001000
00000000
00000000
00000000
,
00000001
00000100
00001000
00010000
01000000
00000000
10000000
00000000
,
01010000
00011000
00001100
00000000
,
00000001
00000100
00000010
00000100
00000000
00000010
00001000
00000010
,
00000000
00000000
00001000
00000000
00000100
00000000
00010000
00000000
00001000
00000000
00000000
00010000
00000000
00000000
01000000
00000000
,
10000000
00100000
01000000
00100000
00000000
01000000
00010000
01000000
,
00000000
00000000
00010000
00000000
00100000
00000000
00001000
00000000
00010000
00000000
00000000
00001000
00000000
00000000
00000100
00000000
,
00000001
00001000
00000010
00001000
00000000
00000100
00010000
00001000
,
00000000
00000000
00100000
00000000
00010000
00000000
01000000
00000000
00100000
00000000
00000000
10000000
00000000
00000000
01000000
00000000
,
10000000
00010000
00100000
00001000
00000000
00010000
00000010
00001000
,
00000001
00000000
00000000
00000010
00000000
00000000
00001000
00000000
00010000
00000000
00000000
00000000
00011000
00000000
00000000
00000000
,
00000000
00000000
00000000
00000000
;
