
//----- song ID: quon -----//
#TITLE:QuoN;
#ARTIST:Power Of Nature;
#BANNER:QuoN.png;
#BACKGROUND:QuoN-bg.png;
#CDTITLE:./CDTitles/pnm Lapistoria.png;
#MUSIC:QuoN.ogg;
#SAMPLESTART:92.994;
#SAMPLELENGTH:15;
#BPMS:0=168;
#BGSTAGE:27;
#NOTES:
     dance-single:
     :
     Beginner:
     3:
     :
0000
0000
0000
0000
,
0000
0000
0000
0000
,
0000
0000
0000
0000
,
0000
0000
0000
0000
,
0000
0000
0000
0000
,
0000
0000
0000
0000
,
0001
0000
0001
0000
,
0010
0000
0000
0000
,
0010
0000
0010
0000
,
1000
0000
0000
0000
,
1000
0000
0000
0000
,
1000
0000
0000
0000
,
0100
0000
0000
0000
,
0100
0000
0000
0000
,
0010
0000
0000
0000
,
0002
0000
0000
0000
,
0003
0000
0000
0000
,
0001
0000
0001
0000
,
0010
0000
0000
0000
,
0020
0000
0000
0000
,
0030
0000
0000
0000
,
0010
0000
0010
0000
,
1000
0000
0000
0000
,
2000
0000
0000
0000
,
3000
0000
0000
0000
,
1000
0000
1000
0000
,
0010
0000
0000
0000
,
0020
0000
0000
0000
,
0030
0000
0000
0000
,
0010
0000
0010
0000
,
0001
0000
0000
0000
,
0001
0000
0100
0000
,
0010
0000
0000
0000
,
0001
0000
0010
0000
,
1000
0000
0000
0000
,
0000
0000
0000
0000
,
1001
0000
0000
0000
,
0000
0000
0000
0000
,
0000
0000
0000
0000
,
0000
0000
0000
0000
,
2000
0000
0000
0000
,
3000
0000
0000
0000
,
0002
0000
0000
0000
,
0003
0000
0000
0000
,
1001
0000
0000
0000
,
0001
0000
0001
0000
,
0010
0000
0000
0000
,
0001
0000
0010
0000
,
0001
0000
0000
0000
,
0010
0000
0010
0000
,
1000
0000
0000
0000
,
2000
0000
0000
0000
,
3000
0000
0000
0000
,
1000
0000
1000
0000
,
0010
0000
0000
0000
,
1000
0000
0010
0000
,
1000
0000
0000
0000
,
0010
0000
0010
0000
,
0001
0000
0000
0000
,
0002
0000
0000
0000
,
0003
0000
0000
0000
,
1001
0000
0000
0000
,
0000
0000
0000
0000
,
1001
0000
0000
0000
,
0000
0000
0000
0000
,
0020
0000
0000
0000
,
0030
0000
0000
0000
,
0200
0000
0000
0000
,
0300
0000
0000
0000
,
1000
0000
1000
0000
,
0100
0000
0000
0000
,
1000
0000
1000
0000
,
0010
0000
0000
0000
,
0001
0000
0000
0000
,
0010
0000
0000
0000
,
0001
0000
0001
0000
,
0010
0000
0000
0000
,
1000
0000
0000
0000
,
0010
0000
0000
0000
,
1000
0000
1000
0000
,
0010
0000
0000
0000
,
1000
0000
0000
0000
,
0100
0000
0000
0000
,
0010
0000
0000
0000
,
0000
0000
0000
0000
,
0001
0000
0000
0000
,
0100
0000
0000
0000
,
0010
0000
0000
0000
,
1001
0000
0000
0000
,
0000
0000
0000
0000
;
#NOTES:
     dance-single:
     :
     Easy:
     6:
     :
0000
0000
0000
0000
,
0000
0000
0000
0000
,
0000
0000
0000
0000
,
0000
0000
0000
0000
,
0000
0000
0000
0000
,
0000
0000
0000
0000
,
1001
0000
0000
0000
,
0000
0100
0010
0100
,
1001
0000
0000
0000
,
0000
1000
0001
1000
,
0001
0010
0001
0010
,
0001
0100
0001
0000
,
1000
0010
1000
0010
,
1000
0100
1000
0000
,
2002
0000
0000
3003
,
1000
0100
1000
0000
,
1000
0100
0010
0000
,
0002
0000
0000
0003
,
2000
0000
0000
3000
,
0001
0100
0001
0000
,
0001
0100
0010
0000
,
2000
0000
0000
3000
,
0002
0000
0000
0003
,
0001
0010
0100
0000
,
0010
0100
1000
0000
,
0002
0000
0000
0003
,
2000
0000
0000
3000
,
1000
0010
0100
0000
,
0010
0100
0001
0000
,
2000
0000
0000
3000
,
0002
0000
0000
0003
,
1000
0100
1000
0100
,
0020
0000
0000
0030
,
0001
0100
0001
0100
,
0020
0000
0000
0030
,
1000
0001
1000
0001
,
1001
0000
0000
0000
,
0000
0000
0000
0000
,
0000
0000
0000
0000
,
0000
0000
0000
0000
,
1000
1000
0100
0000
,
0100
0100
0010
0000
,
0001
0001
0100
0000
,
0100
0100
0010
0000
,
0220
0000
0000
0330
,
1000
0010
0100
0010
,
0100
0001
1000
0000
,
0001
0010
0100
0010
,
0100
1000
0001
0000
,
1000
0001
0100
0001
,
1000
0010
0100
0000
,
0001
1000
0001
0100
,
0010
1000
0001
0000
,
1001
0000
0110
0000
,
1001
0000
0110
0000
,
1000
0100
0010
0000
,
0001
0100
0010
0000
,
1000
0010
1000
0010
,
0100
0010
0100
0000
,
0001
0100
0001
0100
,
0010
0100
0010
0000
,
1000
1000
0001
0001
,
0100
0010
0100
0000
,
0110
0000
1001
0000
,
0001
0010
0100
1000
,
0002
0000
0000
0003
,
0020
0000
0000
0030
,
0200
0000
0000
0300
,
2000
0000
0000
3000
,
0001
0000
0001
0000
,
0010
0100
0010
0100
,
1000
0000
1000
0000
,
2002
0000
0000
3003
,
1000
0100
0010
0100
,
1000
0001
0100
0000
,
0001
0100
0010
0100
,
0001
1000
0010
0000
,
1000
0100
0010
0001
,
0100
0010
1000
0000
,
0001
0010
0100
1000
,
0010
0100
0001
0000
,
2000
0000
0000
3000
,
1000
0100
0010
0000
,
0002
0000
0000
0003
,
0001
0100
0010
0000
,
2000
0000
0000
3000
,
0002
0000
0000
0003
,
0100
0000
0010
0000
,
1001
0000
0000
0000
,
0000
0000
0000
0000
;
#NOTES:
     dance-single:
     :
     Medium:
     10:
     :
0000
0000
0000
0000
,
0000
0000
0000
0000
,
0000
0000
0000
0000
,
0000
0000
0000
0000
,
0000
0000
0000
0000
,
0000
0000
0000
0000
,
0001
0000
0000
0001
0000
0000
0001
0000
0000
0000
0000
0000
0000
0000
0000
0000
,
0000
0100
0010
0110
,
1000
0000
0000
1000
0000
0000
1000
0000
0000
0000
0000
0000
0000
0000
0000
0000
,
0000
0100
0010
0110
,
0001
0010
0001
0010
0001
0100
0001
0000
,
1000
0010
1000
0010
1000
0100
1000
0000
,
0001
1000
0001
1000
0100
0010
0100
0000
,
0010
0100
0010
0100
1000
0001
1000
0000
,
2002
0000
0000
3003
,
0001
0000
0100
0000
0010
1000
0001
0000
,
1000
0000
0100
0000
0010
0001
1000
0000
,
0002
1000
1000
1003
,
2000
0001
0001
3001
,
1000
0000
0010
0000
0100
0001
1000
0000
,
0001
0000
0010
0000
0100
1000
0001
0000
,
2000
0001
0001
3001
,
0002
1000
1000
1003
,
0001
0000
0010
0000
0100
1000
0100
0000
,
1000
0000
0001
0000
0100
0010
1000
0000
,
0200
0010
0010
0310
,
0020
0100
0100
0130
,
1000
0000
0100
0000
0010
0001
0010
0000
,
0001
0000
1000
0000
0010
0100
0001
0000
,
0020
0100
0100
0130
,
0200
0010
0010
0310
,
0002
0023
0230
2300
,
3002
0010
1000
0103
,
2000
3020
0230
0302
,
2003
0010
0001
3100
,
0220
0000
0000
0330
,
1001
0000
0000
0000
,
0000
0000
0000
0000
,
0000
0000
0000
0000
,
0000
0000
0000
0000
,
1000
0000
0000
1000
0000
0000
0000
0000
0001
0000
0100
0000
0010
0000
0000
0000
,
1000
0000
0000
1000
0000
0000
0000
0000
0010
0000
0100
0000
0001
0000
0000
0000
,
1000
0100
1000
0100
0001
0100
1000
0000
,
0001
0100
0001
0100
1000
0100
0001
0000
,
2002
0000
0000
3003
,
1000
0000
0100
0000
0010
0001
1000
0000
,
0010
0000
0100
0000
0001
1000
0001
0000
,
0100
0000
0010
0000
1000
0001
0010
0000
,
0200
0010
0010
0310
,
0001
0000
0010
0000
0100
1000
0001
0000
,
0100
0000
0010
0000
1000
0001
1000
0000
,
0010
0000
0100
0000
0001
1000
0100
0000
,
0020
0100
0100
0130
,
1000
0000
0000
0001
0000
0000
0000
0000
0100
0000
0010
0000
0100
0000
0000
0000
,
0001
0000
0000
1000
0000
0000
0000
0000
0100
0000
0010
0000
0100
0000
0000
0000
,
1000
0000
0000
0100
0000
0000
0000
0000
0010
0000
0001
0000
0010
0000
0000
0000
,
0001
0000
0100
0000
0010
1000
0010
0000
,
1000
0001
1000
0100
0010
0001
1000
0000
,
0001
1000
0001
0100
0010
1000
0001
0000
,
1000
0100
0001
0000
0001
0100
1000
0000
,
0001
0100
1000
0100
0001
0000
1000
0000
,
0001
0100
0010
1000
0010
0100
0001
0000
,
0000
1000
0100
0010
0001
0010
0100
1000
,
0001
0000
1000
0010
0100
0001
0100
0000
,
0001
0010
0001
0000
1000
0100
1000
0000
,
0002
0000
0000
0003
,
2000
0000
0000
3000
,
0020
0000
0000
0030
,
0200
0000
0000
0300
,
0001
0000
0010
0000
,
0001
0100
0010
0000
,
1000
0000
0100
0000
,
1000
0010
0100
0000
,
0001
0000
0100
0000
0010
1000
0001
0000
,
1000
0000
0100
0000
0010
0001
0100
0000
,
0010
0000
1000
0000
0001
0100
0010
0000
,
2000
0000
0000
3000
,
1000
0000
0100
0000
0010
0001
1000
0000
,
0001
0000
0100
0000
0010
1000
0100
0000
,
0010
0000
0001
0000
1000
0100
0010
0000
,
0002
0000
0000
0003
,
1000
1000
0100
0000
,
0010
0001
0010
0000
,
0001
0001
0100
0000
,
0010
1000
0010
0000
,
2000
0000
0000
3000
,
0002
0000
0000
0003
,
0200
0000
0000
0300
,
0110
0000
0000
0000
,
0000
0000
0000
0000
;
#NOTES:
     dance-single:
     :
     Hard:
     14:
     :
0000
0000
0000
0000
,
0000
0000
0000
0000
,
0000
0000
0000
0000
,
0000
0000
0000
0000
,
0000
0000
0000
0000
,
0000
0000
0000
0000
,
0001
1000
0000
0001
0000
1000
0001
0000
0000
0000
0000
0000
0000
0000
0000
0000
,
0000
0100
0010
0110
,
1000
0001
0000
1000
0000
0001
1000
0000
0000
0000
0000
0000
0000
0000
0000
0000
,
0000
0010
0100
0110
,
1000
0100
0010
0001
1000
0100
0010
0100
,
1000
0001
0100
0010
1000
0001
0100
0000
,
0001
0010
0100
1000
0001
0010
0100
0010
,
0001
1000
0010
0100
0001
1000
0010
0000
,
1000
0000
0100
0010
0001
0000
1000
0000
0001
0010
0100
0000
1000
0000
0000
0000
,
0001
0000
0100
0000
0001
0010
0000
0010
0000
0000
0001
0000
1000
0010
0000
0010
,
0000
0000
1000
0000
0100
0010
0000
0010
0000
0000
0001
0000
1000
0001
1000
0000
,
0001
0100
1000
0100
0001
0100
0010
0000
,
1000
0100
0001
0100
1000
0100
0010
0001
,
1000
0000
0010
0000
1000
0100
0000
0100
0000
0000
1000
0000
0001
0100
0000
0100
,
0000
0000
0001
0000
0010
0100
0000
0100
0000
0000
1000
0000
0001
1000
0001
0000
,
1000
0010
0001
0010
1000
0010
0100
0000
,
0001
0010
1000
0010
0001
0010
0100
1000
,
0001
0000
0100
0000
0010
1000
0000
1000
0000
0000
0100
0000
1000
0010
0000
0010
,
0000
0000
0100
0000
0001
1000
0000
1000
0000
0000
0100
0000
0010
0100
0010
0000
,
0001
0010
1000
0010
0001
0100
1000
0100
,
0001
0010
0100
1000
0010
0100
0001
0000
,
1000
0000
0010
0000
0100
0001
0000
0001
0000
0000
0010
0000
0001
0100
0000
0100
,
0000
0000
0010
0000
1000
0001
0000
0001
0000
0000
0010
0000
0100
0010
0100
0000
,
1000
0100
0001
0100
1000
0010
0001
0010
,
1000
0100
0010
0001
0100
0010
1000
0000
,
0002
0203
0320
0000
2030
3200
0320
0000
,
0031
1000
0001
0000
1000
0000
0001
1000
0000
0001
1000
0000
0001
1000
0001
0000
,
2000
3020
0230
0000
0302
0023
0230
0000
,
1300
0001
1000
0000
0001
0000
1000
0001
0000
1000
0001
0000
1000
0001
1000
0000
,
0001
0000
0010
0000
0100
0000
1000
0000
0001
1000
0001
1000
0001
1000
0001
0000
,
2000
0000
0000
0000
,
3020
0000
0000
0000
,
0230
0000
0000
0000
,
0302
0000
0000
0000
,
1003
0000
0000
1000
0000
0000
0000
0000
0010
0100
0010
0000
0100
0000
0010
0100
,
0001
0000
0000
0001
0000
0000
0000
0000
0010
0100
0010
0000
0100
0000
0010
0100
,
1000
0000
0001
1000
0000
0001
1000
0000
0010
0000
0100
0010
0000
0100
0010
0000
,
1000
0000
0100
0000
0010
0000
0001
0000
0100
0000
0010
0000
1000
0001
1000
0000
,
0002
0000
0000
0003
,
0001
0000
1000
0000
0001
0000
0100
0000
0010
0000
1000
0001
1000
0000
0100
1000
,
0100
0000
0010
0000
0001
0000
1000
0000
0010
0000
0100
0001
0100
0000
0010
1000
,
0010
0000
0100
0000
0001
0000
0010
0000
0100
0000
1000
0001
1000
0000
0100
0010
,
0100
0000
1000
0000
0001
0000
0010
0001
0000
0010
0001
0010
0001
0000
0000
0000
,
1000
0000
0001
0000
1000
0000
0100
0000
0010
0000
0001
1000
0001
0000
0100
0001
,
0100
0000
0010
0000
1000
0000
0001
0000
0010
0000
0100
1000
0100
0000
0010
0001
,
0010
0000
0100
0000
1000
0000
0010
0000
0100
0000
0001
1000
0001
0000
0100
0010
,
0100
0000
0001
0000
1000
0000
0010
1000
0000
0010
1000
0010
1000
0000
0000
0000
,
0001
0000
0000
1001
0000
0000
0000
0000
1000
0100
0010
0000
0001
0100
0010
0000
,
1000
0000
0000
1000
0000
0000
0000
0000
0001
0010
0100
0000
1000
0010
0100
0000
,
0001
0000
0000
0001
0000
0000
0000
0000
0100
0000
0100
0000
0010
0000
0010
0000
,
1000
0000
0100
0000
0010
0000
0001
0000
1000
0001
1000
0001
1000
0000
0000
0000
,
0001
0010
0100
1000
0001
0010
1000
0010
,
0001
0100
0010
1000
0001
0100
1000
0100
,
0010
1000
0010
0000
1000
0000
0100
0000
0010
0001
0010
0000
0001
0000
1000
0000
,
0001
0100
0010
1000
0100
0010
0001
0000
,
1000
0100
0010
0000
0001
0000
0010
0100
1000
0000
0001
0000
1000
0100
0010
0000
,
0000
0000
0001
0100
0010
0000
1000
0000
0010
0100
0001
0000
0100
0000
0010
0000
,
1000
0000
0000
0001
1000
0000
0100
0000
0010
0100
0010
0000
0001
1000
0001
0000
,
1000
0100
0001
0100
1000
0010
0100
0001
,
2000
0000
0000
3000
,
0200
0000
0000
0300
,
0020
0000
0000
0030
,
0002
0000
0000
0003
,
1000
0000
0100
0010
0000
0010
0100
0000
,
1000
0000
0001
1000
0000
1000
0001
0000
,
1000
0100
0010
0000
0001
0100
0010
0000
,
2002
0000
0000
3003
,
1000
0000
0010
0000
1000
0000
0100
0000
1000
0000
0001
0010
0001
0000
1000
0010
,
1000
0000
0100
0000
0010
0000
0001
0000
1000
0000
0001
0100
0001
0000
1000
0100
,
1000
0000
0010
0000
0100
0000
0001
0000
0010
0000
0100
1000
0100
0000
1000
0001
,
2000
0010
0001
3100
,
0001
0000
0010
0000
0001
0000
0100
0000
0001
0000
1000
0010
1000
0000
0001
0010
,
0001
0000
0100
0000
0010
0000
1000
0000
0001
0000
1000
0100
1000
0000
0001
0100
,
0001
0000
0010
0000
0100
0000
1000
0000
0010
0000
0100
0001
0100
0000
0001
1000
,
0002
0010
1000
0103
,
0001
0000
0000
0100
0000
0000
0010
0000
0000
1000
0000
0000
0001
0000
0000
0000
0000
0000
1000
0000
0001
0000
1000
0000
,
0002
0000
2003
0000
,
3010
0000
0100
0000
0001
0000
1000
0001
,
1000
0100
0010
0001
,
2000
0000
0000
0000
,
3020
0000
0000
0000
,
0230
0000
0000
0000
,
0301
0000
0000
0000
,
0000
0000
0000
0000
;
#NOTES:
     dance-single:
     :
     Challenge:
     17:
     :
0000
0000
0000
0000
,
0000
0000
0000
0000
,
0000
0000
0000
0000
,
0000
0000
0000
0000
,
0000
0000
0000
0000
,
0000
0000
0000
0000
,
0001
1000
0000
0001
0000
1000
0001
0000
0000
0000
0000
0000
0000
0000
0000
0000
,
0000
0010
0010
0010
,
1000
0001
0000
1000
0000
0001
1000
0000
0000
0000
0000
0000
0000
0000
0000
0000
,
0000
0010
0010
0010
,
0001
0010
0001
0010
0100
0010
0100
0000
1000
0010
1000
0010
0100
0010
0100
0000
,
0001
0100
0001
0100
0010
0100
0010
0000
1000
0100
1000
0100
0010
0100
0010
0000
,
0001
1000
0100
1000
0001
1000
0100
0000
1000
0001
0010
0001
1000
0001
0010
0000
,
0001
1000
0010
1000
0001
1000
0010
0000
1000
0001
0100
0001
1000
0001
0100
0000
,
0001
0010
0100
1000
0001
1000
0100
0010
0001
1000
0001
0010
0100
1000
0001
0000
,
1000
0100
0010
0000
0001
1000
0001
1000
0000
0000
1001
0000
0001
0100
0010
1000
,
0000
0000
1010
0000
1000
0010
0100
0010
0000
1000
0100
1000
0001
0100
0001
0010
,
0100
1000
0100
1000
0001
0100
0001
0100
0000
0100
0010
0100
0001
1000
0001
1000
,
0000
1000
0100
0010
0001
1000
0001
1000
0000
1000
0010
0100
0001
1000
0010
1000
,
0001
0010
0100
0000
1000
0001
1000
0001
0000
0000
1001
0000
1000
0010
0100
0001
,
0000
0000
0101
0000
0001
0100
0010
0100
0000
0001
0010
0001
1000
0010
1000
0100
,
0010
0001
0010
0001
1000
0010
1000
0010
0000
0010
0100
0010
1000
0001
1000
0001
,
0000
0001
0010
0100
1000
0001
1000
0001
0100
0000
0000
0100
0000
0000
0100
0000
,
0001
1000
0001
0000
1000
0010
0100
0001
0000
0000
0110
0000
1000
0010
1000
0001
,
0000
0000
1001
0000
0001
0010
0100
1000
0000
0000
0110
0000
0001
0010
0001
1000
,
0100
0000
0010
0001
1000
0001
0010
0001
0000
0100
0010
0100
0001
1000
0000
1000
,
0001
0100
0001
0100
0010
1000
0010
1000
0000
1000
0001
1000
0010
0100
0010
0000
,
1000
0001
1000
0000
0001
0010
0100
1000
0000
0000
0110
0000
0001
0010
0001
1000
,
0000
0000
1001
0000
1000
0010
0100
0001
0000
0000
0110
0000
1000
0010
1000
0001
,
0100
0000
0010
1000
0001
1000
0010
1000
0000
0100
0010
0100
1000
0001
0000
0001
,
1000
0100
1000
0100
0010
0001
0010
0001
1000
0001
1000
0001
0010
0100
0010
0100
,
0020
0032
0203
0320
2030
3200
0320
0032
,
1003
0010
1000
0000
0100
1000
0100
1000
0000
0010
1000
0100
1000
0010
1000
0000
,
0200
2300
3020
0230
0302
0023
0230
2300
,
3001
0100
0001
0000
0010
0001
0010
0001
0000
0100
0001
0010
0001
0100
0001
0000
,
1000
0100
0010
0001
1000
0100
0010
0001
1000
0001
1000
0001
1000
0001
1000
0001
,
2000
0000
0000
0000
,
0000
0000
0000
0000
,
0000
0000
0000
0000
,
0000
0000
0000
3000
,
1000
0000
0000
0001
0000
0000
0000
0000
1000
0010
0100
0001
1000
0010
0100
0000
,
0001
0000
0000
1000
0000
0000
0000
0000
0001
0010
0100
1000
0001
0010
0100
0000
,
1000
0000
0010
0100
0000
0010
0100
0000
0001
0000
0010
0100
0000
0010
0100
0000
,
1000
0100
0010
0000
0001
0100
0010
0000
1000
0100
0010
0001
0100
0010
1000
0100
,
0020
0000
0000
0030
,
0001
0100
0010
1000
0001
0000
0001
0100
0010
1000
0001
0000
0001
0100
0010
1000
,
0001
0000
0100
0010
1000
0000
0010
1000
0001
0000
1000
0001
0010
0000
0001
0010
,
0100
1000
0001
0100
0010
0000
0010
0100
0001
1000
0100
0000
0100
1000
0001
0100
,
0010
1000
0001
0000
1000
0001
1000
0001
0000
1000
0001
1000
0001
1000
0001
0000
,
1000
0100
0010
0001
1000
0000
1000
0100
0010
0001
1000
0000
1000
0100
0010
0001
,
1000
0000
0100
0010
0001
0000
0010
0001
1000
0000
0001
1000
0010
0000
1000
0010
,
0100
0001
1000
0100
0010
0000
0010
0100
1000
0001
0100
0000
0100
0001
1000
0100
,
0010
0001
1000
0000
0001
1000
0001
1000
0000
0001
1000
0001
1000
0001
1000
0000
,
0001
0000
0000
1001
0000
0000
0000
0000
1000
0010
1000
0001
1000
0100
1000
0001
,
1000
0000
0000
1001
0000
0000
0000
0000
0001
0010
0001
1000
0001
0100
0001
1000
,
0001
0000
0000
1001
0000
0000
0000
0000
0001
0100
0010
0000
1000
0100
0010
0000
,
0001
0100
0010
0100
0010
1000
0001
0000
1000
0010
0100
0010
0100
0001
1000
0000
,
0001
0010
0001
0010
0100
0010
0100
0010
0100
0001
0100
0010
0001
1000
0001
0000
,
1000
0010
1000
0010
0100
0010
0100
0010
0100
1000
0100
0010
1000
0001
1000
0000
,
0001
1000
0001
1000
0000
0000
0100
0000
0000
0010
0000
0000
0001
1000
0001
1000
0000
0000
0010
0000
0000
0100
0000
0000
,
0001
0100
0001
1000
0100
1000
0001
0010
0001
1000
0010
1000
0001
1000
0001
0000
,
1000
0100
0010
0001
1000
0001
0010
0100
1000
0001
1000
0100
0010
0001
1000
0000
,
0000
0000
0001
0100
0010
1000
0001
1000
0010
0100
0001
1000
0001
0100
0010
1000
,
0001
0000
0000
1000
0100
0010
0001
1000
0100
0010
0100
0010
0001
1000
0001
1000
,
0010
0100
0001
1000
0010
0100
0001
1000
0100
0010
0100
0010
0001
1000
0001
1000
,
0002
0000
0000
0003
,
0020
0000
0000
0030
,
0200
0000
0000
0300
,
2000
0000
0000
3000
,
0001
0000
1000
0001
0000
0100
0010
0000
,
1000
1000
0001
1000
0000
0010
0100
0000
,
0001
0000
0010
0000
0001
0000
0010
0000
0100
0000
1000
0000
0100
0000
1000
0100
,
0010
0100
0010
0100
0010
0100
0010
0100
1000
0001
1000
0001
1000
0001
1000
0001
,
1000
0100
0010
0100
1000
0000
1000
0001
0100
0010
1000
0000
1000
0001
0010
0100
,
1000
0000
0010
0100
0001
0000
0010
0100
1000
0000
1000
0100
0010
0000
0001
0100
,
0010
1000
0001
1000
0010
0000
0010
0100
0001
0100
0010
0000
0010
1000
0100
0010
,
0001
1000
0001
1000
0010
0100
0010
0100
0001
0100
0010
1000
0100
0010
0001
0000
,
0010
0001
1000
0001
0100
0000
0100
0001
1000
0001
0010
0000
0010
0001
1000
0100
,
0010
0000
0001
0010
0100
0000
1000
0010
0100
0000
0100
0010
1000
0000
0100
0010
,
0001
1000
0100
1000
0001
0000
0001
0100
0010
1000
0001
0000
0001
0010
0100
1000
,
0100
0001
0100
0001
0100
1000
0100
1000
0001
0010
0001
0010
1000
0010
1000
0010
,
0002
0000
0000
0000
,
0000
0000
0000
0003
,
2000
0000
0000
0000
,
0000
0000
0000
3000
,
0001
0000
0000
0100
0000
0000
0010
0000
0000
1000
0000
0000
0001
0000
0000
0000
0000
0000
0010
0000
0100
0000
0010
0000
,
0100
0000
0000
1000
0000
0000
0001
0000
0000
0100
0010
0100
,
0010
0000
1000
0010
0001
0010
1000
0000
,
1001
0000
0000
0000
,
0000
0000
0000
0000
;
#NOTES:
     dance-double:
     :
     Easy:
     6:
     :
00000000
00000000
00000000
00000000
,
00000000
00000000
00000000
00000000
,
00000000
00000000
00000000
00000000
,
00000000
00000000
00000000
00000000
,
00000000
00000000
00000000
00000000
,
00000000
00000000
00000000
00000000
,
00011000
00000000
00000000
00000000
,
00000000
00001000
00010000
00001000
,
00011000
00000000
00000000
00000000
,
00000000
00001000
00010000
00001000
,
00100000
00010000
00100000
00000000
,
00010000
01000000
00010000
00000000
,
01000000
00100000
10000000
00000000
,
00010000
10000000
00010000
00000000
,
20020000
00000000
00000000
30030000
,
10000000
01000000
00100000
00010000
,
00100000
00001000
00010000
00000000
,
00002000
00000000
00000000
00003000
,
00020000
00000000
00000000
00030000
,
00001000
00010000
00000100
00001000
,
00000010
00000100
00000001
00000000
,
00002000
00000000
00000000
00003000
,
00000002
00000000
00000000
00000003
,
00000001
00000100
00001000
00000000
,
00010000
00100000
10000000
00000000
,
00020000
00000000
00000000
00030000
,
20000000
00000000
00000000
30000000
,
10000000
01000000
00010000
00000000
,
00001000
00000010
00000001
00000000
,
00002000
00000000
00000000
00003000
,
00000002
00000000
00000000
00000003
,
00000001
00000010
00000001
00000010
,
00000200
00000000
00000000
00000300
,
00001000
00000100
00001000
00000100
,
00020000
00000000
00000000
00030000
,
00001000
00010000
00001000
00000000
,
00011000
00000000
00000000
00000000
,
00000000
00000000
00000000
00000000
,
00000000
00000000
00000000
00000000
,
00000000
00000000
00000000
00000000
,
00001000
00000000
01001000
00000000
,
01000000
00000000
01010000
00000000
,
00010000
01000000
00010000
00000000
,
10000000
00100000
10000000
00000000
,
20020000
00000000
00000000
30030000
,
10000000
01000000
00100000
01000000
,
00100000
00010000
00100000
00000000
,
00010000
00100000
00001000
00010000
,
00000100
00001000
00000001
00000000
,
00000001
00000100
00000010
00000100
,
00000010
00001000
00000010
00000000
,
00001000
00000010
00010000
00001000
,
01000000
00010000
10000000
00000000
,
10010000
00000000
01100000
00000000
,
10010000
00000000
01100000
00000000
,
10000000
00010000
00100000
00001000
,
00010000
00000000
00011000
00000000
,
00001000
00010000
00001000
00010000
,
00000100
00001000
00000100
00000000
,
00000010
00000001
00000010
00000001
,
00001000
00000001
00001000
00000000
,
00000001
00000100
00001000
00010000
,
00100000
10000000
00010000
00000000
,
10010000
00000000
10000000
01000000
,
00010000
00001000
00000010
00000000
,
00000002
00000000
00000000
00000003
,
00002000
00000000
00000000
00003000
,
00000200
00000000
00000000
00000300
,
00020000
00000000
00000000
00030000
,
00002000
00000000
00000000
00003000
,
00200000
00000000
00000000
00300000
,
00010000
10000000
00010000
00000000
,
20020000
00000000
00000000
30030000
,
10000000
01000000
00100000
00010000
,
01000000
00100000
10000000
00000000
,
10000000
01000000
00010000
00000000
,
00001000
00000010
00000001
00000000
,
00000001
00000100
00000010
00001000
,
00000100
00000010
00000001
00000000
,
00000001
00000100
00001000
00000000
,
00010000
00100000
10000000
00000000
,
20000000
00000000
00000000
30000000
,
10000000
00010000
00100000
00000000
,
00002000
00000000
00000000
00003000
,
00001000
00010000
00000010
00000000
,
00002000
00000000
00000000
00003000
,
00000200
00000000
00000000
00000300
,
00010000
00001000
00010000
00000000
,
00011000
00000000
00000000
00000000
,
00000000
00000000
00000000
00000000
;
#NOTES:
     dance-double:
     :
     Medium:
     10:
     :
00000000
00000000
00000000
00000000
,
00000000
00000000
00000000
00000000
,
00000000
00000000
00000000
00000000
,
00000000
00000000
00000000
00000000
,
00000000
00000000
00000000
00000000
,
00000000
00000000
00000000
00000000
,
00001000
00000000
00000000
00001000
00000000
00000000
00001000
00000000
00000000
00000000
00000000
00000000
00000000
00000000
00000000
00000000
,
00000000
00010000
00001000
00011000
,
00010000
00000000
00000000
00010000
00000000
00000000
00010000
00000000
00000000
00000000
00000000
00000000
00000000
00000000
00000000
00000000
,
00000000
00001000
00010000
00011000
,
00001000
00010000
00001000
00010000
00000100
00010000
00000100
00000000
,
00001000
00000100
00001000
00000100
00000010
00000001
00000010
00000000
,
00000001
00001000
00000001
00001000
00000010
00001000
00000010
00000000
,
00010000
00000010
00010000
00000010
00010000
00001000
00010000
00000000
,
00022000
00000000
00000000
00033000
,
00001000
00000000
00100000
00000000
00010000
01000000
00100000
00000000
,
10000000
00000000
00010000
00000000
00100000
01000000
10000000
00000000
,
02000000
00100000
00100000
03100000
,
00200000
00001000
00001000
00301000
,
00001000
00000000
00010000
00000000
00000100
00001000
00000010
00000000
,
00000100
00000000
00000001
00000000
00000010
00000100
00001000
00000000
,
00000002
00000100
00000100
00000103
,
00000200
00000010
00000010
00000310
,
00000010
00000000
00001000
00000000
00000100
00010000
00000100
00000000
,
00010000
00000000
00001000
00000000
01000000
00001000
01000000
00000000
,
00020000
10000000
10000000
10030000
,
20000000
00100000
00100000
30100000
,
00100000
00000000
01000000
00000000
00010000
10000000
00010000
00000000
,
10000000
00000000
01000000
00000000
00100000
00001000
00010000
00000000
,
00002000
00010000
00010000
00013000
,
00020000
00001000
00001000
00031000
,
00020000
00032000
00003020
00000031
,
00000011
00000000
00001001
00000000
,
00000002
00000203
00002300
00013000
,
00011000
00000000
01100000
00000000
,
20020000
00000000
00000000
30030000
,
10010000
00000000
00000000
00000000
,
00000000
00000000
00000000
00000000
,
00000000
00000000
00000000
00000000
,
00000000
00000000
00000000
00000000
,
10000000
00000000
00000000
10000000
00000000
00000000
00000000
00000000
00100000
00000000
01000000
00000000
00010000
00000000
00000000
00000000
,
01000000
00000000
00000000
01000000
00000000
00000000
00000000
00000000
00001000
00000000
00010000
00000000
00001000
00000000
00000000
00000000
,
00010000
00001000
00000010
00000000
00000001
00000000
00001000
00000000
,
00000001
00000100
00001000
00000000
00010000
00000000
00001000
00000000
,
00022000
00000000
00000000
00033000
,
00001000
00000000
01000000
00000000
00010000
00100000
01000000
00000000
,
10000000
00000000
00100000
00000000
01000000
00010000
01000000
00000000
,
00010000
00000000
00100000
00000000
00001000
00010000
00000100
00000000
,
00000020
00000001
00000001
00000031
,
00000010
00000000
00000001
00000000
00000100
00000010
00001000
00000000
,
00000100
00000000
00010000
00000000
00001000
00100000
00010000
00000000
,
00100000
00000000
01000000
00000000
10000000
00100000
01000000
00000000
,
00020000
10000000
10000000
10030000
,
00010000
00000000
00000000
00100000
00000000
00000000
00000000
00000000
00001000
00000000
00010000
00000000
00001000
00000000
00000000
00000000
,
00010000
00000000
00000000
00000010
00000000
00000000
00000000
00000000
00001000
00000000
00000100
00000000
00001000
00000000
00000000
00000000
,
00000100
00000000
00000000
00010000
00000000
00000000
00000000
00000000
00001000
00000000
01000000
00000000
00001000
00000000
00000000
00000000
,
01000000
00000000
00010000
00000000
00100000
00001000
00010000
00000000
,
00001000
00010000
00000100
00001000
00000010
00001000
00000100
00000000
,
00010000
00001000
00100000
00010000
01000000
00010000
00100000
00000000
,
01000000
00010000
00001000
00000000
00000010
00000100
00001000
00000000
,
00000010
00000100
00001000
00000000
00010000
00100000
01000000
00000000
,
00010000
10000000
01000000
00100000
00010000
10000000
01000000
00000000
,
00000000
00100000
00010000
00100000
00001000
00010000
00000100
00001000
,
00000010
00000000
00001000
00000010
00000100
00000001
00000100
00000000
,
00000001
00000010
00000100
00000000
00001000
00000100
00010000
00000000
,
00002000
00000000
00000000
00003000
,
00020000
00000000
00000000
00030000
,
02000000
00000000
00000000
03000000
,
20000000
00000000
00000000
30000000
,
10000000
00000000
00100000
00000000
,
01000000
00010000
01000000
00000000
,
00010000
00000000
00100000
00000000
,
00001000
00010000
00001000
00000000
,
00010000
00000000
00000100
00000000
00001000
00000010
00001000
00000000
,
00000001
00000000
00000010
00000000
00000100
00001000
00000100
00000000
,
00010000
00000000
00001000
00000000
01000000
00010000
01000000
00000000
,
00020000
00000000
00000000
00030000
,
10000000
00000000
00100000
00000000
01000000
00010000
01000000
00000000
,
00010000
00000000
00100000
00000000
00001000
00010000
00000010
00000000
,
00001000
00000000
00000010
00000000
00000100
00000010
00000100
00000000
,
00000002
00000000
00000000
00000003
,
00000001
00000000
00000100
00000000
,
00001000
00010000
00100000
00000000
,
10000000
00100000
01000000
00000000
,
00010000
00100000
01000000
00000000
,
10000000
00000000
01000000
00000000
,
00010000
00001000
00000010
00000000
,
00000001
00000000
00001000
00000000
,
00001001
00000000
00000000
00000000
,
00000000
00000000
00000000
00000000
;
#NOTES:
     dance-double:
     :
     Hard:
     14:
     :
00000000
00000000
00000000
00000000
,
00000000
00000000
00000000
00000000
,
00000000
00000000
00000000
00000000
,
00000000
00000000
00000000
00000000
,
00000000
00000000
00000000
00000000
,
00000000
00000000
00000000
00000000
,
10000000
00010000
00000000
10000000
00000000
00010000
10000000
00000000
00000000
00000000
00000000
00000000
00000000
00000000
00000000
00000000
,
00000000
00000000
01000000
00010000
00001000
00000000
00000010
00000000
,
00000001
00001000
00000000
00000001
00000000
00001000
00000001
00000000
00000000
00000000
00000000
00000000
00000000
00000000
00000000
00000000
,
00000000
00000000
00000100
00001000
00010000
00000000
00011000
00000000
,
00001000
00100000
00010000
01000000
00001000
00100000
00010000
01000000
,
00100000
10000000
01000000
00010000
01000000
10000000
00010000
00000000
,
00100000
00001000
00010000
00000100
00001000
00000010
00010000
00000100
,
00001000
00000010
00000001
00000010
00001000
00000100
00000010
00000000
,
00000001
00000000
00000100
00000010
00001000
00000000
00000001
00000000
00001000
00000010
00000100
00000000
00000001
00000000
00000000
00000000
,
00000010
00000000
00000100
00000000
00001000
00000100
00000000
00000100
00000000
00000000
00010000
00000000
00001000
00010000
00000000
00010000
,
00000000
00000000
00100000
00000000
10000000
00010000
00000000
00010000
00000000
00000000
10000000
00000000
01000000
00100000
01000000
00000000
,
10000000
01000000
00010000
00001000
00010000
00100000
10000000
00000000
,
10000000
00100000
00010000
00001000
00010000
01000000
10000000
00000000
,
00100000
00000000
01000000
00000000
00010000
01000000
00000000
01000000
00000000
00000000
00001000
00000000
00010000
00001000
00000000
00001000
,
00000000
00000000
00000010
00000000
00000001
00001000
00000000
00001000
00000000
00000000
00000001
00000000
00000100
00000010
00000100
00000000
,
00000001
00000100
00001000
00010000
00001000
00000010
00000001
00000000
,
00000001
00000010
00001000
00010000
00001000
00000100
00000001
00000000
,
00001000
00000000
00000100
00000000
00000010
00000001
00000000
00000001
00000000
00000000
00000100
00000000
00001000
00010000
00000000
00010000
,
00000000
00000000
00100000
00000000
01000000
00010000
00000000
00010000
00000000
00000000
00100000
00000000
00001000
00010000
00001000
00000000
,
00010000
00100000
01000000
00001000
00010000
00100000
01000000
00001000
,
00010000
01000000
00100000
00001000
00010000
01000000
10000000
00000000
,
00010000
00000000
01000000
00000000
00100000
10000000
00000000
10000000
00000000
00000000
01000000
00000000
00010000
00001000
00000000
00001000
,
00000000
00000000
00000010
00000000
00000100
00001000
00000000
00001000
00000000
00000000
00000010
00000000
00010000
00001000
00010000
00000000
,
00001000
00000010
00000100
00010000
00001000
00000010
00000100
00010000
,
00001000
00000100
00000010
00010000
00001000
00000100
00000001
00000000
,
00000010
00001000
00010000
00000000
00010000
01000000
10000000
00000000
,
00100000
01000000
00100000
00000000
01000000
00000000
00100000
01000000
00000000
00100000
01000000
00000000
00100000
01000000
00100000
00000000
,
10000000
00100000
00010000
00000000
00010000
00001000
00000100
00000000
,
00000001
00001000
00000001
00000000
00001000
00000000
00000001
00001000
00000000
00000001
00001000
00000000
00000001
00001000
00000001
00000000
,
00000100
00000000
00000010
00000000
00010000
00000000
00001000
00000000
00010000
00001000
00010000
00001000
00010000
00001000
00010000
00000000
,
00002000
00000000
00000000
00000000
,
00023000
00000000
00000000
00000000
,
00230000
00000000
00000000
00000000
,
20300000
00000000
00000000
00000000
,
30010000
00000000
00000000
10000000
00000000
00000000
00000000
00000000
00010000
01000000
00010000
00000000
01000000
00000000
00001000
00010000
,
00001000
00000000
00000000
00010000
00000000
00000000
00000000
00000000
00001000
00010000
00001000
00000000
00010000
00000000
00000010
00001000
,
00000010
00000000
00000100
00000001
00000000
00000100
00000001
00000000
00001000
00000000
00000100
00010000
00000000
00000100
00010000
00000000
,
00001000
00000000
00100000
00000000
00010000
00000000
00100000
00000000
01000000
00000000
10000000
00000000
00010000
10000000
00010000
00000000
,
20000000
00000000
00000000
30000000
,
10000000
00000000
01000000
00000000
00100000
00000000
00010000
00000000
10000000
00000000
01000000
00100000
00010000
00000000
00100000
00001000
,
00100000
00000000
00001000
00000000
00010000
00000000
00000100
00000000
00001000
00000000
00000010
00001000
00000010
00000000
00000100
00000001
,
00000100
00000000
00000001
00000000
00000010
00000000
00000100
00000000
00001000
00000000
00000100
00010000
00000100
00000000
00010000
00001000
,
00010000
00000000
00001000
00000000
01000000
00000000
00010000
01000000
00000000
00010000
00100000
00010000
00100000
00000000
00010000
00000000
,
10000000
00000000
00100000
00000000
01000000
00000000
00010000
00000000
10000000
00000000
00100000
01000000
00010000
00000000
01000000
00001000
,
01000000
00000000
00001000
00000000
00010000
00000000
00000010
00000000
00001000
00000000
00000100
00001000
00000100
00000000
00000010
00000001
,
00000010
00000000
00000001
00000000
00000100
00000000
00000010
00000000
00001000
00000000
00000010
00010000
00000010
00000000
00010000
00001000
,
00010000
00000000
00001000
00000000
00100000
00000000
00010000
00100000
00000000
00010000
01000000
00010000
01000000
00000000
00010000
00000000
,
10000000
00000000
00000000
10010000
00000000
00000000
00000000
00000000
10000000
01000000
00100000
00000000
00010000
01000000
00100000
00000000
,
10000000
00000000
00000000
10010000
00000000
00000000
00000000
00000000
00010000
00100000
00001000
00000000
00010000
00000100
00001000
00000000
,
00000100
00000000
00000000
00000110
00000000
00000000
00000000
00000000
00000010
00000000
00000010
00000000
00000001
00000000
00000001
00000000
,
00001000
00000000
00000010
00000000
00001000
00000000
00000100
00000000
00000010
00000100
00000010
00000100
00000010
00000000
00000000
00000000
,
00000001
00000100
00000010
00001000
00010000
01000000
00100000
10000000
,
01000000
00100000
01000000
00000000
00100000
00010000
00100000
00000000
00010000
10000000
00010000
00000000
01000000
00000000
00100000
00000000
,
10000000
01000000
00100000
00010000
00001000
00000100
00000010
00000001
,
00000100
00000010
00000100
00000000
00000010
00001000
00000010
00000000
00001000
00000001
00001000
00000000
00000100
00000000
00000010
00000000
,
00000001
00000010
00000100
00000000
00001000
00000000
00000010
00000100
00001000
00000000
00010000
00000000
00100000
01000000
00010000
00000000
,
00000000
00000000
10000000
01000000
00100000
00000000
00010000
00000000
01000000
00100000
00010000
00000000
00001000
00000000
00000100
00000000
,
00000001
00000000
00000000
00000001
00001000
00000000
00000100
00000000
00000010
00000100
00000010
00000000
00000001
00001000
00000001
00000000
,
00000010
00001000
00010000
01000000
10000000
00100000
00010000
00001000
,
00020000
00000000
00000000
00030000
,
00002000
00000000
00000000
00003000
,
00000020
00000000
00000000
00000030
,
00000002
00000000
00000000
00000003
,
00000001
00000000
00001000
00000100
00000000
00001000
00000100
00000000
,
00010000
00000000
00001000
01000000
00000000
00001000
01000000
00000000
,
00100000
01000000
00100000
01000000
00010000
10000000
00010000
00000000
,
20020000
00000000
00000000
30030000
,
10000000
00000000
00100000
00000000
01000000
00000000
00010000
00000000
10000000
00000000
01000000
00100000
01000000
00000000
00100000
00010000
,
00100000
00000000
00001000
00000000
00010000
00000000
00000100
00000000
00001000
00000000
00000010
00000100
00000010
00000000
00001000
00000001
,
00001000
00000000
00000001
00000000
00000010
00000000
00001000
00000000
00010000
00000000
01000000
00100000
01000000
00000000
10000000
00010000
,
20000000
00100000
00010000
31000000
,
10000000
00000000
00010000
00000000
01000000
00000000
00100000
00000000
10000000
00000000
01000000
00100000
00010000
00000000
00100000
00001000
,
00010000
00000000
00001000
00000000
00000100
00000000
00000001
00000000
00001000
00000000
00000100
00000010
00000001
00000000
00000010
00000100
,
00001000
00000000
00000001
00000000
00000100
00000000
00000010
00000000
00001000
00000000
00000100
00010000
00000100
00000000
00001000
00000010
,
00002000
00000010
00000001
00003100
,
00001000
00000000
00000000
00000100
00000000
00000000
00010000
00000000
00000000
00001000
00000000
00000000
00010000
00000000
00000000
00000000
00000000
00000000
00001000
00000000
00100000
00000000
00001000
00000000
,
00200000
00000000
02300000
00000000
,
13000000
00000000
00100000
00000000
00010000
00000000
00001000
00010000
,
00001000
00000010
00000001
00000100
,
00000020
00000000
00000000
00000000
,
00020030
00000000
00000000
00000000
,
00032000
00000000
00000000
00000000
,
00013000
00000000
00000000
00000000
,
00000000
00000000
00000000
00000000
;
#NOTES:
     dance-double:
     :
     Challenge:
     17:
     :
00000000
00000000
00000000
00000000
,
00000000
00000000
00000000
00000000
,
00000000
00000000
00000000
00000000
,
00000000
00000000
00000000
00000000
,
00000000
00000000
00000000
00000000
,
00000000
00000000
00000000
00000000
,
00001000
00010000
00000000
00001000
00000000
00010000
00001000
00000000
00000000
00000000
00000000
00000000
00000000
00000000
00000000
00000000
,
00000000
00010000
00010000
00010000
,
00001000
00010000
00000000
00001000
00000000
00010000
00001000
00000000
00000000
00000000
00000000
00000000
00000000
00000000
00000000
00000000
,
00000000
00010000
00010000
00010000
,
00001000
00010000
00001000
00010000
00000100
00001000
00000100
00000000
00000010
00000001
00000010
00000001
00001000
00000001
00001000
00000000
,
00000001
00000100
00000001
00000100
00000010
00001000
00000010
00000000
00010000
00000010
00010000
00000010
00010000
00001000
00010000
00000000
,
00001000
01000000
00001000
01000000
00010000
01000000
00010000
00000000
00100000
00010000
00100000
00010000
10000000
00010000
10000000
00000000
,
01000000
10000000
01000000
10000000
01000000
00100000
01000000
00000000
00100000
00010000
00100000
00010000
00100000
00001000
00010000
00000000
,
00001000
00010000
00000100
00001000
00000010
00001000
00000100
00010000
00000100
00001000
00000010
00001000
00000100
00010000
00001000
00000000
,
00010000
00001000
00010000
00000000
00001000
00010000
00000010
00001000
00000000
00000000
00001010
00000000
00001000
00000010
00000100
00000001
,
00000000
00000000
00001001
00000000
00000001
00000010
00000100
00001000
00000000
00000000
00001100
00000000
00000100
00010000
00000100
00010000
,
00001000
00100000
00010000
00100000
01000000
00100000
00010000
00100000
00000000
00100000
00001000
01000000
00010000
00100000
00001000
00000000
,
00010000
00100000
01000000
00100000
10000000
00100000
01000000
00010000
00000000
00010000
01000000
00010000
01000000
00001000
00010000
00000000
,
00001000
00010000
00001000
00000000
00010000
00001000
00100000
00010000
00000000
00000000
00110000
00000000
00010000
00100000
01000000
10000000
,
00000000
00000000
10010000
00000000
10000000
00100000
01000000
00010000
00000000
00000000
01010000
00000000
01000000
00001000
01000000
00001000
,
00010000
00000010
00001000
00000010
00000100
00000010
00001000
00000010
00000000
00000010
00010000
00000100
00001000
00000010
00010000
00000000
,
00001000
00000010
00000100
00000010
00000001
00000010
00000100
00000000
00001000
00000000
00000000
00000001
00000000
00000000
00001000
00000000
,
00000001
00000010
00000100
00000000
00001000
00000001
00001000
00000001
00000000
00000000
00001001
00000000
00000001
00001000
00000100
00001000
,
00000000
00000000
00001100
00000000
00001000
00000100
00010000
00001000
00000000
00000000
00011000
00000000
00010000
00001000
00100000
00010000
,
00100000
00000000
01000000
10000000
00100000
01000000
00010000
00100000
00000000
01000000
00000000
00100000
00010000
01000000
00100000
00000000
,
10000000
00000000
00100000
01000000
00010000
00100000
00001000
00010000
00000000
00001000
00000000
00100000
00010000
00100000
01000000
00000000
,
10000000
00100000
01000000
00000000
00010000
10000000
00010000
10000000
00000000
00000000
10010000
00000000
10000000
00010000
01000000
00010000
,
00000000
00000000
01010000
00000000
00010000
01000000
00001000
00010000
00000000
00000000
00011000
00000000
00001000
00010000
00000010
00001000
,
00000010
00000000
00000100
00000001
00000010
00000100
00001000
00000010
00000000
00000100
00000000
00000010
00001000
00000100
00000010
00000000
,
00000001
00000000
00000010
00000100
00001000
00000000
00000010
00000100
00000001
00000000
00001000
00000001
00001000
00000000
00001000
00000000
,
00000002
00000203
00000320
00002030
00023000
02030000
03200000
20300000
,
30010000
00100000
00010000
00000000
01000000
00010000
01000000
00010000
00000000
00100000
00010000
01000000
00010000
00100000
00010000
00000000
,
20000000
32000000
03200000
00320000
00032000
00003200
00000320
00000032
,
00001003
00000010
00001000
00000000
00000100
00001000
00000100
00001000
00000000
00000010
00001000
00000100
00001000
00000010
00001000
00000000
,
00000001
00000010
00000100
00001000
00000100
00010000
00001000
00100000
00001000
00010000
00001000
00010000
00001000
00010000
00001000
00010000
,
00002000
00000000
00000000
00000000
,
00000000
00000000
00000000
00000000
,
00000000
00000000
00000000
00000000
,
00000000
00000000
00000000
00003000
,
00001000
00000000
00000000
00011000
00000000
00000000
00000000
00000000
00001000
00010000
00100000
00000000
10000000
01000000
00100000
00000000
,
00010000
00000000
00000000
10010000
00000000
00000000
00000000
00000000
10000000
01000000
00010000
00000000
00001000
00100000
00001000
00000000
,
00010000
00000000
00000100
00010000
00000000
00000010
00010000
00000000
00001000
00000000
01000000
00001000
00000000
00100000
00001000
00000000
,
00010000
00000100
00001000
00000000
00000010
00000100
00000001
00000000
00000010
00000100
00000010
00000100
00001000
00000001
00001000
00000001
,
00002000
00000000
00000000
00003000
,
00000001
00000010
00000100
00001000
00000001
00000000
00000001
00000010
00000100
00001000
00000001
00000000
00000001
00000010
00000100
00001000
,
00000001
00000000
00001000
00000010
00001000
00000000
00000010
00010000
00000010
00000000
00010000
00001000
00010000
00000000
00001000
00000000
,
00100000
00010000
01000000
00001000
00100000
00000000
00100000
00010000
01000000
00001000
00100000
00000000
00100000
00010000
01000000
00001000
,
00100000
00000000
00010000
00000000
01000000
00100000
01000000
00100000
00000000
10000000
00100000
10000000
00010000
10000000
00010000
00000000
,
10000000
00100000
01000000
00010000
10000000
00000000
10000000
00100000
01000000
00010000
10000000
00000000
10000000
00100000
01000000
00010000
,
10000000
00000000
00010000
00100000
00010000
00000000
00100000
00001000
00100000
00000000
00001000
00010000
00001000
00000000
00010000
00000000
,
00000010
00001000
00000100
00010000
00000010
00000000
00000010
00001000
00000100
00010000
00000010
00000000
00000010
00001000
00000100
00010000
,
00000010
00000000
00001000
00000000
00000100
00000010
00000100
00000010
00000000
00000001
00000010
00000001
00001000
00000001
00001000
00000000
,
00000001
00000000
00000000
00001001
00000000
00000000
00000000
00000000
00000001
00000100
00001000
00000000
00010000
00100000
10000000
00000000
,
00010000
00000000
00000000
10010000
00000000
00000000
00000000
00000000
10000000
01000000
00010000
00000000
00001000
00000010
00000001
00000000
,
00001000
00000000
00000000
00001001
00000000
00000000
00000000
00000000
00000001
00000000
00000100
00000000
00001000
00000000
00010000
00000000
,
01000000
10000000
00100000
01000000
00010000
00100000
00001000
00010000
00000100
00001000
00000010
00000100
00000001
00000000
00000000
00000000
,
00000010
00000001
00001000
00000001
00000010
00000100
00001000
00000100
00010000
00000100
00010000
00001000
00100000
00001000
01000000
00000000
,
00001000
00100000
00010000
00100000
01000000
10000000
00010000
01000000
00100000
10000000
00010000
10000000
00100000
01000000
00010000
00000000
,
10000000
01000000
00010000
00000000
00001000
00000000
00000010
00000000
00000001
00000100
00001000
00000000
00010000
00000000
00100000
00000000
,
10000000
00100000
01000000
00001000
00010000
01000000
00100000
00001000
00010000
00000100
00000010
00000001
00001000
00000000
00000000
00000000
,
00000001
00000010
00000100
00010000
00001000
00010000
00000100
00000010
00000001
00000010
00000100
00010000
00001000
00010000
00000100
00000000
,
00000000
00000000
00010000
00001000
00100000
01000000
10000000
01000000
00100000
00001000
00010000
00001000
00100000
01000000
10000000
01000000
,
00100000
00000000
00000000
00010000
10000000
01000000
00100000
00010000
01000000
00100000
00010000
00001000
00000100
00000010
00000100
00001000
,
00010000
00100000
01000000
00010000
00100000
00001000
00010000
00000100
00001000
00000010
00000100
00000000
00000001
00001000
00000001
00000000
,
00002000
00000000
00000000
00003000
,
00000200
00000000
00000000
00000300
,
00020000
00000000
00000000
00030000
,
00002000
00000000
00000000
00003000
,
00200000
00000000
00000000
00300000
,
00020000
00000000
00000000
00030000
,
20000000
00000000
00000000
30000000
,
00010000
10000000
00010000
10000000
00010000
10000000
00010000
10000000
00010000
10000000
00010000
10000000
00010000
10000000
00010000
00000000
,
10000000
01000000
00100000
01000000
10000000
00000000
10000000
00010000
00100000
00001000
00010000
00000000
00010000
00000100
00001000
00000100
,
00000010
00000000
00000001
00000010
00000100
00000000
00001000
00000010
00000100
00000000
00000001
00000000
00001000
00000000
00000000
00000000
,
00000001
00000100
00000010
00000100
00000001
00000000
00000001
00001000
00000010
00010000
00001000
00000000
00001000
01000000
00010000
01000000
,
00100000
00000000
10000000
00100000
01000000
00000000
00010000
00100000
01000000
00000000
10000000
00000000
00010000
00000000
00000000
00000000
,
10000000
00100000
01000000
00010000
10000000
00000000
10000000
00010000
00100000
00001000
00010000
00000000
00010000
00001000
00010000
00000100
,
00001000
00000000
00000010
00010000
00001000
00000000
00000010
00000001
00001000
00000000
00000100
00000010
00000001
00000000
00001000
00000000
,
00000001
00000010
00000100
00001000
00000001
00000000
00000001
00001000
00000010
00010000
00001000
00000000
00001000
00010000
00001000
01000000
,
00010000
00000000
00100000
00001000
00010000
00000000
00100000
10000000
00010000
01000000
00100000
10000000
00010000
00100000
01000000
00100000
,
00020000
00000000
00000000
00000000
,
00000000
00000000
00000000
00030000
,
20000000
00000000
00000000
00000000
,
00000000
00000000
00000000
30000000
,
10000000
00000000
00000000
01000000
00000000
00000000
00100000
00000000
00000000
00010000
00000000
00000000
00001000
00000000
00000000
00000000
00000000
00000000
00001000
00000000
00000100
00000000
00000010
00000000
,
00000001
00000000
00000000
00000011
00000000
00000000
00001001
00000000
00000000
00001000
00000001
00001000
,
00000001
00000000
00000001
00000100
00001000
00000000
00010000
00000000
,
00011000
00000000
00000000
00000000
,
00000000
00000000
00000000
00000000
;
