
//----- song ID: pret -----//
#TITLE:Pretender;
#BANNER:Pretender.png;
#BACKGROUND:Pretender-bg.png;
#CDTITLE:./CDTitles/DDR GRAND PRIX.png;
#MUSIC:Pretender.ogg;
#SAMPLESTART:78.253;
#SAMPLELENGTH:15;
#BPMS:0=92;
#NOTES:
     dance-single:
     :
     Beginner:
     1:
     :
0000
0000
0000
0000
,
0000
0000
0000
0000
,
0000
0000
0000
0000
,
0000
0000
0000
0000
,
0000
0000
0000
0000
,
0000
0000
0000
0000
,
0001
0000
0000
0000
,
0010
0000
0000
0000
,
0010
0000
0000
0000
,
0000
0000
0000
0000
,
0001
0000
0000
0000
,
0010
0000
0000
0000
,
1000
0000
0000
0000
,
0100
0000
0000
0000
,
0100
0000
0000
0000
,
0000
0000
0000
0000
,
0010
0000
0000
0000
,
1000
0000
0000
0000
,
1000
0000
0000
0000
,
0000
0000
0000
0000
,
1000
0000
1000
0000
,
0010
0000
0000
0000
,
0100
0000
0000
0000
,
0000
0000
0000
0000
,
0001
0000
0001
0000
,
0010
0000
0000
0000
,
0100
0000
0000
0000
,
0000
0000
0000
0000
,
0001
0000
0000
0000
,
0010
0000
0000
0000
,
0010
0000
0000
0000
,
0010
0000
0000
0000
,
0100
0000
0000
0000
,
0000
0000
0000
0000
,
1000
0000
1000
0000
,
0100
0000
0000
0000
,
0100
0000
0000
0000
,
0000
0000
0000
0000
,
0100
0000
0000
0000
,
0100
0000
0000
0000
,
0010
0000
0000
0000
,
0000
0000
0000
0000
,
0010
0000
0010
0000
,
0001
0000
0000
0000
,
0100
0000
0000
0000
,
0000
0000
0000
0000
,
2000
0000
0000
0000
,
0000
0000
0000
0000
,
3000
0000
0000
0000
,
0000
0000
0000
0000
;
#NOTES:
     dance-single:
     :
     Easy:
     3:
     :
0000
0000
0000
0000
,
0000
0000
0000
0000
,
0000
0000
0000
0000
,
0000
0000
0000
0000
,
0000
0000
0000
0000
,
0000
0000
0000
0000
,
0002
0000
0000
0000
,
0003
0000
0000
0000
,
2000
0000
0000
0000
,
3000
0000
0000
0000
,
0020
0000
0000
0000
,
0030
0000
0000
0000
,
0100
0001
0100
0000
,
0100
0000
0000
0000
,
0001
0010
0001
0000
,
0001
0000
0000
0000
,
1000
0010
1000
0000
,
1000
0000
0000
0000
,
2002
0000
0000
0000
,
3003
0000
0000
0000
,
1000
1000
0010
0000
,
1000
1000
0100
0000
,
0001
0001
0010
0000
,
0001
0001
0100
0000
,
0001
0010
0001
0000
,
1000
0100
1000
0000
,
0010
1000
0010
0000
,
0100
0001
0100
0000
,
1001
0000
0000
0000
,
0000
0000
0000
0000
,
0001
0000
0100
0000
,
0010
0010
0010
0000
,
1000
0100
0001
0000
,
0001
0100
1000
0000
,
0010
0010
1000
0000
,
0001
0100
0001
0000
,
0220
0000
0000
0000
,
0330
0000
0000
0000
,
0001
0000
0010
0000
,
0100
0100
0100
0000
,
1000
0010
0001
0000
,
0001
0010
1000
0000
,
0100
0100
1000
0000
,
0001
0010
0001
0000
,
0220
0000
0000
0000
,
0330
0000
0000
0000
,
2002
0000
0000
0000
,
0000
0000
0000
0000
,
3003
0000
0000
0000
,
0000
0000
0000
0000
;
#NOTES:
     dance-single:
     :
     Medium:
     7:
     :
0000
0000
0000
0000
,
0000
0000
0000
0000
,
0000
0000
0000
0000
,
0000
0000
0000
0000
,
0000
0000
0000
0000
,
0000
0000
0000
0000
,
0002
0000
0010
0013
,
2000
0000
0010
3010
,
0200
0000
0010
0310
,
2002
0000
0000
3003
,
0010
1000
0100
0000
,
0010
0001
0100
0000
,
0001
0000
1000
0000
0010
0100
0010
0000
,
1000
0100
0001
0100
,
1000
0000
0001
0000
0010
0100
0010
0000
,
0001
0100
1000
0100
,
0001
0100
0001
0000
1000
0010
1000
0000
,
0100
1000
0100
0000
0010
0001
0010
0000
,
2002
0000
0000
0000
,
3003
0000
0000
0000
,
0010
1000
0001
1000
0010
0000
0000
0000
,
0100
0001
1000
0001
0100
0000
0000
0000
,
0001
0010
0100
0000
1000
0010
0100
0000
,
0002
0203
0320
1030
,
1000
0100
0010
0100
1000
0000
0000
0000
,
0001
0100
0010
0100
0001
0000
0000
0000
,
0100
0001
0010
0000
0100
1000
0010
0000
,
1001
0220
0000
0330
,
1000
0010
0100
0000
0001
0010
0100
0000
,
1000
0001
0100
0010
1000
0000
0000
0000
,
2001
0000
0010
0000
0100
0100
3100
0000
,
1100
0101
1001
0000
,
0001
0010
0001
0000
0001
0100
0001
0000
,
1000
0010
1000
0100
1000
0000
0000
0000
,
0010
1000
0010
1000
0010
0100
0010
0000
,
0100
0001
0100
0001
0010
0001
0010
0000
,
0010
0001
0100
0000
0010
1000
0100
0000
,
1000
0010
0001
0010
1000
0001
1000
0000
,
1002
0000
0010
0000
0100
0100
0103
0000
,
0101
1100
1001
0000
,
1000
0010
1000
0000
1000
0100
1000
0000
,
0001
0010
0001
0100
0001
0000
0000
0000
,
0010
0001
0010
0001
0010
0100
0010
0000
,
0100
1000
0100
1000
0010
1000
0010
0000
,
0010
1000
0100
0000
0010
0001
0100
0000
,
0001
0010
1000
0010
0001
1000
0001
0000
,
2002
0000
0000
3000
,
0200
0000
0000
0000
,
0303
0000
0000
0000
,
0000
0000
0000
0000
;
#NOTES:
     dance-single:
     :
     Hard:
     11:
     :
0000
0000
0000
0000
,
0000
0000
0000
0000
,
0000
0000
0000
0000
,
0000
0000
0000
0000
,
0000
0000
0000
0000
,
0000
0000
0000
0000
,
0000
0001
0001
0100
0100
0010
1000
0010
,
0000
0000
1010
0000
0000
1000
0001
1000
0001
0000
0010
0000
0001
0000
0200
0000
,
0000
0000
0310
0000
0000
0000
0010
1000
0000
0000
0100
1000
0001
0000
1000
0000
,
0200
0000
0300
0100
0010
0000
0010
0001
0000
2002
0000
0000
0000
0000
3003
0000
,
1000
0000
0010
0000
0100
0001
0100
0000
0002
0000
2000
0000
0000
0000
3003
1000
,
0000
0010
0200
0000
0000
0000
0301
0100
0000
0001
1000
0000
0001
0000
0001
0000
,
1001
2000
3200
0302
0203
2300
3002
0023
,
0030
0000
0011
0000
0000
0010
0001
0010
0002
0000
2003
0000
3200
0000
2300
0000
,
3000
0000
1010
0000
0000
0000
0010
1000
0000
0001
0100
0000
0010
0200
0000
0000
,
0300
0000
0000
0100
0010
0000
0010
1000
0000
1000
0002
0000
0000
0000
0003
0000
,
1000
0100
0000
0010
0100
0000
0010
0001
0000
1000
0001
0000
1000
0000
0001
0100
,
0000
0010
0100
0000
0000
0010
0100
0010
1000
0000
0010
0000
0001
0000
0010
0000
,
2000
0000
0000
0000
0010
0000
0000
0100
0000
0000
3100
0000
0010
0000
0002
0000
,
1000
0000
0000
0000
0010
0000
0000
0100
0000
0000
0103
0000
0010
0000
0000
0000
,
1000
0000
1000
0000
1010
0000
1000
0100
0010
0000
0002
0000
0000
0000
0003
0000
,
0001
0000
0001
0000
0011
0000
0001
0100
0010
0000
2000
0000
0000
0000
3000
0000
,
1000
0000
0010
0100
0000
0000
0010
0100
0001
2000
0000
0000
3000
0000
1000
0000
,
0100
0000
0100
0000
0010
0000
0010
0000
0001
1000
0000
1001
0000
0000
0000
0000
,
0100
0000
0100
0000
0101
0000
0010
1000
0100
0000
0020
0000
0000
0000
0030
0000
,
0100
0000
0100
0000
1100
0000
0010
0001
0100
0000
0020
0000
0000
0000
0030
0000
,
1000
0010
2000
0000
3000
0000
0001
0010
0001
0000
1000
0100
0000
0000
1000
0010
,
0000
0000
0001
0000
0010
0000
0000
2020
0000
0000
3030
0000
1000
0000
0010
0000
,
1000
0100
1000
0100
0010
0001
0010
0001
,
0100
0010
0100
0010
1001
1001
0000
0000
,
0000
0010
0100
1001
0000
0010
0100
1001
,
2000
0000
0000
3010
2000
0000
0000
3010
1000
0001
2000
0000
0000
0000
3000
0100
,
1000
0000
0000
0100
1000
0000
0000
0100
1000
0001
2000
0000
0000
0000
3000
0100
,
0020
0000
0030
0100
0020
0000
0030
0100
0010
0001
2000
0000
0000
0000
3000
0000
,
0010
0100
0001
0010
0100
1000
0010
0100
,
0001
0000
0100
0000
1000
0000
0100
0000
0001
0000
0010
0000
1000
0000
0010
0001
,
0000
0000
0001
0100
0000
0000
0100
0010
0000
0000
0010
1000
0000
0000
1000
0001
,
1000
0000
0100
0010
0000
0000
0010
0001
0000
0001
1000
0000
0110
0000
1001
0000
,
0000
0010
0100
1001
0000
0010
0100
1001
,
0002
0000
0000
0013
0002
0000
0000
0013
0001
1000
0002
0000
0000
0000
0003
0100
,
0001
0000
0000
0100
0001
0000
0000
0100
0001
1000
0002
0000
0000
0000
0003
0100
,
0020
0000
0030
0100
0020
0000
0030
0100
0010
1000
0002
0000
0000
0000
0003
0000
,
0010
0100
1000
0010
0100
0001
0010
0100
,
1000
0100
0001
0100
1000
0010
0001
0010
,
1000
0000
0100
0010
0000
0000
0010
0001
0000
0000
0001
1000
0000
0010
0100
0000
,
0001
0000
0100
0000
1000
0000
0100
0001
0100
0000
0010
0000
1000
0000
0100
0000
,
0020
0000
0000
0000
,
0000
0000
0000
0000
,
0030
0000
0000
0000
,
0000
0000
0000
0000
;
#NOTES:
     dance-double:
     :
     Easy:
     3:
     :
00000000
00000000
00000000
00000000
,
00000000
00000000
00000000
00000000
,
00000000
00000000
00000000
00000000
,
00000000
00000000
00000000
00000000
,
00000000
00000000
00000000
00000000
,
00000000
00000000
00000000
00000000
,
00002000
00000000
00000000
00000000
,
00003000
00000000
00000000
00000000
,
00020000
00000000
00000000
00000000
,
00030000
00000000
00000000
00000000
,
00200000
00000000
00000000
00000000
,
00300000
00000000
00000000
00000000
,
01000000
00010000
01000000
00000000
,
00010000
00000000
00000000
00000000
,
00100000
00001000
00100000
00000000
,
00001000
00000000
00000000
00000000
,
00010000
00001000
00010000
00000000
,
00000100
00000000
00000000
00000000
,
00000020
00000000
00000000
00000000
,
00000030
00000000
00000000
00000000
,
00000001
00000100
00000001
00000000
,
00001000
00000010
00001000
00000000
,
00000010
00010000
00000010
00000000
,
00010000
00001000
00010000
00000000
,
00001000
00100000
00001000
00000000
,
00100000
00010000
00100000
00000000
,
01000000
10000000
01000000
00000000
,
00100000
01000000
00100000
00000000
,
01100000
00000000
00000000
00000000
,
00000000
00000000
00000000
00000000
,
00001000
00010000
00001000
00010000
,
00000100
00000100
00000100
00000000
,
00010000
00001000
00010000
00001000
,
01000000
01000000
01000000
00000000
,
00010000
01000000
00010000
00000000
,
00100000
00001000
00010000
00000000
,
00000200
00000000
00000000
00000300
,
00000020
00000000
00000000
00000030
,
00000001
00001000
00000001
00000000
,
00000100
00000010
00000100
00000000
,
00001000
00010000
00001000
00000000
,
01000000
00010000
00100000
00000000
,
02000000
00000000
00000000
03000000
,
00200000
00000000
00000000
00300000
,
00001000
00010000
00001000
00000000
,
00010000
00001000
00010000
00000000
,
00022000
00000000
00000000
00000000
,
00000000
00000000
00000000
00000000
,
00033000
00000000
00000000
00000000
,
00000000
00000000
00000000
00000000
;
#NOTES:
     dance-double:
     :
     Medium:
     7:
     :
00000000
00000000
00000000
00000000
,
00000000
00000000
00000000
00000000
,
00000000
00000000
00000000
00000000
,
00000000
00000000
00000000
00000000
,
00000000
00000000
00000000
00000000
,
00000000
00000000
00000000
00000000
,
00000002
00000000
00000103
00000010
,
00002000
00000000
00003100
00010000
,
00002000
00000000
00103000
00010000
,
02000000
00000000
00000000
03000000
,
00100000
10000000
00100000
00000000
,
01000000
00010000
00100000
00000000
,
00010000
00100000
01000000
00010000
,
00001000
00000010
00000001
00001000
,
00000001
00000100
00001000
00000100
,
00000001
00001000
00000010
00000100
,
00001000
00010000
00100000
10000000
,
00010000
01000000
00100000
10000000
,
20020000
00000000
00000000
00000000
,
30030000
00000000
00000000
00000000
,
10000000
01000000
00100000
00010000
00100000
00000000
00000000
00000000
,
00001000
00010000
00000100
00001000
00000010
00000000
00000000
00000000
,
00000100
00000001
00001000
00000010
00001000
00000000
00000000
00000000
,
00000002
00000203
00002300
00013000
,
00100000
01000000
00010000
01000000
00100000
00000000
00000000
00000000
,
10000000
01000000
00100000
01000000
10000000
00000000
00000000
00000000
,
00100000
10000000
00010000
00000000
00100000
00001000
00010000
00000000
,
00001000
00022000
00000000
00033000
,
00010000
00000100
00010000
00000000
00000010
00001000
00000010
00000000
,
00000100
00000010
00001000
00000001
00001000
00000000
00000000
00000000
,
00000002
00000100
00001000
00000103
,
00000001
00000100
00001000
00010000
00100000
00000000
00000000
00000000
,
10000000
00100000
01000000
00100000
01000000
00000000
00000000
00000000
,
00010000
00100000
00001000
00010000
00001000
00000000
00000000
00000000
,
00000020
00000000
00000032
00000000
00000013
00000100
00000010
00000000
,
00002000
00000000
00023000
00000000
01030000
00100000
01000000
00000000
,
00100000
00001000
00010000
00001000
02000000
00000000
03000000
00000000
,
00010000
10000000
01000000
10000000
00200000
00000000
00300000
00000000
,
20000000
01000000
00010000
31000000
,
10000000
01000000
00010000
00001000
00000010
00000000
00000000
00000000
,
00000001
00000010
00000100
00000010
00000100
00000000
00000000
00000000
,
00001000
00000010
00010000
00001000
00010000
00000000
00000000
00000000
,
00200000
00000000
20300000
00000000
30100000
01000000
00100000
00000000
,
00020000
00000000
00032000
00000000
00003100
00000010
00000100
00000000
,
00000010
00010000
00001000
00010000
00000200
00000000
00000300
00000000
,
00001000
00000001
00000100
00000001
00000020
00000000
00000030
00000000
,
00002002
00000000
00000000
00000000
,
00000000
00000000
00000000
00000000
,
00003003
00000000
00000000
00000000
,
00000000
00000000
00000000
00000000
;
#NOTES:
     dance-double:
     :
     Hard:
     11:
     :
00000000
00000000
00000000
00000000
,
00000000
00000000
00000000
00000000
,
00000000
00000000
00000000
00000000
,
00000000
00000000
00000000
00000000
,
00000000
00000000
00000000
00000000
,
00000000
00000000
00000000
00000000
,
00000000
00001000
00010000
00010000
00100000
10000000
01000000
10000000
,
00000000
00000000
11000000
00000000
00000000
00100000
00010000
00100000
00010000
00000000
00100000
00000000
00001000
00000000
00020000
00000000
,
00000000
00000000
00031000
00000000
00000000
00000000
00000010
00000001
00000000
00000000
00000100
00000001
00000100
00000000
00000010
00000000
,
00000000
00000000
00000000
00001000
00000010
00000000
00000010
00010000
00000000
00002000
00000000
00000000
00000000
00000000
00003000
00000000
,
00010000
00000000
01000000
00000000
10000000
00000000
01000000
00000000
00100000
00000000
00200000
00000000
00000000
00000000
00300000
00010000
,
00000000
00010000
02000000
00000000
00000000
00000000
03001000
00010000
00000000
00001000
00010000
00000000
00001000
00000000
00001000
00000000
,
00011000
00020000
00032000
00003020
00000032
00002003
00003200
00000320
,
00000030
00000000
00000011
00000000
00000000
00000001
00000100
00000001
00000200
00000000
00000320
00000000
00020030
00000000
00032000
00000000
,
00003000
00000000
00011000
00000000
00000000
00000000
00001000
00100000
00000000
00010000
01000000
00000000
00100000
02000000
00000000
00000000
,
03000000
00000000
00000000
00100000
10000000
00000000
10000000
00010000
00000000
00010000
00200000
00000000
00000000
00000000
00300000
00000000
,
01000000
00100000
00000000
01000000
00100000
00000000
00001000
00010000
00000000
00001000
00010000
00000000
00001000
00000000
00000010
00000100
,
00000000
00000010
00000100
00000000
00000000
00000010
00000001
00000010
00000001
00000000
00000100
00000000
00001000
00000000
00010000
00000000
,
00002000
00000000
00010000
00000000
00000000
00000000
00013000
00200000
,
00000000
10000000
00000000
10300000
,
10000000
00000000
01000000
00000000
00100000
00000000
01000000
00100000
00010000
00000000
00200000
00000000
00000000
00000000
00300000
00000000
,
00001000
00000000
00010000
00000000
00000100
00000000
00001000
00000100
00000010
00000000
00000002
00000000
00000000
00000000
00000003
00000000
,
00000001
00000000
00000100
00000010
00000000
00000000
00000100
00001000
00010000
00002000
00000000
00000000
00003000
00000000
00010000
00000000
,
00001000
00000000
00001000
00000000
01000000
00000000
01000000
00000000
00010000
00100000
00000000
01100000
00000000
00000000
00000000
00000000
,
10000000
00000000
00100000
00000000
01000000
00000000
00100000
01000000
00010000
00000000
02000000
00000000
00000000
00000000
03000000
00000000
,
00001000
00000000
00010000
00000000
00000010
00000000
00001000
00000010
00000100
00000000
00000002
00000000
00000000
00000000
00000003
00000000
,
00000001
00000010
00000001
00000000
00000000
00000000
00001000
00000100
00001000
00000000
00000100
00010000
00000000
00000000
00001000
00100000
,
00001000
00000000
01000000
00000000
00010000
00000000
00000000
10010000
00000000
00000000
00000000
00000000
10000000
00000000
00100000
00000000
,
10000000
01000000
10000000
01000000
00100000
00010000
00100000
00010000
,
00001000
00000100
00001000
00000100
00000010
00000001
00000000
00000000
,
00000001
00000100
00001000
00010000
00000010
00000100
00001000
00010000
,
00100000
00010000
00001000
00010000
01000000
00010000
00001000
00010000
,
00001000
00000010
00001000
00010000
00001000
00000100
00001000
00010000
,
00100000
01000000
00001000
00010000
01000000
10000000
00010000
00100000
,
01000000
10000000
00100000
01000000
00001000
00100000
00010000
01000000
,
00001000
00100000
00001000
00010000
00000100
00001000
00000010
00000100
,
00000001
00000010
00001000
00000010
00000001
00000100
00001000
00010000
,
00100000
10000000
01000000
00010000
01000000
10000000
00010000
00010000
,
10000000
01000000
00010000
00001000
00100000
01000000
00010000
00001000
,
00000010
00001000
00010000
00001000
00000100
00001000
00010000
00001000
,
00010000
00100000
00010000
00001000
00010000
01000000
00010000
00001000
,
00000010
00000100
00010000
00001000
00000100
00000001
00001000
00000010
,
00000100
00000001
00000010
00000100
00010000
00000010
00001000
00000100
,
00010000
00000010
00010000
00001000
01000000
00010000
00100000
01000000
,
10000000
00100000
00010000
00100000
10000000
01000000
00010000
00001000
,
00000010
00000001
00000100
00001000
00010000
00010000
00001000
00001000
,
00022000
00000000
00000000
00000000
,
00000000
00000000
00000000
00000000
,
00033000
00000000
00000000
00000000
,
00000000
00000000
00000000
00000000
;
