
//----- song ID: padi -----//
#TITLE:Paradission;
#ARTIST:BlackY;
#BANNER:Paradission.png;
#BACKGROUND:Paradission-bg.png;
#CDTITLE:./CDTitles/MUSECA.png;
#MUSIC:Paradission.ogg;
#SAMPLESTART:71.689;
#SAMPLELENGTH:15;
#DISPLAYBPM:154;
#BPMS:0=154.3,4=154;
#BGSTAGE:14;
#NOTES:
     dance-single:
     :
     Beginner:
     3:
     :
0000
0000
0000
0000
,
0000
0000
0000
0000
,
0000
0000
0000
0000
,
0000
0000
0000
0000
,
0000
0000
0000
0000
,
0001
0000
0001
0000
,
0010
0000
0000
0000
,
0010
0000
1000
0000
,
1001
0000
0000
0000
,
1000
0000
1000
0000
,
0010
0000
0000
0000
,
0010
0000
1000
0000
,
0010
0000
0000
0000
,
0010
0000
0010
0000
,
0001
0000
0000
0000
,
0001
0000
0010
0000
,
0001
0000
0000
0000
,
0002
0000
0000
0000
,
0003
0000
0000
0000
,
2000
0000
0000
0000
,
3000
0000
0000
0000
,
1000
0000
1000
0000
,
0100
0000
0000
0000
,
1000
0000
1000
0000
,
0010
0000
0000
0000
,
0001
0000
0001
0000
,
0100
0000
0000
0000
,
0001
0000
0001
0000
,
0010
0000
0000
0000
,
0002
0000
0000
0000
,
0003
0000
0000
0000
,
2000
0000
0000
0000
,
3000
0000
0000
0000
,
1001
0000
0000
0000
,
0000
0000
0000
0000
,
1001
0000
0000
0000
,
0000
0000
0000
0000
,
0001
0000
0001
0000
,
0010
0000
0000
0000
,
0010
0000
0010
0000
,
1000
0000
0000
0000
,
1000
0000
1000
0000
,
0010
0000
0000
0000
,
0010
0000
0010
0000
,
0001
0000
0000
0000
,
1001
0000
0000
0000
,
0001
0000
0010
0000
,
1000
0000
0000
0000
,
1000
0000
0010
0000
,
0001
0000
0000
0000
,
0001
0000
0100
0000
,
1000
0000
0000
0000
,
1000
0000
0100
0000
,
0001
0000
0000
0000
,
0001
0000
0001
0000
,
0010
0000
0010
0000
,
0001
0000
0001
0000
,
0010
0000
0000
0000
,
1000
0000
1000
0000
,
0010
0000
0010
0000
,
1000
0000
1000
0000
,
0010
0000
0000
0000
,
1001
0000
0000
0000
,
0000
0000
0000
0000
,
1000
0000
0100
0000
,
0010
0000
0000
0000
,
0020
0000
0000
0000
,
0030
0000
0000
0000
,
0001
0000
0100
0000
,
0010
0000
0000
0000
,
0020
0000
0000
0000
,
0030
0000
0000
0000
,
2002
0000
0000
0000
0000
0000
0000
3003
,
0000
0000
0000
0000
;
#NOTES:
     dance-single:
     :
     Easy:
     8:
     :
0000
0000
0000
0000
,
0000
0000
0000
0000
,
0000
0000
0000
0000
,
0000
0000
0000
0000
,
0000
0000
0000
0000
,
0001
0100
0010
0000
,
1000
0100
0010
0000
,
0001
0000
0000
1000
0000
0000
0001
0000
,
2002
0000
0000
3003
,
0001
0000
0100
0000
0010
1000
0010
0000
,
1000
0001
1000
0001
,
1000
0000
0100
0000
0010
0001
0010
0000
,
0001
1000
0001
0000
,
1000
0000
0100
0000
0010
0001
0010
0000
,
0001
1000
0001
1000
,
0001
0000
0100
0000
0010
1000
0010
0000
,
1000
0001
1000
0000
,
0002
0000
0000
0000
,
0003
0000
0000
0000
,
2000
0000
0000
0000
,
3000
0000
0000
0000
,
0001
0100
0010
0100
,
0001
0000
0100
0000
0010
0100
0010
0000
,
1000
0100
0010
0100
,
1000
0000
0100
0000
0010
0100
0010
0000
,
0001
1000
0010
1000
,
0001
0010
0001
0000
1000
0000
0000
0000
,
0001
1000
0100
1000
,
0001
0100
0001
0000
1000
0000
0000
0000
,
0002
0000
0000
0003
,
0200
0000
0000
0300
,
0020
0000
0000
0030
,
2000
0000
0000
3000
,
0001
0000
0000
1001
0000
0000
1000
0000
,
0000
1001
0000
0000
0001
0000
0000
1000
,
0002
0000
0000
0003
,
0000
1000
0001
0000
1000
0001
0000
0000
,
2000
0000
0000
3000
,
0200
0000
0000
0300
,
0020
0000
0000
0030
,
0002
0000
0000
0003
,
0001
0100
0001
0000
,
1000
0010
1000
0000
,
0001
1000
0001
1000
,
0002
0000
0000
0003
,
1001
0000
0000
0000
,
1000
0000
0100
0000
0010
0001
0010
0000
,
0001
0000
0100
0000
0010
1000
0010
0000
,
1000
0000
0001
0000
0100
0010
0100
0000
,
0001
1000
0001
0000
,
1000
0000
0001
0000
0010
0100
0010
0000
,
0001
0000
0100
0000
0010
1000
0010
0000
,
0100
0000
0001
0000
1000
0001
1000
0000
,
0100
0010
0100
0000
,
1000
0000
0001
0000
0010
0100
1000
0000
,
0001
0100
0010
0000
,
1000
0000
0001
0000
1000
0010
0100
0000
,
0001
0010
0100
0000
,
2000
0000
0000
3000
,
0002
0000
0000
0003
,
0100
0000
0010
0000
,
1001
0000
0000
0000
,
1001
0000
0000
0000
,
0000
0000
0000
0000
,
1000
0000
0001
0000
0100
0010
0100
0000
,
0001
1000
0010
0000
,
1000
0000
0100
0000
0010
0001
0010
0000
,
0001
1000
0001
0000
,
1000
0000
0001
0000
0100
0010
1000
0000
,
0001
0010
0100
0000
,
1000
0000
0100
0000
0010
0001
1000
0000
,
0100
0010
0100
0000
,
2000
0000
0000
0000
3000
0000
0000
1001
,
0000
0000
0000
0000
;
#NOTES:
     dance-single:
     :
     Medium:
     12:
     :
0000
0000
0000
0000
,
0000
0000
0000
0000
,
0000
0000
0000
0000
,
0000
0000
0000
0000
,
0000
0000
0000
0000
,
0001
0100
0001
0100
1000
0100
0001
0000
,
1000
0100
1000
0100
0001
0100
1000
0000
,
0001
0000
0000
0001
0000
0000
1000
0000
0000
1000
0000
0000
0001
0000
0000
0000
,
2002
0000
0000
3003
,
0001
0010
0001
1000
0010
0100
0010
1000
,
0001
0100
0010
1000
0100
0010
0001
0000
,
1000
0010
1000
0001
0100
0010
0100
0001
,
0010
0100
0010
0001
0100
0010
1000
0000
,
0001
1000
0001
1000
0010
0100
0001
1000
,
0100
0010
0001
0100
0001
0010
0100
0000
,
1000
0010
0100
0010
1000
0100
0010
0001
,
0100
0000
0000
0100
0000
0000
0010
0000
0000
0010
0000
0000
1000
0000
0001
0000
,
2000
0000
0000
0000
,
0000
0000
0000
3000
,
0002
0000
0000
0000
,
0000
0000
0000
0003
,
0001
0100
1000
0100
0010
0100
0001
0000
,
1000
0100
0001
0100
0010
0100
1000
0000
,
0001
0010
1000
0010
0100
0010
0001
0000
,
1000
0010
0001
0010
0100
0010
1000
0000
,
0001
0100
0001
0100
1000
0100
1000
0100
,
0001
0010
1000
0010
0001
1000
0001
0000
,
1000
0100
1000
0100
0001
0100
0001
0100
,
1000
0010
0001
0010
1000
0001
1000
0000
,
0001
0000
0100
0000
0110
0000
0010
1000
,
0000
0010
1000
0001
1000
0000
0000
0000
,
1000
0000
0100
0000
0110
0000
0010
0001
,
0000
0010
0001
1000
0001
0000
0000
0000
,
1000
0000
0000
0100
0000
0000
0010
0000
0000
0011
0000
0000
0001
0000
0000
0100
,
0000
0000
0010
0000
0000
1010
0000
0000
1000
0000
0000
1001
0000
0000
0001
0000
,
2000
0000
0000
0000
,
3000
0001
0001
0000
1000
1000
0000
0000
,
0002
0000
0023
0000
,
0230
0000
0000
0300
,
2000
0000
3020
0000
,
0230
0000
0000
0300
,
0001
0001
0100
0100
,
0010
0000
0000
0000
0010
0000
0000
0000
1000
0000
0000
1000
0000
0000
1000
0000
,
1010
0000
0101
0000
,
0001
0000
0000
1000
0000
0000
0001
0000
0000
1000
0000
0000
0001
0000
0000
0000
,
2002
0000
0000
3003
,
1000
0100
0010
0100
0001
0100
1000
0001
,
0100
0010
0100
1000
0100
0001
0100
0000
,
0001
0010
0100
0001
0100
0010
0001
1000
,
0010
0100
0001
0010
0100
1000
0001
0000
,
1000
0010
0100
0010
1000
0001
0010
1000
,
0010
0001
1000
0100
0001
0100
1000
0000
,
0001
0100
0001
0010
0100
1000
0010
1000
,
0100
0010
0001
0100
0010
1000
0001
0000
,
1000
0010
0100
0010
0001
0010
1000
0001
,
0010
0100
0010
1000
0010
0001
0010
0000
,
0001
0100
0010
0001
0010
0100
0001
1000
,
0100
0010
0001
0100
0010
1000
0001
0000
,
0020
0000
0230
0000
,
1300
0010
0001
0010
1000
0100
0001
0100
,
2000
0000
3002
0003
,
0220
0000
0000
0330
,
1001
0000
0000
0000
,
0000
0000
0000
0000
,
1000
0100
1000
0001
0100
0010
0100
0001
,
1000
0010
0100
0001
0010
0100
1000
0000
,
0001
0100
0001
1000
0010
0100
0010
1000
,
0100
0010
0100
1000
0010
0100
0001
0000
,
1000
0001
1000
0001
0100
0010
1000
0001
,
0010
0100
1000
0010
1000
0100
0010
0000
,
0001
0100
0010
0100
0001
0010
0100
1000
,
0010
0000
0000
0010
0000
0000
0100
0000
0000
0100
0000
0000
0001
0000
1000
0000
,
0002
0000
0000
0000
0000
0000
0000
1003
,
0000
0000
0000
0000
;
#NOTES:
     dance-single:
     :
     Hard:
     16:
     :
0000
0000
0000
0000
,
0000
0000
0000
0000
,
0000
0000
0000
0000
,
0000
0000
0000
0000
,
0000
0000
0000
0000
,
0001
0000
1000
0001
0000
1000
0100
0010
0001
0000
1000
0001
0000
1000
0010
0100
,
0001
0000
0010
0100
0000
0010
0100
1000
0010
0000
0100
0010
0000
0100
0001
0010
,
0100
0000
1000
0100
0000
0001
0100
0000
1000
0100
0000
0001
0100
0000
1000
0000
,
2002
0000
0000
3003
,
0001
0000
0100
0010
0000
1000
0010
1000
0010
0000
1000
0100
0000
0010
0001
0010
,
0001
0000
0100
0010
0000
1000
0001
0000
1000
0000
0010
0100
0000
0001
1000
0001
,
1000
0000
0100
0010
0000
0001
0010
0001
0010
0000
0001
1000
0000
0010
0100
0000
,
0001
0000
0010
1000
0000
0010
0001
0000
1000
0100
0010
0001
0010
0100
1000
0000
,
0001
0000
0010
0100
0000
1000
0010
0100
0010
0000
1000
0001
0000
0010
0100
0010
,
0001
0000
0100
0010
0000
1000
0010
0000
0100
0000
0001
1000
0000
0001
0000
1000
,
0001
0000
0100
0010
0000
1000
0001
1000
0001
0000
0010
0100
0000
1000
0001
1000
,
0001
0000
0000
0101
0000
0000
0110
0000
0000
1010
0000
0000
1001
0000
0001
0000
,
2000
0000
0000
0000
,
0000
0000
0000
3000
,
0001
0010
0100
1000
0001
0010
0100
0000
1000
0010
0100
0001
1000
0010
0100
0001
,
2000
0000
0000
3000
,
1000
0100
1000
0100
0000
0010
0001
0010
0001
0000
1000
0001
0000
0000
1000
0001
,
0100
0001
0100
0001
0000
1000
0010
1000
0020
0000
0230
0000
0302
0000
2003
0000
,
3100
0010
0100
0010
0000
0001
0010
0001
0010
0000
0001
0100
0000
0001
1000
0001
,
1000
0000
0100
0010
0001
0000
0100
0010
2000
0000
3020
0000
0230
0000
0302
0000
,
1003
0010
0100
0001
0000
0010
0100
0010
0002
0000
2003
0000
3200
0000
0320
0000
,
0031
1000
0001
0100
0000
0010
1000
0001
2000
0000
3020
0000
0230
0000
0302
0000
,
1003
0100
1000
0100
0000
1000
0010
1000
0000
0001
0100
0001
0100
0000
0001
0000
,
0010
0000
0100
1000
0001
0000
0100
0010
1000
0000
0000
1010
0000
0000
0101
0000
,
0002
0000
0103
0000
1001
0000
1000
0100
,
0000
0100
0010
0000
0001
0000
0001
0000
2000
0000
0000
0000
3010
0100
0010
0100
,
0010
0000
0100
0000
1001
0000
0001
0100
,
0000
0000
0100
0000
0010
0000
1000
0000
0100
0010
0001
0000
1000
0000
0000
0000
,
1010
0000
1000
0100
0000
0000
0011
0000
0001
0100
0000
0000
0110
0000
0010
1000
,
0000
0000
1001
0000
0001
0010
0000
0000
0110
0000
0100
1000
0000
0001
1000
0001
,
2000
0000
0000
0000
,
3000
1001
1001
0000
0001
0010
0100
1000
,
0002
0000
0000
0000
1003
0010
0100
0001
1000
0000
0010
0000
0001
0000
0010
0000
,
1000
0001
0100
0001
1000
0000
0100
0010
0001
0000
0000
0000
0000
0000
0001
1000
,
0001
0000
0010
0100
1000
0000
0010
0100
0001
0100
0001
0100
0010
0000
1000
0000
,
0001
1000
0100
0010
0001
0000
0100
0010
1000
0000
0100
0010
0001
0000
1000
0000
,
0002
0000
0000
0000
0200
0000
0303
0001
,
2000
0000
0000
0000
0000
0000
0000
0000
3100
0000
0000
0100
0000
0000
0100
0000
,
0220
0330
0022
0033
,
1001
0000
0000
1000
0000
0000
1001
0000
0000
0001
0000
0000
1000
0000
0001
0000
,
2002
0000
0000
3003
,
0001
0010
0001
1000
0000
0001
0100
0010
1000
0000
0100
0010
0000
0001
1000
0000
,
0001
1000
0001
0100
0000
0001
0010
0100
1000
0000
0001
0100
0000
0010
1000
0000
,
0100
0010
0100
0010
0000
0001
1000
0001
1000
0000
1100
0000
0001
0000
0101
0000
,
0100
0010
1000
0010
0000
1000
0001
0010
0100
0000
1000
0100
0010
0000
0001
0100
,
0010
1000
0010
1000
0000
0100
0010
0001
1000
0000
0010
1000
0000
0001
0100
0000
,
0001
0010
0001
0100
0000
0001
0010
0000
0100
0000
1000
0010
1000
0100
1000
0000
,
0001
0100
0001
0100
0000
1000
0100
0000
0001
0010
0001
0010
0000
1000
0010
0000
,
0001
1000
0100
0010
0000
0001
0100
0010
2000
0000
3020
0000
0032
0000
0023
0000
,
1030
0001
0100
0001
0000
1000
0100
0010
0001
1000
0001
0010
0000
0001
0100
0001
,
1000
0100
1000
0100
0000
0010
0001
0100
0001
1000
0010
1000
0000
0100
0010
0100
,
0010
0001
1000
0010
0000
1000
0010
0100
0001
1000
0100
1000
0000
0100
0010
0001
,
0010
0100
1000
0001
0000
0100
0010
1000
0001
0000
1000
0010
0100
0000
0001
0010
,
0200
0000
2300
0000
,
3001
0000
0010
0100
1000
0000
0010
0100
0001
0000
0010
0100
1000
0010
0100
0001
,
2000
0000
0000
0000
3001
0100
0001
0100
1000
0000
0100
0000
0001
0000
0010
0000
,
0200
0000
0000
0000
0300
0000
1000
0100
0020
0000
0000
0000
0030
0000
0000
0000
,
1001
0000
0000
0000
,
0000
0000
0000
0000
,
0001
0010
0100
1000
0000
0010
0100
0010
1000
0100
0010
0001
0000
1000
0001
1000
,
0001
0100
0010
1000
0000
0001
1000
0001
1000
0100
0010
0001
0000
0100
0010
0100
,
0001
1000
0010
0100
0000
0001
1000
0001
1000
0100
0010
0001
0000
1000
0100
0000
,
0010
0001
1000
0001
0000
0100
0010
0100
1000
0100
0010
0100
0001
1000
0001
0000
,
1000
0010
0100
0001
0000
0010
0100
0010
0001
0100
0010
1000
0000
0001
1000
0001
,
1000
0100
0010
0001
0000
1000
0001
1000
0001
0100
0000
0110
0000
0010
1000
0010
,
0100
0001
0010
0100
0000
1000
0001
1000
0001
0100
0010
1000
0000
0001
0100
0000
,
0010
0000
1000
0010
0000
0001
0010
0000
1000
0010
0000
0001
0010
1000
0010
0000
,
2000
0000
0000
0000
0000
0000
3000
1001
,
0000
0000
0000
0000
;
#NOTES:
     dance-double:
     :
     Easy:
     8:
     :
00000000
00000000
00000000
00000000
,
00000000
00000000
00000000
00000000
,
00000000
00000000
00000000
00000000
,
00000000
00000000
00000000
00000000
,
00000000
00000000
00000000
00000000
,
00001000
00010000
00001000
00000000
,
00010000
00001000
00010000
00000000
,
00001000
00000000
00000000
00010000
00000000
00000000
00001000
00000000
,
00022000
00000000
00000000
00033000
,
00001000
00000000
01000000
00000000
00010000
01000000
00010000
00000000
,
01000000
00100000
10000000
00000000
,
10000000
00000000
01000000
00000000
00100000
00010000
00100000
00000000
,
00001000
00010000
00001000
00000000
,
00010000
00000000
00000100
00000000
00001000
00000100
00001000
00000000
,
00000100
00000010
00000001
00000000
,
00000001
00000000
00000100
00000000
00000010
00001000
00000010
00000000
,
00010000
00001000
00010000
00000000
,
00002000
00000000
00000000
00000000
,
00003000
00000000
00000000
00000000
,
00020000
00000000
00000000
00000000
,
00030000
00000000
00000000
00000000
,
00001000
01000000
00010000
01000000
,
00100000
00000000
10000000
00000000
00010000
10000000
00010000
00000000
,
10000000
01000000
00100000
01000000
,
00100000
00000000
00010000
00000000
00100000
00001000
00100000
00000000
,
00001000
00010000
00000010
00001000
,
00000010
00000000
00000100
00000000
00000001
00001000
00000001
00000000
,
00000010
00000100
00001000
00000100
,
00010000
00000000
00000100
00000000
00010000
00001000
00010000
00000000
,
00002000
00000000
00000000
00003000
,
00200000
00000000
00000000
00300000
,
00020000
00000000
00000000
00030000
,
02000000
00000000
00000000
03000000
,
00100000
00000000
00000000
00100000
00000000
00000000
10000000
00000000
,
00000000
10000000
00000000
00000000
00010000
00000000
00000000
00010000
,
00200000
00000000
00000000
00300000
,
00000000
00001000
00010000
00000000
00001000
00010000
00000000
00000000
,
00002000
00000000
00000000
00003000
,
00020000
00000000
00000000
00030000
,
00000200
00000000
00000000
00000300
,
00002000
00000000
00000000
00003000
,
00000001
00001000
00000001
00000000
,
00001000
00000010
00001000
00000000
,
00000010
00010000
00000010
00000000
,
00020000
00000000
00000000
00030000
,
00011000
00000000
00000000
00000000
,
00001000
00000000
00100000
00000000
00010000
01000000
00100000
00000000
,
10000000
00010000
10000000
00000000
,
10000000
00000000
00100000
00000000
01000000
00010000
00100000
00000000
,
00001000
00010000
00001000
00000000
,
00010000
00000000
00000010
00000000
00001000
00000100
00000010
00000000
,
00000001
00001000
00000001
00000000
,
00000001
00000000
00000010
00000000
00000100
00001000
00000010
00000000
,
00010000
00001000
00010000
00000000
,
00001000
00010000
00001000
01000000
,
00010000
00000000
00100000
00000000
01000000
00100000
01000000
00000000
,
10000000
00100000
00010000
00001000
,
00010000
00001000
00010000
00000000
00001000
00000000
00000000
00000000
,
00020000
00000000
00000000
00030000
,
00002000
00000000
00000000
00003000
,
00010000
00001000
00000010
00000001
,
00002000
00000000
00000000
00003000
,
00001001
00000000
00000000
00000000
,
00000000
00000000
00000000
00000000
,
00000001
00000000
00000100
00000000
00000010
00001000
00000010
00000000
,
00010000
00001000
00010000
00000000
,
00001000
00000000
01000000
00000000
00010000
00100000
00010000
00000000
,
10000000
00100000
01000000
00000000
,
00100000
00000000
10000000
00000000
01000000
00100000
00010000
00000000
,
00100000
00001000
00010000
00000000
,
00001000
00000000
00010000
00000000
00000100
00001000
00000100
00000000
,
00000010
00000001
00001000
00000000
,
00000002
00000000
00000000
00000000
00000003
00000000
00000000
00001001
,
00000000
00000000
00000000
00000000
;
#NOTES:
     dance-double:
     :
     Medium:
     12:
     :
00000000
00000000
00000000
00000000
,
00000000
00000000
00000000
00000000
,
00000000
00000000
00000000
00000000
,
00000000
00000000
00000000
00000000
,
00000000
00000000
00000000
00000000
,
00001000
00010000
00001000
00000000
00010000
00001000
00010000
00000000
,
00001000
00010000
00100000
00000000
10000000
00010000
10000000
00000000
,
00100000
00000000
00000000
00100000
00000000
00000000
01000000
00000000
00000000
01000000
00000000
00000000
00100000
00000000
00000000
00000000
,
20020000
00000000
00000000
30030000
,
10000000
01000000
10000000
01000000
00100000
00010000
00100000
00010000
,
00100000
00001000
00100000
00001000
00010000
00001000
00010000
00000000
,
00001000
00010000
00001000
00010000
00000100
00001000
00000100
00001000
,
00000100
00000010
00000100
00000010
00000001
00001000
00000001
00000000
,
00000001
00000100
00000001
00000100
00000010
00001000
00000010
00001000
,
00000010
00010000
00000010
00010000
00001000
00010000
00001000
00000000
,
00010000
00001000
00010000
00001000
01000000
00010000
01000000
00010000
,
01000000
00000000
00000000
01000000
00000000
00000000
00100000
00000000
00000000
00100000
00000000
00000000
10000000
00000000
00000000
00000000
,
00020000
00000000
00000000
00000000
,
00000000
00000000
00000000
00030000
,
00200000
00000000
00000000
00000000
,
00000000
00000000
00000000
00300000
,
00100000
00001000
00010000
00001000
00000010
00000001
00001000
00000000
,
00000001
00000100
00000010
00000000
00001000
00000100
00001000
00000000
,
00000010
00010000
00001000
00010000
00100000
10000000
00010000
00000000
,
10000000
01000000
00100000
00000000
00010000
01000000
00010000
00000000
,
01000000
00001000
00010000
00001000
00000100
00000001
00001000
00000000
,
00000001
00000010
00000100
00000000
00001000
00000010
00001000
00000000
,
00000100
00010000
00001000
00010000
01000000
10000000
00010000
00000000
,
10000000
00100000
01000000
00000000
00010000
00100000
00010000
00000000
,
10000000
00000000
01000000
00000000
01100000
00000000
00100000
00010000
,
00000000
00100000
00001000
00000000
00010000
00000000
00000000
00000000
,
00010000
00000000
00000100
00000000
00001100
00000000
00001000
00000010
,
00000000
00000100
00000001
00000000
00001000
00000000
00000000
00000000
,
00000001
00000000
00000000
00000100
00000000
00000000
00001000
00000000
00000000
00011000
00000000
00000000
00010000
00000000
00000000
00100000
,
00000000
00000000
10000000
00000000
00000000
10100000
00000000
00000000
00100000
00000000
00000000
10000000
00000000
00000000
00010000
00000000
,
20000000
00000000
00000000
00000000
,
30000000
00010000
00010000
00000000
10000000
10000000
00000000
00000000
,
20000000
00000000
32000000
00000000
,
03200000
00000000
00000000
00300000
,
00200000
00000000
00302000
00000000
,
00023000
00000000
00000000
00030000
,
00010000
00010000
00000100
00000100
,
00001000
00000000
00000000
00000000
00001000
00000000
00000000
00000000
00000010
00000000
00000000
00000010
00000000
00000000
00001000
00000000
,
00001010
00000000
00000101
00000000
,
00000001
00000000
00000000
00000100
00000000
00000000
00001000
00000000
00000000
00010000
00000000
00000000
00001000
00000000
00000000
00000000
,
00022000
00000000
00000000
00033000
,
00001000
00010000
01000000
00100000
00001000
00010000
01000000
00100000
,
00010000
01000000
00100000
00010000
00001000
00010000
00100000
00000000
,
10000000
00100000
01000000
00010000
10000000
01000000
00100000
00010000
,
00100000
01000000
00010000
00001000
00010000
00000000
00011000
00000000
,
00010000
00001000
00000100
00000010
00010000
00001000
00000100
00000010
,
00001000
00000100
00000010
00001000
00010000
00001000
00000010
00000000
,
00000001
00000010
00000100
00001000
00000001
00000100
00000010
00001000
,
00000010
00000100
00001000
00010000
00001000
00000000
00011000
00000000
,
00001000
00010000
01000000
00100000
00001000
00010000
00100000
01000000
,
00010000
00100000
01000000
00010000
00001000
00000010
00000100
00010000
,
00000010
00000100
00001000
00010000
00100000
00010000
00001000
00000100
,
00000010
00001000
00000100
00010000
00001000
00100000
00010000
01000000
,
00200000
00000000
20300000
00000000
,
30010000
10000000
01000000
00010000
00001000
00000000
00000010
00000001
,
00000020
00000000
00000230
00000000
,
00002300
00000000
00000000
00003000
,
00001001
00000000
00000000
00000000
,
00000000
00000000
00000000
00000000
,
00000001
00000010
00000100
00001000
00000001
00000100
00001000
00000100
,
00000001
00000010
00000100
00010000
00001000
00100000
00010000
00000000
,
10000000
00010000
01000000
00100000
10000000
01000000
00100000
00010000
,
00100000
00001000
00010000
00001000
01000000
00000000
01100000
00000000
,
10000000
00100000
01000000
00010000
10000000
01000000
00010000
01000000
,
10000000
00100000
01000000
00001000
00010000
00000010
00001000
00000000
,
00000001
00001000
00000100
00000010
00000001
00000100
00000010
00001000
,
00000010
00000000
00000000
00000010
00000000
00000000
00010000
00000000
00000000
00010000
00000000
00000000
00001000
00000000
00000000
00000000
,
00020000
00000000
00000000
00000000
00000000
00000000
00000000
00031000
,
00000000
00000000
00000000
00000000
;
#NOTES:
     dance-double:
     :
     Hard:
     16:
     :
00000000
00000000
00000000
00000000
,
00000000
00000000
00000000
00000000
,
00000000
00000000
00000000
00000000
,
00000000
00000000
00000000
00000000
,
00000000
00000000
00000000
00000000
,
10000000
00000000
01000000
00100000
00000000
00010000
00100000
00010000
00100000
00000000
00001000
00100000
00000000
00001000
00010000
00001000
,
00010000
00000000
00000100
00010000
00000000
00000100
00001000
00000100
00001000
00000000
00000010
00001000
00000000
00000001
00000100
00000001
,
00000100
00000000
00000001
00000100
00000000
00000100
00001000
00000000
00001000
00010000
00000000
00010000
00100000
00000000
10000000
00000000
,
20020000
00000000
00000000
30030000
,
10000000
00000000
01000000
00100000
00000000
00010000
00100000
00010000
00100000
00000000
00001000
00100000
00000000
00001000
00010000
00001000
,
00010000
00000000
00001000
00000100
00000000
00000001
00001000
00000000
00000100
00000000
00000010
00000100
00000000
00001000
00000001
00001000
,
00000001
00000000
00000010
00000100
00000000
00001000
00000100
00001000
00000100
00000000
00010000
00000100
00000000
00010000
00001000
00000000
,
00100000
00000000
00010000
01000000
00000000
00010000
00100000
00000000
01000000
10000000
00010000
00100000
00010000
10000000
01000000
00000000
,
00100000
00000000
00001000
00100000
00000000
00001000
00010000
00001000
00010000
00000000
00000100
00001000
00000000
00000010
00000100
00000010
,
00001000
00000000
00000001
00000100
00000000
00000001
00000010
00000000
00000100
00000000
00001000
00000100
00000000
00010000
00000000
00001000
,
00010000
00000000
00001000
00100000
00000000
00010000
01000000
00010000
01000000
00000000
00010000
00100000
00000000
01000000
00100000
01000000
,
00100000
00000000
00000000
00110000
00000000
00000000
10010000
00000000
00000000
11000000
00000000
00000000
01000000
00000000
00100000
00000000
,
00002000
00000000
00000000
00000000
,
00000000
00000000
00000000
00003000
,
00010000
00001000
00000010
00000000
00000001
00000100
00001000
00000000
00010000
00100000
10000000
00000000
01000000
00010000
00001000
00000000
,
00020000
00000000
00000000
00030000
,
00010000
00001000
00010000
00001000
00000000
00010000
00000010
00010000
00000010
00000000
00001000
00000001
00000000
00000000
00000100
00000000
,
00000001
00000010
00000001
00000010
00000000
00000100
00001000
00000100
00020000
00000000
00032000
00000000
00203000
00000000
00320000
00000000
,
10030000
00100000
10000000
00100000
00000000
01000000
00010000
01000000
00010000
00000000
01000000
00001000
00000000
00010000
00001000
00010000
,
00001000
00000000
00010000
00000010
00001000
00000000
00000100
00000010
00000002
00000000
00000023
00000000
00000230
00000000
00002300
00000000
,
00003100
00010000
00001000
00010000
00000000
00001000
01000000
00010000
02000000
00000000
03200000
00000000
20300000
00000000
30020000
00000000
,
00130000
01000000
10000000
00010000
00000000
10000000
01000000
00100000
00002000
00000000
00023000
00000000
00030200
00000000
00002300
00000000
,
00003010
00000100
00000010
00000100
00000000
00000010
00001000
00000010
00000000
00000100
00000001
00000100
00000001
00000000
00001000
00000000
,
00000001
00000000
00000010
00000000
00001000
00000000
00010000
00001000
00010000
00000000
00000000
00001000
00000000
00000000
00011000
00000000
,
00020000
00000000
01030000
00000000
11000000
00000000
10000000
00100000
,
00000000
00100000
00010000
00000000
00001000
00000000
00000100
00000000
00000002
00000000
00000000
00000000
00000103
00000010
00000100
00000010
,
00000100
00000000
00000001
00000000
00001001
00000000
00001000
00000001
,
00000000
00000001
00000010
00001000
00010000
01000000
10000000
00000000
,
11000000
00000000
01000000
00100000
00000000
00000000
00110000
00000000
00100000
00001000
00000000
00000000
00011000
00000000
00001000
00010000
,
00000000
00000000
00010010
00000000
00000010
00000100
00000000
00000000
00000101
00000000
00000001
00001000
00000000
00000100
00001000
00000100
,
00020000
00000000
00000000
00000000
,
00030000
00011000
00011000
00000000
00001000
00010000
01000000
10000000
,
00020000
00000000
00000000
00000000
10030000
01000000
00100000
00010000
10000000
00000000
01000000
00000000
00010000
00000000
00001000
00000000
,
00000010
00000001
00000010
00000001
00000010
00000000
00000001
00001000
00000100
00000000
00000000
00000000
00000000
00000000
00001000
00000001
,
00001000
00000000
00000001
00000100
00000010
00000000
00001000
00000100
00000010
00000000
00001000
00010000
00001000
00000000
00010000
00000000
,
00001000
00000000
01000000
00010000
00100000
00010000
01000000
00100000
10000000
00000000
00010000
10000000
00010000
00000000
01000000
00000000
,
00200000
00000000
00000000
00000000
00302000
00000000
00003000
00001000
,
00020000
00000000
00000000
00000000
00000000
00000000
00000000
00000000
00030010
00000000
00000000
00000010
00000000
00000000
00000010
00000000
,
00002000
00003000
00000002
00000003
,
00000001
00000000
00000000
00000100
00000000
00000000
00001000
00000000
00000000
00010000
00000000
00000000
00100000
00000000
10000000
00000000
,
20020000
00000000
00000000
30030000
,
10000000
00100000
01000000
00010000
00000000
00100000
00010000
00100000
00001000
00000000
00010000
00000100
00000000
00001000
00000100
00000000
,
00000010
00000001
00001000
00000010
00000000
00000100
00000001
00001000
00000100
00000000
00000001
00000100
00000000
00001000
00000100
00000000
,
00001000
00000010
00001000
00000010
00000000
00010000
00000010
00010000
00001000
00000000
00010000
00000000
00100000
00000000
10000000
00000000
,
00010000
01000000
00100000
10000000
00000000
01000000
00100000
01000000
00010000
00000000
00001000
00010000
00001000
00000000
00010000
00001000
,
00010000
00000010
00001000
00000010
00000000
00001000
00000100
00000010
00000001
00000000
00000100
00000010
00000000
00001000
00000001
00000000
,
00000010
00000100
00000010
00001000
00000000
00010000
00001000
00000000
00010000
00000000
01000000
00100000
00010000
01000000
00100000
00000000
,
00010000
00100000
00010000
00100000
00000000
10000000
00100000
00000000
10000000
01000000
10000000
01000000
00000000
00010000
01000000
00000000
,
00010000
00001000
00010000
00001000
00000000
00000010
00000001
00000010
00000002
00000000
00002003
00000000
00003200
00000000
00000320
00000000
,
00000031
00000100
00000001
00001000
00000000
00000100
00000010
00000100
00001000
00000100
00010000
00001000
00000000
00010000
00001000
01000000
,
00010000
00100000
00001000
00010000
00000000
00001000
00100000
00010000
00100000
01000000
10000000
00010000
00000000
10000000
00100000
10000000
,
00010000
01000000
00100000
10000000
00000000
01000000
00100000
00010000
01000000
00010000
00100000
00001000
00000000
00010000
00000100
00001000
,
00000010
00001000
00000100
00000010
00000000
00000001
00001000
00000001
00001000
00000000
00000001
00000100
00001000
00000000
00010000
00100000
,
20000000
00000000
30020000
00000000
,
10030000
00000000
01000000
00100000
01000000
00000000
00010000
00000000
00001000
00000000
00000010
00000100
00000010
00000000
00000001
00000000
,
00002000
00000000
00000000
00000000
00003001
00000100
00000001
00000100
00001000
00000000
00010000
00000000
00100000
00000000
01000000
00000000
,
00020000
00000000
00000000
00000000
00030000
00000000
10000000
01000000
00200000
00000000
00000000
00000000
00300000
00000000
00000000
00000000
,
10010000
00000000
00000000
00000000
,
00000000
00000000
00000000
00000000
,
10000000
01000000
10000000
00010000
00000000
10000000
01000000
00100000
00010000
00100000
00001000
00010000
00000000
00001000
00010000
00000010
,
00001000
00000010
00000100
00000010
00000000
00001000
00000001
00001000
00000001
00000010
00000100
00001000
00000000
00000001
00000100
00000001
,
00001000
00000100
00001000
00000100
00000000
00001000
00000100
00010000
00001000
00100000
00010000
00100000
00000000
00001000
00100000
00000000
,
00010000
01000000
00100000
10000000
00000000
00010000
10000000
00000000
01000000
00100000
01000000
00100000
00001000
00010000
00001000
00000000
,
00010000
00000010
00001000
00000100
00000000
00001000
00000010
00010000
00000100
00001000
00000010
00000100
00000000
00000001
00000010
00000001
,
00001000
00000100
00000010
00000001
00000000
00000100
00000010
00000100
00000010
00000000
00001000
00000010
00000000
00010000
00000000
00001000
,
01000000
00010000
01000000
00010000
00000000
00100000
01000000
10000000
00010000
01000000
00010000
00100000
00000000
00001000
00010000
00000000
,
00001000
00000000
00000010
00000001
00000000
00000001
00000100
00000000
00000100
00001000
00000000
00001000
00010000
00000000
00100000
00000000
,
20000000
00000000
00000000
00000000
00000000
00000000
00000000
30010000
,
00000000
00000000
00000000
00000000
;
