
//----- song ID: pops -----//
#TITLE:POP STAR;
#BANNER:POP STAR.png;
#BACKGROUND:POP STAR-bg.png;
#CDTITLE:./CDTitles/jubeat.png;
#MUSIC:POP STAR.ogg;
#SAMPLESTART:74.427;
#SAMPLELENGTH:15;
#DISPLAYBPM:140;
#BPMS:0=139.87;
#STAGE:16;
#NOTES:
     dance-single:
     :
     Beginner:
     1:
     :
0000
0000
0000
0000
,
0000
0000
0000
0000
,
0000
0000
0000
0000
,
0000
0000
0000
0000
,
0000
0000
0000
0000
,
0000
0000
0000
0000
,
0001
0000
0000
0000
,
0001
0000
0000
0000
,
1000
0000
0000
0000
,
0000
0000
0000
0000
,
1000
0000
0000
0000
,
0001
0000
0000
0000
,
1000
0000
0000
0000
,
0010
0000
0000
0000
,
1000
0000
0000
0000
,
0001
0000
0000
0000
,
1000
0000
0000
0000
,
0100
0000
0000
0000
,
0000
0000
0000
0000
,
1000
0000
0000
0000
,
1000
0000
0000
0000
,
0001
0000
0000
0000
,
0001
0000
0000
0000
,
1000
0000
0000
0000
,
0001
0000
0000
0000
,
0100
0000
0000
0000
,
0000
0000
0000
0000
,
0001
0000
0000
0000
,
0001
0000
0000
0000
,
1000
0000
0000
0000
,
1000
0000
0000
0000
,
0001
0000
0000
0000
,
1000
0000
0000
0000
,
0010
0000
0000
0000
,
0010
0000
0000
0000
,
1000
0000
0000
0000
,
0001
0000
0000
0000
,
1000
0000
0000
0000
,
0000
0000
0000
0000
,
0001
0000
0000
0000
,
0001
0000
0000
0000
,
0100
0000
0000
0000
,
0010
0000
0000
0000
,
0000
0000
0000
0000
,
1000
0000
0000
0000
,
1000
0000
0000
0000
,
0001
0000
0000
0000
,
0001
0000
0000
0000
,
1000
0000
0000
0000
,
1000
0000
0000
0000
,
0010
0000
0000
0000
,
0010
0000
0000
0000
,
1000
0000
0000
0000
,
1000
0000
0000
0000
,
0001
0000
0000
0000
,
0001
0000
0000
0000
,
0100
0000
0000
0000
,
0100
0000
0000
0000
,
0010
0000
0000
0000
,
0000
0000
0000
0000
,
1000
0000
0000
0000
,
0001
0000
0000
0000
,
1000
0000
0000
0000
,
0001
0000
0000
0000
,
0100
0000
0000
0000
,
0000
0000
0000
0000
;
#NOTES:
     dance-single:
     :
     Easy:
     3:
     :
0000
0000
0000
0000
,
0000
0000
0000
0000
,
0000
0000
0000
0000
,
0000
0000
0000
0000
,
0000
0000
0000
0000
,
0000
0000
0000
0000
,
1000
0000
0000
0000
,
0001
0000
0000
0000
,
1000
0000
0001
0000
,
1001
0000
0000
0000
,
0010
0000
0010
0000
,
1000
0000
1000
0000
,
0010
0000
1000
0000
,
0010
0000
0000
0000
,
0100
0000
0100
0000
,
0001
0000
0001
0000
,
0100
0000
0001
0000
,
0100
0000
0000
0000
,
0001
0000
0000
0000
,
0010
0000
0001
0000
,
0010
0000
0000
0000
,
0100
0000
1000
0000
,
0100
0000
1000
0000
,
1000
0000
0001
0000
,
0001
0000
1000
0000
,
0001
0000
0000
0000
,
0100
0000
0000
0000
,
0010
0000
1000
0000
,
0010
0000
0000
0000
,
0100
0000
0001
0000
,
0100
0000
0001
0000
,
0001
0000
1000
0000
,
1000
0000
0001
0000
,
1000
0000
0001
0000
,
0100
0000
0000
0000
,
0001
0000
0001
0000
,
1000
0000
1000
0000
,
0010
0000
0000
0000
,
0010
0000
0000
0000
,
0110
0000
0000
0000
,
1001
0000
0000
0000
,
1000
0000
0001
0000
,
0100
0000
0010
0000
,
0100
0000
0000
0000
,
0001
0000
0001
0000
,
1000
0000
0100
0000
,
1000
0000
0001
0000
,
1000
0000
0000
0000
,
1000
0000
1000
0000
,
0001
0000
0100
0000
,
0001
0000
1000
0000
,
0001
0000
0000
0000
,
0100
0000
0100
0000
,
0010
0000
1000
0000
,
0001
0000
0100
0000
,
0001
0000
0000
0000
,
0010
0000
0010
0000
,
0001
0000
1000
0000
,
0010
0000
0100
0000
,
0010
0000
0000
0000
,
0100
0000
0100
0000
,
0001
0000
0001
0000
,
1000
0000
0001
0000
,
1000
0000
0000
0000
,
0020
0000
0000
0000
,
0000
0000
0000
0000
,
0030
0000
0000
0000
,
0000
0000
0000
0000
;
#NOTES:
     dance-single:
     :
     Medium:
     6:
     :
0000
0000
0000
0000
,
0000
0000
0000
0000
,
0000
0000
0000
0000
,
0000
0000
0000
0000
,
0000
0000
0000
0000
,
0000
0000
0000
0000
,
0001
1000
0010
0100
,
0010
0000
1000
0100
,
0010
0001
1000
0001
,
0100
0110
1000
1000
,
0001
0100
1000
0100
,
0001
1000
0100
0001
,
0100
0100
1000
0010
,
0100
0100
0001
1001
,
1000
0010
0001
0010
,
1000
0001
0010
1000
,
0010
0010
0001
0100
,
0010
0010
1000
1001
,
0010
0000
0010
0000
,
1000
0100
1000
0100
,
0010
0000
0010
0000
,
0001
0100
0001
0100
,
0010
0000
0010
1000
,
0001
0000
1000
0100
,
0010
0000
0001
1000
,
0100
0100
0010
0100
,
1001
0000
0001
0000
,
0100
0010
0100
0010
,
0001
0000
0001
0000
,
0100
0010
0100
0010
,
1000
0000
1000
0010
,
0100
0000
0001
0010
,
0100
0000
1000
0001
,
0010
0010
0100
0010
,
1001
0000
1000
0100
,
1000
0010
1000
0010
,
0100
0001
0010
0100
,
1000
1000
0001
0001
,
0100
0000
0010
0100
,
0110
0000
1000
0001
,
1001
0000
0100
0010
,
0110
1000
1001
0100
,
0110
0011
0101
1100
,
1001
0000
0010
0010
,
0100
0110
1000
0001
,
0010
0110
0001
0100
,
0002
1003
2000
3010
,
0100
0000
0001
0001
,
1000
1001
0100
0010
,
1000
1001
0100
0001
,
0200
0310
0020
1030
,
0001
0000
0100
0100
,
0010
0110
1000
0001
,
0010
0110
0001
0100
,
0002
1003
2000
3010
,
0100
0000
0001
0001
,
1000
1001
0010
0100
,
0010
0000
1000
0100
,
2000
0000
3002
0000
,
0103
0110
0001
0001
,
1000
0100
0001
0100
,
1000
0001
0100
1000
,
0100
0100
0001
0010
,
0100
0100
1000
1001
,
0020
0000
0000
0000
,
0000
0000
0000
0000
,
0030
0000
0000
0000
,
0000
0000
0000
0000
;
#NOTES:
     dance-single:
     :
     Hard:
     11:
     :
0000
0000
0000
0000
,
0000
0000
0000
0000
,
0000
0000
0000
0000
,
0000
0000
0000
0000
,
0000
0000
0000
0000
,
0000
0000
0000
0001
0100
0001
0100
0010
,
1000
0000
1001
0000
1000
0100
0010
0001
,
1000
0100
0000
1000
0010
0000
0100
0001
,
1000
0000
0001
0010
0000
0100
0000
1000
,
0001
0000
1001
1000
0010
0100
0001
1000
,
0001
0000
0010
0001
1000
0000
0010
0100
,
0001
0000
1000
0100
0010
0100
0010
0001
,
0100
0010
1000
0010
0000
1000
0001
0010
,
0100
1000
0100
0000
1000
0010
1000
0010
,
0100
0000
0010
1000
0001
0000
0010
0100
,
1000
0000
0001
0100
0010
0100
0010
1000
,
0100
0010
0001
0010
0000
0001
1000
0010
,
0100
0001
0100
0000
0001
0010
0001
0010
,
0000
0001
0001
1000
0001
0010
0100
1000
,
1001
0000
1000
0010
0000
0110
0000
0101
,
0000
1000
1000
0001
1000
0100
0010
0001
,
1001
0000
0001
0010
0000
0110
0000
1100
,
0000
0000
1000
0001
0010
0001
1000
0010
,
0100
0000
0100
0010
1000
0010
0100
0001
,
0010
0000
0010
0100
0010
0001
1000
0000
,
1010
0000
0100
0001
0000
0010
0000
0011
,
0000
1000
1000
0001
1000
0010
0100
0001
,
1001
0000
0001
0010
0000
0110
0000
1100
,
0000
0001
0001
1000
0001
0100
0010
1000
,
1001
0000
1000
0010
0000
0110
0000
0101
,
0000
0000
0001
1000
0010
1000
0001
0010
,
0100
0000
0100
0010
0001
0010
0100
1000
,
0010
0000
0010
0100
0010
1000
0001
0000
,
0101
0000
0100
0010
0000
1000
0000
0001
,
0010
0010
0100
0000
1000
0100
0010
0001
,
0010
0000
0001
0100
0001
0000
0100
0010
,
0100
0000
0010
1000
0010
0000
1000
0100
,
1000
0000
0100
0010
0100
0000
0010
0001
,
1000
0010
0100
0010
1000
0100
0010
0000
,
0001
0100
0010
0000
0110
0000
1010
0000
,
1000
0100
0010
0000
0110
0000
0011
0000
,
1000
0010
0100
0000
0001
0010
0100
0000
,
1000
0010
0100
0001
1000
0100
0010
0000
,
0100
0000
0110
0001
1000
0010
1000
0010
,
0100
0000
0110
0000
1000
0100
0010
0001
,
0000
0011
0000
1000
0020
0000
1030
0001
,
0020
0000
0031
0020
0000
0031
0100
0010
,
1000
0010
0000
1000
0001
0100
0001
0100
,
0010
0000
0110
0000
0001
0010
0100
1000
,
0100
1000
0000
0001
0200
0000
0301
1000
,
0200
0000
1300
0200
0000
0310
0000
0001
,
0010
0001
1000
0010
0100
0010
1000
0001
,
0010
0000
0110
0000
0001
0100
0010
1000
,
0000
1100
0000
0001
0010
0001
0010
0100
,
2000
0000
3001
2000
0000
3010
0100
0010
,
1000
0001
0000
1000
0010
0100
0010
0100
,
0001
0000
0011
0000
1000
0100
0010
0001
,
0100
0010
0000
1000
0010
0000
0100
0001
,
1000
0000
0001
0010
0000
0100
0000
1000
,
0001
0000
1001
1000
0100
0010
0001
1000
,
0010
0000
0100
0001
1000
0000
0100
0010
,
0001
0000
0100
0010
1000
0100
1000
0000
,
0001
0010
0100
1000
0000
0001
0010
0100
,
1000
0010
1000
0000
0001
0100
0010
0100
,
0002
0000
0000
0000
,
0000
0000
0000
0000
,
0003
0000
0000
0000
,
0000
0000
0000
0000
;
#NOTES:
     dance-double:
     :
     Easy:
     3:
     :
00000000
00000000
00000000
00000000
,
00000000
00000000
00000000
00000000
,
00000000
00000000
00000000
00000000
,
00000000
00000000
00000000
00000000
,
00000000
00000000
00000000
00000000
,
00000000
00000000
00000000
00000000
,
00001000
00000000
00000000
00000000
,
00010000
00000000
00000000
00000000
,
00000100
00000000
00001000
00000000
,
00001001
00000000
00000000
00000000
,
00000001
00000000
00000001
00000000
,
00001000
00000000
00001000
00000000
,
00000100
00000000
00010000
00000000
,
00001000
00000000
00000000
00000000
,
00100000
00000000
00100000
00000000
,
00010000
00000000
00010000
00000000
,
10000000
00000000
00100000
00000000
,
10000000
00000000
00000000
00000000
,
00010000
00000000
00000000
00000000
,
00100000
00000000
00001000
00000000
,
00010000
00000000
00000000
00000000
,
00000010
00000000
00001000
00000000
,
00000001
00000000
00001000
00000000
,
00001000
00000000
00000100
00000000
,
00000100
00000000
00010000
00000000
,
00001000
00000000
00000000
00000000
,
01000000
00000000
00000000
00000000
,
00010000
00000000
10000000
00000000
,
00010000
00000000
00000000
00000000
,
01000000
00000000
00001000
00000000
,
00010000
00000000
00000010
00000000
,
00000010
00000000
00001000
00000000
,
00001000
00000000
00000001
00000000
,
00001000
00000000
00000010
00000000
,
00010000
00000000
00000000
00000000
,
00001000
00000000
00001000
00000000
,
00100000
00000000
00100000
00000000
,
00010000
00000000
00000000
00000000
,
00010000
00000000
00000000
00000000
,
10010000
00000000
00000000
00000000
,
00011000
00000000
00000000
00000000
,
00000001
00000000
00000100
00000000
,
00000010
00000000
00001000
00000000
,
00000010
00000000
00000000
00000000
,
00010000
00000000
00010000
00000000
,
00001000
00000000
00100000
00000000
,
00010000
00000000
10000000
00000000
,
00010000
00000000
00000000
00000000
,
00100000
00000000
00100000
00000000
,
00001000
00000000
00010000
00000000
,
00001000
00000000
00010000
00000000
,
00000100
00000000
00000000
00000000
,
00001000
00000000
00001000
00000000
,
00000001
00000000
00000010
00000000
,
00000100
00000000
00001000
00000000
,
00000100
00000000
00000000
00000000
,
00010000
00000000
00010000
00000000
,
00001000
00000000
01000000
00000000
,
00010000
00000000
10000000
00010000
,
00000000
00000000
00000000
00000000
,
01000000
00000000
01000000
00000000
,
00001000
00000000
00001000
00000000
,
00010000
00000000
00000100
00000000
,
00001000
00000000
00000000
00000000
,
00000002
00000000
00000000
00000000
,
00000000
00000000
00000000
00000000
,
00000003
00000000
00000000
00000000
,
00000000
00000000
00000000
00000000
;
#NOTES:
     dance-double:
     :
     Medium:
     6:
     :
00000000
00000000
00000000
00000000
,
00000000
00000000
00000000
00000000
,
00000000
00000000
00000000
00000000
,
00000000
00000000
00000000
00000000
,
00000000
00000000
00000000
00000000
,
00000000
00000000
00000000
00000000
,
10000000
00010000
01000000
00010000
,
01000000
00000000
00001000
00010000
,
00000100
00001000
00000001
00001000
,
00000010
00000110
00001000
00001000
,
00000001
00000100
00001000
00010000
,
00100000
10000000
00010000
10000000
,
00010000
00010000
00100000
00001000
,
00010000
00010000
00001000
00001000
,
00010000
00001000
00000010
00000001
,
00000010
00001000
00010000
01000000
,
10000000
10000000
00100000
01000000
,
00010000
00010000
00100000
00001000
,
00010000
00000000
00010000
00000000
,
00000010
00001000
00000010
00001000
,
00000001
00000000
00000001
00000000
,
00000100
00000010
00000100
00000010
,
00001000
00000000
00001000
00000100
,
00010000
00000000
00001000
00100000
,
00010000
00000000
10000000
00010000
,
00100000
00100000
00001000
00010000
,
00011000
00000000
00001000
00000000
,
00010000
00000010
00001000
00000010
,
00001000
00000000
00001000
00000000
,
00000001
00000010
00000001
00000010
,
00000100
00000000
00000100
00010000
,
00001000
00000000
00010000
00001000
,
01000000
00000000
00010000
10000000
,
01000000
01000000
00010000
00001000
,
00010000
00000000
00001000
00010000
,
00000100
00001000
00000100
00001000
,
00000001
00000010
00000100
00001000
,
00000100
00000100
00010000
00010000
,
00001000
00000000
01000000
00010000
,
01010000
00000000
00010000
10000000
,
10010000
00000000
00100000
00001000
,
00101000
00010000
00011000
00000010
,
00001001
00001100
00011000
01001000
,
01010000
00000000
10000000
10000000
,
00010000
00100000
00001000
00010000
,
00001000
00011000
00010000
00000100
,
00002000
00003001
00000002
00000103
,
00000010
00000000
00000001
00000001
,
00001000
00000010
00010000
00001000
,
00010000
00011000
00001000
01000000
,
00020000
10030000
20000000
31000000
,
00100000
00000000
00001000
00001000
,
00010000
00000100
00001000
00000001
,
00000010
00000110
00000001
00001000
,
00000200
00010300
00020000
00031000
,
00100000
00000000
00010000
00010000
,
10000000
01000000
00100000
00010000
,
00100000
00000000
00001000
00010000
,
00002000
00000000
00003200
00000000
,
00000301
00001000
00000010
00000010
,
00001000
00000001
00000100
00001000
,
00010000
01000000
10000000
00010000
,
00100000
00100000
00001000
00010000
,
00000010
00000010
00001000
00000001
,
00000200
00000000
00000000
00000000
,
00000000
00000000
00000000
00000000
,
00000300
00000000
00000000
00000000
,
00000000
00000000
00000000
00000000
;
#NOTES:
     dance-double:
     :
     Hard:
     11:
     :
00000000
00000000
00000000
00000000
,
00000000
00000000
00000000
00000000
,
00000000
00000000
00000000
00000000
,
00000000
00000000
00000000
00000000
,
00000000
00000000
00000000
00000000
,
00000000
00000000
00000000
00000001
00000100
00000001
00000100
00000010
,
00001000
00000000
00011000
00000000
00010000
00001000
00100000
00010000
,
10000000
01000000
00000000
10000000
00100000
00000000
01000000
00010000
,
00100000
00000000
00001000
00010000
00000000
00000100
00000000
00001000
,
00000001
00000000
00001001
00000001
00000010
00000100
00001000
00000100
,
00010000
00000000
00001000
00010000
00100000
00000000
01000000
00010000
,
10000000
00000000
01000000
00010000
00001000
00010000
00001000
00000010
,
00000001
00000100
00000010
00001000
00000000
00000001
00000100
00001000
,
00010000
00100000
10000000
00000000
00010000
01000000
00010000
01000000
,
00001000
00000000
00010000
00001000
00000010
00000000
00000100
00001000
,
00000001
00000000
00000100
00001000
00010000
00001000
00010000
00100000
,
10000000
01000000
00100000
00010000
00000000
10000000
01000000
00010000
,
00001000
00000010
00000001
00000000
00001000
00000100
00001000
00000100
,
00000000
00010000
00010000
00001000
01000000
00010000
10000000
00100000
,
01100000
00000000
00010000
00100000
00000000
00101000
00000000
00011000
,
00000000
00010000
00010000
00000100
00001000
00000001
00000010
00000100
,
00000110
00000000
00001000
00000010
00000000
00010010
00000000
00011000
,
00000000
00000000
00001000
00100000
00010000
00100000
00001000
00010000
,
01000000
00000000
10000000
00100000
01000000
00100000
10000000
01000000
,
00010000
00000000
00001000
00010000
00000010
00001000
00000001
00000000
,
00000100
00000000
00001000
00010000
00000000
01000000
00000000
00010000
,
00000000
00001000
00001000
00010000
00000100
00001000
00000001
00000010
,
00000110
00000000
00001000
00000010
00000000
00010010
00000000
00011000
,
00000000
00001000
00001000
01000000
00010000
10000000
00100000
01000000
,
01100000
00000000
00010000
00100000
00000000
00101000
00000000
00011000
,
00000000
00000000
00010000
00000010
00001000
00000010
00010000
00001000
,
00000100
00000000
00000001
00000010
00000100
00000010
00000001
00000100
,
00001000
00000000
00010000
00001000
00100000
00010000
10000000
00000000
,
01000000
00000000
00010000
00001000
00000000
00000100
00000000
00001000
,
00010000
00000100
00001000
00000000
00000010
00001000
00000100
00000010
,
00000001
00000000
00001000
00000010
00001000
00000000
00000010
00010000
,
00000010
00000000
00010000
00001000
00010000
00000000
00001000
00100000
,
00001000
00000000
00100000
00010000
00100000
00000000
00010000
10000000
,
01000000
00100000
00010000
00100000
00001000
00010000
00001000
00000000
,
00010000
00000100
00001000
00000000
00001100
00000000
00000101
00000000
,
00000001
00001000
00000010
00000000
00001010
00000000
00011000
00000000
,
00001000
01000000
00010000
00000000
10000000
00100000
01000000
00000000
,
00010000
10000000
01000000
00010000
00001000
00000010
00000001
00000000
,
00001000
00000000
00001001
00000001
00000100
00000010
00000100
00000010
,
00001000
00000000
00011000
00000000
00010000
00001000
00100000
00010000
,
00000000
00110000
00000000
10000000
00020000
00000000
01030000
00001000
,
00020000
00000000
00030010
00002000
00000000
00003001
00000010
00001000
,
00010000
00100000
00000000
10000000
01000000
00100000
01000000
00100000
,
00010000
00000000
00011000
00000000
00001000
00010000
00000010
00001000
,
00000010
00001000
00000000
00000001
00002000
00000000
00003100
00010000
,
00002000
00000000
00103000
00020000
00000000
10030000
00000000
01000000
,
00010000
00001000
00000100
00000001
00000100
00000001
00001000
00000010
,
00010000
00000000
00011000
00000000
00001000
01000000
00010000
10000000
,
00000000
11000000
00000000
00010000
00100000
00010000
00100000
00001000
,
00020000
00000000
00030010
00002000
00000000
00003001
00000010
00000100
,
00000010
00000001
00000000
00001000
00000100
00010000
00000100
00010000
,
00001000
00000000
00011000
00000000
00001000
00100000
00010000
01000000
,
00100000
10000000
00000000
00010000
01000000
00000000
00010000
10000000
,
01000000
00000000
00010000
00001000
00000000
00000100
00000000
00000001
,
00001000
00000000
00001001
00001000
00000010
00010000
00001000
01000000
,
00010000
00000000
10000000
00100000
01000000
00000000
00010000
00100000
,
00001000
00000000
00010000
00000100
00001000
00000100
00001000
00000000
,
00000001
00000010
00001000
00010000
00000000
01000000
10000000
00010000
,
00100000
00001000
00100000
00000000
00001000
00010000
00001000
00000100
,
00000002
00000000
00000000
00000000
,
00000000
00000000
00000000
00000000
,
00000003
00000000
00000000
00000000
,
00000000
00000000
00000000
00000000
;
