
//----- song ID: oron2 -----//
#TITLE:オリオンをなぞる;
#TITLETRANSLIT:Orion wo nazoru;
#BANNER:Orion wo nazoru.png;
#BACKGROUND:Orion wo nazoru-bg.png;
#CDTITLE:./CDTitles/DDR GRAND PRIX.png;
#MUSIC:Orion wo nazoru.ogg;
#SAMPLESTART:55.22;
#SAMPLELENGTH:15;
#DISPLAYBPM:182;
#BPMS:0=181.3,4=182;
#STOPS:244=0.33;
#NOTES:
     dance-single:
     :
     Beginner:
     2:
     :
0000
0000
0000
0000
,
0000
0000
0000
0000
,
0000
0000
0000
0000
,
0000
0000
0000
0000
,
0000
0000
0000
0000
,
0000
0000
0000
0000
,
0010
0000
0000
0000
,
0100
0000
0000
0000
,
0001
0000
0000
0000
,
1000
0000
0000
0000
,
0010
0000
0000
0000
,
0010
0000
0000
0000
,
0100
0000
0000
0000
,
0100
0000
0000
0000
,
0001
0000
0000
0000
,
1000
0000
0000
0000
,
0001
0000
0000
0000
,
1000
0000
0000
0000
,
0001
0000
0000
0000
,
0001
0000
0000
0000
,
1000
0000
0000
0000
,
1000
0000
0000
0000
,
0001
0000
0000
0000
,
0010
0000
0000
0000
,
0010
0000
0000
0000
,
0100
0000
0000
0000
,
0100
0000
0000
0000
,
0000
0000
0100
0000
,
0010
0000
0000
0000
,
0001
0000
0000
0000
,
1000
0000
0000
0000
,
0100
0000
0000
0000
,
0010
0000
0000
0000
,
0001
0000
0000
0000
,
1000
0000
0000
0000
,
0100
0000
0100
0000
,
1000
0000
0000
0000
,
0100
0000
0100
0000
,
0010
0000
0000
0000
,
0001
0000
0001
0000
,
0010
0000
0000
0000
,
0010
0000
0000
0000
,
0010
0000
0000
0000
,
0001
0000
0000
0000
,
0100
0000
0000
0000
,
0010
0000
0000
0000
,
1000
0000
0000
0000
,
0100
0000
0000
0000
,
0010
0000
0000
0000
,
0001
0000
0001
0000
,
1000
0000
0000
0000
,
0010
0000
0000
0000
,
0100
0000
0000
0000
,
0001
0000
0000
0000
,
0010
0000
0000
0000
,
0100
0000
0000
0000
,
1000
0000
0000
0000
,
0001
0000
0000
0000
,
0000
0000
0000
0000
,
1000
0000
0000
0000
,
0000
0000
0000
0000
,
0000
0010
0000
0000
,
0000
0100
0000
0000
,
0000
0001
0000
0000
,
0000
1000
0000
0000
,
0000
0010
0000
0010
,
0000
0100
0000
0100
,
0000
0010
0000
0000
,
0000
1001
0000
0000
,
0000
0000
0000
0000
;
#NOTES:
     dance-single:
     :
     Easy:
     5:
     :
0000
0000
0000
0000
,
0000
0000
0000
0000
,
0000
0000
0000
0000
,
0000
0000
0000
0000
,
0000
0000
0000
0000
,
0000
0000
0000
0000
,
0010
0000
0010
0000
,
1000
0000
1000
0000
,
0001
0000
0001
0000
,
1001
0000
0000
0000
,
0001
0000
0001
0000
,
1000
0100
0010
0000
,
0100
0000
0010
0000
,
0001
0100
0010
0000
,
2002
0000
3003
0000
,
0010
0100
0010
0000
,
2002
0000
3003
0000
,
0100
0010
0100
0000
,
0001
0000
1000
0000
,
1000
0100
1000
0000
,
1000
0000
0001
0000
,
0001
0100
0001
0000
,
2002
0000
3003
0000
,
1000
0100
1000
0000
,
2002
0000
3003
0000
,
0010
1000
0001
0000
,
0010
0000
0000
0100
0000
0100
0000
0100
,
0000
0100
0000
0000
0010
0000
0000
0000
,
0010
0000
1001
0000
,
0100
0001
1000
0000
,
0010
0000
1001
0000
,
0010
1000
0001
0000
,
0110
0000
1001
0000
,
0100
1000
0001
0000
,
0100
0100
0100
0000
,
0010
1000
0001
0000
,
0010
0010
0010
0000
,
0100
0001
1000
0000
,
0001
1000
0001
0000
,
0010
0100
0010
0000
,
0110
0000
0000
0000
0000
0000
0000
1001
,
0000
0000
0000
0000
,
0010
0000
0001
0000
,
0010
0001
0010
0000
,
0100
1000
0100
0000
,
1001
0000
0010
0100
,
0010
0000
1000
0001
,
1000
0000
0100
0000
,
0010
0001
1000
0000
,
0010
0010
0010
0000
,
0100
0000
1000
0000
,
0100
1000
0100
0000
,
0010
0001
0010
0000
,
1001
0000
0100
0010
,
0100
0000
0100
0000
,
1000
0001
1000
0000
,
0100
1000
0001
0010
,
0200
0000
0000
0300
,
0020
0000
0000
0030
,
2002
0000
0000
0000
,
0000
0000
0000
0000
0000
0000
0000
3003
,
0000
0001
0000
0001
,
0000
0010
0000
0010
,
0000
0100
0000
0100
,
0000
1001
0000
0000
,
0000
0020
0030
2000
,
3000
0002
0003
0200
,
0300
0000
0020
0000
0000
0000
0000
0030
,
0000
1001
0000
0000
0000
0000
0000
0000
,
0000
0000
0000
0000
;
#NOTES:
     dance-single:
     :
     Medium:
     8:
     :
0000
0000
0000
0000
,
0000
0000
0000
0000
,
0000
0000
0000
0000
,
0000
0000
0000
0000
,
0000
0000
0000
0000
,
0000
0000
0000
0000
,
0010
0010
1000
1000
,
0001
0001
0100
0100
,
0010
0000
1000
0000
0001
0000
0100
0020
,
0000
0000
0000
0000
0000
0030
0000
0000
,
1001
0010
0010
0010
,
0001
0001
1000
1000
,
1001
0010
0010
0010
,
1000
1000
0001
0001
,
1001
0000
0000
0000
0010
0100
0010
0100
,
0000
0000
0000
1001
,
0110
0000
0000
0000
0001
1000
0001
1000
,
0000
0000
0000
0110
,
1001
0100
0100
0100
,
0001
0001
1000
1000
,
1001
0100
0100
0100
,
1000
1000
0001
0001
,
1001
0000
0000
0000
0100
0010
0100
0010
,
0000
0000
0000
1001
,
0110
0000
0000
0000
1000
0001
1000
0001
,
0000
0000
0000
0110
,
1001
0000
0000
0010
0000
1000
0000
0001
,
0000
0100
0000
0010
0100
0000
0000
0000
,
0001
0001
0001
0001
,
0010
0100
0010
0000
,
1000
1000
1000
1000
,
0100
0010
0100
0000
,
1000
0001
1000
0001
,
0100
0010
0100
0110
,
0010
1000
0001
0100
,
0010
1000
0001
1001
,
0100
0001
1000
0010
,
0100
0001
1000
1001
,
0010
0010
0100
0100
,
0010
0100
0001
1000
,
2002
0000
0000
0000
,
3003
0000
0000
0000
0000
0000
0000
0001
,
0000
0000
0100
0000
0001
0000
1000
0010
,
0000
0000
0100
0010
0000
0000
0010
1000
,
0000
0000
0001
0100
0000
0010
0000
1001
,
0000
0000
0001
1000
,
0010
0110
0000
0001
,
1000
0110
0000
0001
,
0010
1000
0100
0001
,
0010
0100
1001
0000
,
0100
0000
0010
0000
1000
0000
0001
0100
,
0000
0000
0010
0100
0000
0000
0100
0001
,
0000
0000
1000
0010
0000
0100
0000
1001
,
0000
0000
1000
0001
,
0110
0000
1001
0000
,
0110
1001
0110
0000
,
0100
0001
0010
1000
,
0200
0000
0000
0000
,
0320
0000
0000
0000
,
0031
1000
0001
1000
,
0001
0000
1000
0100
0000
1001
0000
0110
,
0000
0010
0010
1000
,
1000
0001
0001
0100
,
0100
0000
0010
0000
1000
0001
0000
1000
,
0000
0020
0000
0000
0000
0000
0000
0000
,
0030
0100
0100
0010
,
0010
1000
1000
0001
,
0001
0000
0020
0000
0000
0100
0000
0100
,
0000
0130
0000
0000
0000
0000
0000
0000
,
0000
0000
0000
0000
;
#NOTES:
     dance-single:
     :
     Hard:
     11:
     :
0000
0000
0000
0000
,
0000
0000
0000
0000
,
0000
0000
0000
0000
,
0000
0000
0000
0000
,
0000
0000
0000
0000
,
0000
0000
0000
0000
,
1000
0000
0001
0000
0100
0001
0100
0000
,
0001
0000
1000
0000
0010
0100
0010
0000
,
1000
0000
1000
0000
0001
0000
0001
0100
,
0000
0100
0001
0100
0020
0000
0030
0000
,
1000
1000
1000
0001
,
1000
0000
0001
0010
0100
0000
0100
0000
,
1000
1000
1000
0100
,
0010
0000
0001
1000
0100
0000
0010
0000
,
0001
1000
0001
0000
1000
0100
0010
0002
,
0000
0000
0103
0010
1000
0000
0110
0000
,
1000
0001
1000
0000
0001
0100
0010
2000
,
0000
0000
3001
0100
0010
0000
0110
0000
,
0001
0001
0001
1000
,
0001
0000
1000
0010
0100
0000
0100
0000
,
0001
0001
0001
0100
,
0010
0000
1000
0001
0100
0000
0010
0000
,
1000
0001
1000
0000
0001
0100
0010
1002
,
0000
0000
1003
0100
0010
0000
0110
0000
,
0001
1000
0001
0000
1000
0100
0010
0002
,
0000
0000
1003
0100
0010
0000
0110
0000
,
0002
0000
0000
1000
0000
1000
0003
0100
,
0000
1001
0000
0010
0100
0000
0000
0000
,
0010
0000
0000
0001
0100
0000
0001
1000
,
0010
0000
0000
1000
0100
0000
1000
0001
,
0010
0000
0000
0001
0010
0000
0001
1000
,
0100
0000
0000
1000
0010
0000
1000
0001
,
0100
0000
0000
0010
0100
0000
0010
1000
,
0001
0100
0010
1000
0100
0000
0010
0000
,
0002
1000
0100
0103
,
2000
0001
0100
3100
,
0002
1000
0103
0010
,
2000
0001
3100
0010
,
1000
0001
0010
1100
,
0001
0000
0010
0000
0100
1000
0100
0010
,
0002
0000
0000
0000
0000
0000
0003
0110
,
0000
0000
0000
0000
0000
0000
0000
0020
,
0000
0000
0130
0001
0000
1000
0010
0100
,
0000
0001
0100
1000
0000
1000
0100
0001
,
0000
0001
0100
0010
0000
0100
0000
0220
,
0000
0330
0001
1000
,
0010
0000
0010
0000
1000
0100
1000
0000
,
0010
0000
0010
0000
1000
0010
0100
0001
,
0010
0000
0010
0000
0100
0000
0100
1000
,
0000
0100
0010
0000
0010
0000
0000
0000
,
0010
0000
0100
1000
0000
0100
0010
0001
,
0000
0001
0100
1000
0000
1000
0100
0001
,
0000
0001
0100
0010
0000
0100
0000
2002
,
0000
0000
3003
0000
0010
0000
1000
0100
,
1000
0000
0001
0100
0001
0000
1000
0000
,
0100
0010
0001
0010
0100
0000
0010
0000
,
0001
0100
0010
1000
0100
0010
0001
0200
,
0000
0000
0000
0000
0000
0000
0301
2000
,
0000
0000
0000
0000
3000
0010
1000
0000
,
0100
1000
0100
0010
0000
0001
1000
0100
,
0000
0001
1000
0010
0000
0100
0000
0010
,
0000
0000
0100
0000
0001
0000
1000
0100
,
0010
0001
0000
0001
1000
0001
0000
0100
,
0010
1000
0000
0001
0010
0100
0000
0010
,
0000
2200
0000
0000
3300
0000
0001
0000
,
0100
1000
0010
0100
,
0100
1000
0100
0010
,
0001
0000
1000
0100
0010
0001
0000
1100
,
0000
2002
0000
0000
3003
0000
0000
0000
,
0000
0000
0000
0000
;
#NOTES:
     dance-single:
     :
     Challenge:
     13:
     :
0000
0000
0000
0000
,
0000
0000
0000
0000
,
0000
0000
0000
0000
,
0000
0000
0000
0000
,
0000
0000
0000
0000
,
0000
0000
0000
0000
,
0010
0000
1000
0000
0100
1000
0100
0001
,
0000
0100
1000
0010
0001
0010
1000
0000
,
0001
0010
0100
0010
0001
1000
0100
0001
,
0000
0100
1000
0010
0001
0000
0110
0000
,
1001
0010
0100
0010
,
0010
0100
0010
1000
0100
0010
0001
0100
,
0010
0100
0001
1000
,
0100
0010
0100
1000
0001
0010
0100
0010
,
0001
0000
1000
0010
0100
0001
0000
1001
,
0000
0001
0010
0100
1000
0000
0110
0000
,
0010
0000
1000
0010
0100
0101
0000
1001
,
0000
0001
0010
0100
1100
0000
1001
0000
,
0010
0000
0100
0000
0001
0100
0010
0000
,
1000
0010
0001
0010
1000
0100
0001
0100
,
0010
0000
0001
0100
1000
0100
0001
0000
,
0001
0010
1000
0010
0001
0100
1000
0100
,
0010
0000
1000
0100
0010
0001
0000
0011
,
0000
0001
0100
0010
1000
0000
1100
0000
,
1000
0010
0100
0001
0010
1000
0000
0110
,
0000
1000
0100
0010
0001
0000
0100
0000
,
0010
0000
0100
0100
0000
1000
0000
0001
,
0000
0010
0000
0100
1001
0000
0000
0000
,
0001
1000
1000
0000
0001
1000
1000
0000
,
1000
0001
0100
0010
0100
0000
1001
0000
,
1000
0001
0001
0000
1000
0001
0001
0000
,
0010
1000
0001
0010
,
0100
0000
0001
0010
0010
0000
1000
0010
,
0010
0100
0001
1000
,
0001
0100
1000
0100
0001
0100
0000
0110
,
0000
0010
0100
0000
1000
0100
0001
0000
,
1000
0100
0001
0100
1000
0100
0000
0001
,
0000
0100
1000
0010
0100
0001
0010
0000
,
0100
0000
1000
0000
0010
0000
0100
0010
,
0000
0000
0001
0000
0010
0000
0100
0000
1000
0000
0000
0001
0000
0000
1000
0000
,
0000
0000
0000
0000
0000
0000
0000
1001
,
0000
0000
0000
0000
0000
0000
0000
0000
0001
0010
0100
1000
0001
0000
1000
0000
,
0000
0000
0001
0020
0000
1030
0010
0200
,
0000
0000
1300
0010
0000
1100
0000
0101
,
0000
0000
0010
0100
0000
1010
0000
0011
,
0000
0010
0100
0000
0001
0100
1000
0100
,
0010
0000
0000
0001
0010
1000
0010
0001
,
0000
1000
0100
0000
0000
1000
0010
0100
,
0001
0000
0110
0000
1001
0000
0010
0010
,
0000
0100
0100
0000
1001
0000
0000
0000
,
0001
0000
1000
0100
0000
0001
0000
0010
,
0000
0100
0010
0002
0000
0103
0010
2000
,
0000
0000
3010
0100
0000
0011
0000
0100
,
0000
0001
0100
0000
0010
0100
0010
1000
,
0001
0000
0000
0100
0010
0000
0000
0001
,
0010
1000
0010
0001
0100
0000
0000
0001
,
0100
0000
1000
0100
0000
0010
0000
0001
,
0000
0100
0010
0000
0100
0000
0001
0010
,
0000
0100
0010
0100
1000
0010
0001
0010
,
1000
0100
0010
0100
0000
0001
0100
0010
,
0000
1000
0001
0100
0000
1010
0000
0101
,
0000
0000
0001
0000
1000
0000
1000
0100
,
0010
0001
0000
0001
1000
0100
0000
0001
,
1000
0100
0000
0001
1000
1100
0000
0101
,
0000
0110
0000
0000
1001
0000
0001
0010
,
0100
0000
0010
0010
1000
1000
0001
0010
,
1000
0010
0001
0001
1000
1000
0010
0100
,
0001
0100
1000
0100
0100
0010
0000
0110
,
0000
2020
0000
0000
3030
0000
0000
0000
,
0000
0000
0000
0000
;
#NOTES:
     dance-double:
     :
     Easy:
     5:
     :
00000000
00000000
00000000
00000000
,
00000000
00000000
00000000
00000000
,
00000000
00000000
00000000
00000000
,
00000000
00000000
00000000
00000000
,
00000000
00000000
00000000
00000000
,
00000000
00000000
00000000
00000000
,
00010000
00000000
00001000
00000000
,
00000100
00000000
00000001
00000000
,
00000010
00000000
00000000
00000000
00000100
00000000
00000000
00001001
,
00000000
00000000
00000000
00000000
,
00001000
00000000
00000010
00000000
,
00000100
00010000
00001000
00000000
,
00100000
00000000
01000000
00000000
,
00100000
00001000
00010000
00000000
,
00000010
00000000
00000000
00000000
,
00000010
00001000
00000100
00000000
,
00022000
00000000
00000000
00000000
00000000
00033000
00000000
00000000
,
00100000
00001000
00010000
00000000
,
00010000
00000000
00100000
00000000
,
01000000
00001000
00010000
00000000
,
00000010
00000000
00001000
00000000
,
00000010
00010000
00001000
00000000
,
00100000
00000000
00000000
00000000
,
00100000
01000000
00001000
00000000
,
00022000
00000000
00000000
00000000
00000000
00033000
00000000
00000000
,
00000010
00010000
00001000
00010000
,
00011000
00000000
00010000
00000000
,
00001000
00010000
00011000
00000000
,
00010000
00000000
00001000
00000000
,
00000100
00000001
00000010
00000000
,
00000100
00000000
00011000
00000000
,
01000000
10000000
00100000
00000000
,
00010000
00000000
00001000
00000000
,
00010000
00001000
00000100
00000000
,
00000010
00000100
00000010
00000000
,
00000020
00000000
00000230
00000000
,
00000301
00000100
00001000
00000000
,
00020000
00000000
00032000
00000000
,
00013000
00001000
00100000
00000000
,
02000000
00000000
03200000
00000000
,
01300000
00000000
00000000
00000000
00000000
00000000
00000000
10010000
,
00000000
00000000
00000000
00000000
,
00100000
00000000
10000000
00000000
,
01000000
00100000
00010000
00000000
,
00100000
00001000
00010000
00000000
,
00011000
00000000
00001000
00000100
,
00000001
00000000
00000010
00000100
,
00001000
00000000
00000010
00001000
,
00000100
00000000
00010000
00000000
,
00001000
00000000
00011000
00000000
,
00000010
00000000
00000001
00000000
,
00000100
00000010
00001000
00000000
,
00000010
00010000
00001000
00000000
,
00011000
00000000
00000000
00000000
,
10010000
00000000
01100000
00000000
,
01100000
10010000
01100000
00000000
,
01000000
00010000
00100000
00001000
,
00020000
00000000
00000000
00030000
,
00002000
00000000
00000000
00003000
,
00022000
00000000
00000000
00000000
,
00000000
00000000
00000000
00033000
,
00000000
00010000
00000000
00001000
,
00000000
00000100
00000000
00000001
,
00000000
00000010
00000000
00000100
,
00000000
00001001
00000000
00000000
,
00000000
00001000
00001000
00010000
,
00010000
00000100
00010000
00001000
,
00100000
00000000
00001000
00000000
00000000
00010000
00000000
00001000
,
00000000
00010000
00000000
00000000
00000000
00000000
00000000
00000000
,
00000000
00000000
00000000
00000000
;
#NOTES:
     dance-double:
     :
     Medium:
     8:
     :
00000000
00000000
00000000
00000000
,
00000000
00000000
00000000
00000000
,
00000000
00000000
00000000
00000000
,
00000000
00000000
00000000
00000000
,
00000000
00000000
00000000
00000000
,
00000000
00000000
00000000
00000000
,
00000010
00000001
00000100
00000010
,
00000100
00001000
00010000
00001000
,
00100000
00000000
00010000
00000000
10000000
00000000
01000000
00200000
,
00000000
00000000
00000000
00000000
00000000
00300000
00000000
00000000
,
10000000
00100000
10000000
01000000
,
00100000
00001000
00010000
00100000
,
00010000
00001000
00000100
00000001
,
00000010
00000100
00001000
00000010
,
00001001
00000000
00000000
00000000
00000001
00000100
00001000
00010000
,
00000000
00000000
00010000
00001000
,
00011000
00000000
00000000
00000000
00001000
00010000
01000000
10000000
,
00000000
00000000
01100000
10010000
,
10000000
00100000
10000000
01000000
,
00100000
00001000
00010000
00100000
,
00010000
00001000
00000100
00000001
,
00000010
00000100
00001000
00000010
,
00001001
00000000
00000000
00000000
00000001
00000100
00001000
00010000
,
00000000
00000000
00001000
00010000
,
00011000
00000000
00000000
00000000
00010000
00001000
00000100
00000001
,
00000000
00000010
00000100
00001000
,
00000010
00000000
00000000
00010000
00000000
00001000
00000000
00010000
,
00000000
01000000
00000000
00100000
00010000
00000000
00000000
00000000
,
00100000
00000000
01000000
00000000
,
00110000
00101000
00110000
00000000
,
00001000
00000000
00010000
00000000
,
00110000
00011000
00000010
00001000
,
00000010
00000000
00001000
00000000
,
00001010
00010010
00001010
00000100
,
00000001
00000000
00000001
00000000
,
00000001
00001000
00000100
00000010
,
00001000
00000000
00010000
00000000
,
00001000
00100000
00010000
01000000
,
00100000
00000000
10000000
00000000
,
01000000
00010000
00100000
10000000
,
10010000
00000000
00000000
00000000
00000000
00000000
00000000
00011000
,
00000000
00000000
00000000
00000000
00000000
00000000
00000000
00000010
,
00000000
00000100
00000001
00000010
,
00000100
00000000
00001000
00000000
00000100
00000000
00010000
00001000
,
00000000
00000000
00010000
00001000
00000000
00010000
00000000
00011000
,
00000000
00000000
00100000
00010000
,
00100000
00110000
00000000
10000000
,
01000000
11000000
00000000
00100000
,
01000000
00010000
10000000
00100000
,
01000000
00010000
00011000
00000000
,
00100000
01000000
10000000
01000000
,
00100000
00000000
00010000
00000000
01000000
00000000
00001000
00010000
,
00000000
00000000
00001000
00010000
00000000
00001000
00000000
00011000
,
00000000
00000000
00000010
00001000
,
00001010
00000000
00000101
00000000
,
00000010
00001000
00000101
00000000
,
00000100
00000001
00001000
00000010
,
00000200
00000001
00000301
00002000
,
00000001
00000001
00003001
00000110
,
00001000
00000000
00000000
00010000
00000000
00001000
00000000
00010000
,
00000000
00001000
00000000
00010000
00000000
00001000
00000000
00011000
,
00000000
00100000
10000000
01000000
,
00100000
01000000
00010000
00001000
,
00010000
00000000
00000010
00000000
00000000
00001000
00000000
00000001
,
00000000
00000020
00000000
00000000
00000000
00000000
00000000
00000030
,
00000000
00000001
00000010
00000001
,
00000100
00000010
00010000
00001000
,
00000010
00000000
00002000
00000000
00000000
00010000
00000000
00103000
,
00000000
00011000
00000000
00000000
00000000
00000000
00000000
00000000
,
00000000
00000000
00000000
00000000
;
#NOTES:
     dance-double:
     :
     Hard:
     11:
     :
00000000
00000000
00000000
00000000
,
00000000
00000000
00000000
00000000
,
00000000
00000000
00000000
00000000
,
00000000
00000000
00000000
00000000
,
00000000
00000000
00000000
00000000
,
00000000
00000000
00000000
00000000
,
00001000
00000000
00001000
00000000
00010000
00001000
01000000
00000000
,
00010000
00000000
10000000
00000000
01000000
00010000
00001000
00000000
,
00000100
00000000
00000001
00000000
00001000
00000001
00000100
00000002
,
00000000
00001003
00000100
00000010
00000002
00000000
00000000
00000003
,
00001000
00000100
00001000
00000010
,
00010000
00000100
00001000
00000000
00000010
00010000
00001000
00000000
,
00010000
01000000
10000000
00100000
,
10000000
01000000
00100000
00000000
00001000
00100000
00001000
00000000
,
00010000
00001000
00010000
00000000
00001000
00010000
01000000
20000000
,
00000000
30010000
01000000
10000000
,
10000000
01000000
10000000
00000000
01000000
00010000
00001000
00000200
,
00000000
00000301
00001000
00000100
,
00000001
00000100
00001000
01000000
,
00010000
01000000
00010000
00000000
10000000
01000000
00100000
00000000
,
00010000
01000000
00001000
00000010
,
00000001
00000100
00000001
00000000
00001000
00000100
00000010
00000000
,
00000001
00000100
00000010
00000000
00001000
00000100
00010000
02000000
,
00000000
13000000
00010000
01000000
,
10000000
01000000
00100000
00000000
01000000
00010000
00001000
00000200
,
00000000
00000301
00000100
00001000
,
00002000
00000000
00000000
00000100
00000000
00003010
00000000
00011000
,
00000000
02000000
00000000
03010000
00100000
00000000
00000000
00000000
,
20000000
00000000
00000000
30010000
01000000
00000000
00100000
00000000
,
20000000
00000000
00000000
30010000
01000000
00000000
00001000
00000000
,
00020000
00000000
00000000
00031000
00000100
00000000
00000001
00000000
,
00000100
00000000
00000000
00000001
00000100
00000000
00000010
00001000
,
00000200
00000000
00000000
00000310
00000001
00000000
00000100
00000010
,
00001000
00000100
00010000
01000000
10000000
00000000
01010000
00000000
,
10000000
00000000
00010000
00000000
00010000
00000000
10000000
00100000
,
01000000
00010000
01000000
00100000
10000000
00000000
00010000
00000000
,
00100000
00000000
00001000
00000000
00001000
00000000
00010000
00001000
,
00000100
00000001
00000010
00000001
00000100
00000000
00000010
00000000
,
00001000
00000010
00000010
00000100
,
00000001
00000010
00000100
00000000
00010000
00001000
00000100
00000000
,
00000020
00000000
00000000
00000000
00000000
00000000
00000030
00001001
,
00000000
00000000
00000000
00000000
00000000
00000000
00000000
00000200
,
00000000
00000000
00000310
00000100
00000000
00001000
00000100
00000010
,
00000000
00000001
00000100
00000010
00000000
00010000
00001000
00010000
,
00000000
00100000
10000000
01000000
00000000
00100000
00000000
00020000
,
00000000
00000000
00000000
01030000
00010000
01000000
00010000
01000000
,
00000000
10000000
10000000
00000000
01000000
00010000
00100000
00001000
,
00000000
00010000
00010000
00000000
00000000
00001000
00000100
00000010
,
00000001
00000000
00000010
00000000
00001000
00000000
00001000
00000100
,
00000000
00000100
00010000
00000000
00001000
00000000
00000000
00000000
,
00010000
00000000
01000000
10000000
00000000
10000000
00100000
01000000
,
00000000
00010000
10000000
01000000
00000000
00100000
00001000
01000000
,
00000000
00010000
00100000
00010000
00000000
00100000
00000000
02200000
,
00000000
00000000
03300000
00000000
00100000
00000000
00010000
00100000
,
00010000
00000000
01000000
00100000
01000000
00000000
00001000
00000000
,
00010000
00001000
00000100
00000001
00000100
00000000
00000010
00000000
,
00001000
00000000
00000100
00010000
00000000
00011000
00000000
00120000
,
00000000
00000000
00000000
00000000
00000000
00000000
00130000
00002000
,
00000000
00000000
00000000
00000000
00000000
00013000
01000000
10000000
,
00010000
01000000
00010000
01000000
00000000
00001000
01000000
00100000
,
00000000
00010000
00001000
00000100
00000000
00000001
00000000
00001000
,
00000000
00000000
00001000
00000000
00000001
00000000
00001000
00000100
,
00001000
00000100
00000000
00000100
00010000
00001000
00000000
00100000
,
00010000
00200000
00000000
00300000
00010000
10000000
00000000
01000000
,
00000000
00200000
00000000
00000000
00000000
00000000
00301000
00000000
,
00100000
00000000
01000000
00000000
10000000
00000000
10000000
01000000
,
00010000
00000000
00001000
00000100
00000001
00000000
00001000
00000100
,
00000001
00000000
00000100
00010000
00001000
00010000
00000000
01000000
,
00000000
20020000
00000000
00000000
30030000
00000000
00000000
00000000
,
00000000
00000000
00000000
00000000
;
#NOTES:
     dance-double:
     :
     Challenge:
     13:
     :
00000000
00000000
00000000
00000000
,
00000000
00000000
00000000
00000000
,
00000000
00000000
00000000
00000000
,
00000000
00000000
00000000
00000000
,
00000000
00000000
00000000
00000000
,
00000000
00000000
00000000
00000000
,
00100000
00000000
10000000
00000000
01000000
00010000
00001000
00000100
,
00000000
00000001
00000100
00001000
00000100
00000001
00000010
00000000
,
00001000
00000010
00000001
00000010
00001000
00100000
01000000
00010000
,
00000000
10000000
00100000
00010000
02000000
00000000
03000000
00000000
,
10000000
00000000
00100000
00010000
01000000
00100000
10000000
00000000
,
01000000
00100000
00010000
00100000
01000000
00010000
01000000
10000000
,
01000000
00100000
01000000
00010000
,
00100000
00010000
00001000
00000010
00000001
00000010
00000100
00000000
,
00001001
00000000
00000001
00000100
00001000
00000100
00000000
00000020
,
00000000
00001030
00000100
00010000
00001000
00010000
01000000
00100000
,
10000000
00100000
00010000
00100000
01000000
10000000
00000000
00110000
,
00000000
00010000
00100000
10000000
00100000
00000000
00101000
00000000
,
01000000
00000000
00010000
01000000
00100000
00000000
10000000
00000000
,
00100000
00010000
00001000
00000100
00000010
00000000
00000001
00000100
,
00001000
00000000
00001000
00000100
00000001
00000010
00000001
00000000
,
00000001
00000010
00000100
00001000
00000100
00001000
00000010
00010000
,
00001000
00000000
00010000
01000000
10000000
00100000
00000000
01010000
,
00000000
00100000
01000000
00001000
00100000
00000000
00001000
00000100
,
00000010
00000000
00001000
00000010
00000001
00000010
00000000
00000002
,
00000000
00000013
00000100
00000001
00000010
00000100
00001000
00000001
,
00000100
00000000
00000010
00010000
00000000
00001000
00000000
00010000
,
00000000
00001000
00100000
01000000
10000000
00000000
01010000
00000000
,
10000000
01000000
10000000
00000000
00010000
01000000
00010000
00000000
,
10000000
01000000
00010000
00001000
00000100
00000000
00000110
00000000
,
00000001
00000100
00000001
00000000
00001000
00000100
00001000
00000000
,
00000001
00000100
00001000
00010000
01000000
00000000
01100000
00000000
,
00010000
01000000
00010000
00000000
10000000
01000000
10000000
00000000
,
10000000
01000000
00010000
00001000
00000100
00000000
00000001
00000010
,
00000100
00000000
00001000
00000100
00000010
00000100
00000000
00000001
,
00000100
00001000
00000100
00000001
00000100
00001000
00000010
00000000
,
00000100
00000000
00000001
00000100
00001000
00010000
00000000
00001000
,
00100000
01000000
10000000
00100000
01000000
00010000
10000000
00010000
,
01000000
00000000
00100000
10000000
01000000
00010000
00000000
01000000
,
00010000
00000000
00001000
00000000
00000100
00000000
00000001
00000000
00000010
00000000
00000000
00000100
00000000
00000000
00002002
00000000
,
00000000
00000000
00000000
00000000
00000000
00000000
00003003
00000110
,
00000000
00000000
00000000
00000000
00000000
00000000
00000000
00000000
00000001
00001000
00000001
00001000
00000001
00000000
00000020
00000000
,
00000000
00000000
00000031
00000010
00000000
00000100
00001000
00010000
,
00000000
00001000
00010000
00100000
00000000
00010000
00100000
02000000
,
00000000
00000000
03100000
01000000
00000000
00110000
00000000
11000000
,
00000000
00010000
00100000
00000000
00100000
00010000
01000000
10000000
,
00000000
01000000
00100000
00000000
10000000
00010000
01000000
00100000
,
00000000
10000000
00010000
10000000
00000000
01000000
00010000
00100000
,
00110000
00000000
00011000
00000000
00001010
00000000
00000100
00000010
,
00000000
00000001
00000010
00000100
00002200
00000000
00003300
00000000
,
00010000
00000000
00001000
00100000
00000000
00010000
01000000
10000000
,
00000000
01000000
00100000
10000000
00000000
00010000
00100000
02000000
,
00000000
00000000
13000000
00100000
00000000
10100000
00000000
00101000
,
00000000
00000000
00000000
00100000
00001000
00000100
00000001
00000010
,
00001000
00000000
00000000
00000010
00000001
00000000
00000000
00000001
,
00000100
00001000
00010000
00100000
02000000
00000000
00000000
03010000
,
00100000
00000000
10000000
01000000
00000000
01100000
00000000
00010000
,
00001000
00000010
00000001
00000010
00000100
00000010
00000001
00000100
,
00001000
00010000
01000000
10000000
01000000
10000000
00100000
00010000
,
10000000
01000000
00100000
01000000
00000000
00100000
00010000
00001000
,
00000000
00010000
00001000
00000100
00000000
00000010
00000000
00000110
,
00000000
00000000
00000001
00000000
00000100
00000000
00000010
00000100
,
00000010
00001000
00000000
00001000
00000100
00010000
00000000
00010000
,
01000000
00100000
00000000
10000000
00100000
00010000
00000000
00110000
,
00000000
11000000
00000000
00000000
10010000
00000000
01000000
01000000
,
01000000
00000000
00010000
00100000
10000000
00100000
00010000
00001000
,
00000100
00000010
00000001
00000100
00001000
00010000
00100000
01000000
,
00001000
00010000
00001000
00000100
00000001
00000010
00000000
00001100
,
00000000
00000202
00000000
00000000
00000303
00000000
00000000
00000000
,
00000000
00000000
00000000
00000000
;
