
//----- song ID: odop -----//
#TITLE:おどるポンポコリン;
#TITLETRANSLIT:Odoru Pompokolin;
#BANNER:Odoru Pompokolin.png;
#BACKGROUND:Odoru Pompokolin-bg.png;
#CDTITLE:./CDTitles/DDR MUSIC FIT.png;
#MUSIC:Odoru Pompokolin.ogg;
#SAMPLESTART:43.042;
#SAMPLELENGTH:15;
#DISPLAYBPM:139;
#BPMS:0=139.5,4=139.4;
#STAGE:5;
#NOTES:
     dance-single:
     :
     Beginner:
     1:
     :
0000
0000
0000
0000
,
0000
0000
0000
0000
,
0000
0000
0000
0000
,
0000
0000
0000
0000
,
0000
0000
0000
0000
,
0001
0000
0000
0000
,
0000
0000
0000
0000
,
1000
0000
0000
0000
,
0000
0000
0000
0000
,
0001
0000
0000
0000
,
1000
0000
0000
0000
,
0010
0000
0000
0000
,
0000
0000
0000
0000
,
1000
0000
0000
0000
,
0001
0000
0000
0000
,
0010
0000
0000
0000
,
0000
0000
0000
0000
,
0002
0000
0000
0000
,
0003
0000
0000
0000
,
2000
0000
0000
0000
,
3000
0000
0000
0000
,
0010
0000
0000
0000
,
0010
0000
0010
0000
,
0010
0000
0000
0000
,
0000
0000
0000
0000
,
1000
0000
1000
0000
,
1000
0000
0000
0000
,
0001
0000
0001
0000
,
0001
0000
0000
0000
,
0010
0000
0010
0000
,
0010
0000
0000
0000
,
0010
0000
0000
0000
,
0000
0000
0000
0000
,
0001
0000
0001
0000
,
0001
0000
0000
0000
,
1000
0000
1000
0000
,
1000
0000
0000
0000
,
0010
0000
0010
0000
,
0010
0000
0000
0000
,
0010
0000
0000
0000
,
0000
0000
0000
0000
,
0010
0000
0010
0000
,
0010
0000
0000
0000
,
0100
0000
0100
0000
,
0100
0000
0000
0000
,
0010
0000
0010
0000
,
0010
0000
0000
0000
,
0020
0000
0000
0000
,
0000
0000
0000
0000
,
0000
0000
0000
0000
0030
0000
,
0000
0000
0000
0000
;
#NOTES:
     dance-single:
     :
     Easy:
     3:
     :
0000
0000
0000
0000
,
0000
0000
0000
0000
,
0000
0000
0000
0000
,
0000
0000
0000
0000
,
0000
0000
0000
0000
,
0001
0000
0000
0000
,
1000
0000
0000
0000
,
0010
0000
0010
0000
,
0010
0000
0000
0000
,
1000
0000
1000
0000
,
0001
0000
0000
0000
,
0010
0000
0010
0000
,
0001
0000
0000
0000
,
1000
0000
1000
0000
,
0001
0000
0000
0000
,
0100
0000
0000
0000
,
0010
0000
0000
0000
,
1000
0000
1000
0000
,
1000
0000
0000
0000
,
0001
0000
0001
0000
,
0001
0000
0000
0000
,
0010
0000
0000
0000
,
0010
0000
0010
0000
,
0020
0000
0030
0000
,
0000
0000
0000
0000
,
0001
1000
0001
1000
,
0000
0000
0000
0000
,
0001
0010
0001
0010
,
0000
0000
0000
0000
,
0001
1000
0001
1000
,
0000
0000
0001
0000
,
0002
0000
0000
0000
,
0003
0000
0000
0000
,
1000
0001
1000
0001
,
0000
0000
0000
0000
,
1000
0010
1000
0010
,
0000
0000
0000
0000
,
1000
0001
1000
0000
,
0000
0000
1000
0000
,
2000
0000
0000
0000
,
3000
0000
0000
0000
,
0001
1000
0001
1000
,
0000
0000
0000
0000
,
0001
0100
0001
0100
,
0000
0000
0000
0000
,
0001
1000
0001
0000
,
0000
0000
0010
0000
,
0020
0000
0000
0000
,
0000
0000
0000
0000
,
0000
0000
0000
0000
0030
0000
,
0000
0000
0000
0000
;
#NOTES:
     dance-single:
     :
     Medium:
     7:
     :
0000
0000
0000
0000
,
0000
0000
0000
0000
,
0000
0000
0000
0000
,
0000
0000
0000
0000
,
0000
0000
0000
0000
,
1000
0000
0001
0000
1000
0000
0000
0010
,
0000
0010
0000
0010
1000
0000
0000
0000
,
0001
0010
0100
0010
,
0001
1000
0010
0010
,
1000
0001
0100
0010
,
1000
0001
0000
0001
0000
0000
0000
0000
,
1000
0100
0010
0001
,
1000
0010
0000
0010
0000
0000
0000
0000
,
1000
0001
0010
0100
,
1000
0001
0000
0000
1000
0001
0000
0001
,
0000
1000
0010
0100
,
0001
1000
0000
1000
0000
0000
0000
0001
,
0000
0001
0010
0000
0010
0000
0000
0000
,
0001
0010
0001
0010
0000
0001
0000
1000
,
0000
1000
0010
0000
0010
0000
0000
0000
,
1000
0010
1000
0010
0000
1000
0000
0000
,
0000
0001
0100
0010
,
1000
0100
0010
0001
,
2000
0000
0000
3000
,
0000
0001
0000
0000
1000
0000
1000
0000
,
0001
0000
0010
0001
0010
0000
0001
0000
,
0000
0100
0000
0000
0001
0000
0001
0000
,
1000
0000
0010
1000
0010
0000
1000
0000
,
0000
0100
0000
0000
1000
0000
1000
0000
,
0001
0000
0100
0001
0100
0000
0001
0000
,
0000
0010
0000
0010
0001
0000
0001
0000
,
2000
0000
0000
3000
,
0000
0010
0000
0000
1000
0000
0001
0000
,
1000
0000
0010
1000
0010
0000
1000
0000
,
0000
0100
0000
0000
1000
0000
1000
0000
,
0001
0000
0010
0001
0010
0000
0001
0000
,
0000
0100
0000
0000
0001
0000
0001
0000
,
1000
0000
0100
1000
0100
0000
0000
0010
,
0000
0001
0010
0000
0001
0000
1000
0000
,
0002
0000
0000
0003
,
0000
1000
0000
1000
0000
1000
0000
1000
,
0001
0000
0100
0001
0100
0000
0001
0000
,
0000
0010
0000
0000
0001
0000
0001
0000
,
1000
0000
0100
1000
0100
0000
1000
0000
,
0000
0010
0000
0000
1000
0000
1000
0000
,
0001
0000
0010
0001
0010
0000
0000
0100
,
0000
1000
0100
0000
1000
0000
0001
0000
,
2000
0000
0000
0000
,
0000
0000
0000
0000
,
0000
0000
0000
0000
3000
0000
,
0000
0000
0000
0000
;
#NOTES:
     dance-single:
     :
     Hard:
     9:
     :
0000
0000
0000
0000
,
0000
0000
0000
0000
,
0000
0000
0000
0000
,
0000
0000
0000
0000
,
0000
0000
0000
0000
,
0001
0000
0010
0100
1000
0000
0010
1000
,
0000
0100
1000
0100
1000
0000
0001
0000
,
1000
0100
0010
0000
0001
0010
0100
0000
,
1000
0001
0100
0000
0010
0000
0010
0000
,
1000
0000
0100
1000
0100
0000
1000
0100
,
0010
0001
0000
0010
0000
0000
0000
0001
,
0000
0100
0001
0100
0001
0100
0000
0010
,
1000
0010
0000
0100
0000
0000
0000
0000
,
0001
0010
0001
0010
0001
0000
1000
0000
,
1001
0000
0000
0000
0110
0000
0000
0001
,
0000
1000
0010
1000
0010
0000
0100
0000
,
0001
1000
0000
0100
0000
0000
0000
2000
,
0000
0001
0001
0000
3001
0000
0000
0000
,
1000
0001
1000
0010
0000
1000
0000
0002
,
0000
1000
1000
0000
1003
0000
0000
0000
,
0001
1000
0001
0010
0000
0001
0000
0000
,
0000
0000
1000
0000
0100
0010
0000
0001
,
0000
0000
0010
0000
0100
0010
0000
0002
,
0000
0000
0003
0000
,
0000
1000
0000
0001
0100
0010
0100
0000
,
0002
0000
0013
0100
2000
0000
3010
0100
,
0000
0010
0000
1000
0001
0010
0001
0000
,
2000
0000
3010
0100
0002
0000
0013
0100
,
0000
0010
0000
0001
1000
0010
1000
0000
,
0002
0000
0013
0100
2000
0000
3010
0100
,
0000
0010
0000
0010
1000
0001
1000
0001
,
0200
0000
0000
0300
,
0000
0001
0000
1000
0100
0010
0100
0000
,
2000
0000
3010
0100
0002
0000
0013
0100
,
0000
0010
0000
0001
1000
0010
1000
0000
,
0002
0000
0013
0100
2000
0000
3010
0100
,
0000
0001
0001
0000
1000
1000
0001
0000
,
2000
0000
3010
0100
0002
0003
0001
0010
,
0000
0100
0010
0100
1000
0000
0001
0200
,
0000
0000
0000
0300
,
0000
0001
0000
1000
0000
0001
0000
1000
,
0020
0000
1030
0001
0020
0000
0031
1000
,
0000
0100
0000
1000
0001
0100
0001
0000
,
0020
0000
0031
1000
0020
0000
1030
0001
,
0000
1000
1000
0000
0001
0001
1000
0000
,
0020
0000
1030
0001
0020
0030
0010
0100
,
0000
0010
0100
1000
0001
0000
0100
0020
,
0000
0000
0000
0000
,
0000
0000
0000
0000
,
0000
0000
0000
0000
0030
0000
,
0000
0000
0000
0000
;
#NOTES:
     dance-single:
     :
     Challenge:
     11:
     :
0000
0000
0000
0000
,
0000
0000
0000
0000
,
0000
0000
0000
0000
,
0000
0000
0000
0000
,
0000
0000
0000
0000
,
0102
0000
1003
0100
2100
0000
3001
0010
,
0000
0100
0100
0010
0001
0000
0100
0100
,
1000
0100
0001
0010
1000
0010
0001
0100
,
1000
0001
0010
0100
1001
0000
0110
0000
,
1001
0000
0001
0100
0101
0000
1000
0100
,
0110
0002
0000
0020
0000
0033
0000
1100
,
0000
0100
0001
0100
1000
0010
0000
0001
,
0010
2000
0000
0002
0000
0000
3003
0000
,
1010
0010
0100
0001
0010
0100
1000
0010
,
0110
1000
0000
0100
0110
0001
0000
2100
,
3000
0100
0001
0100
1000
0001
0100
0010
,
0001
0000
0010
0000
0000
0000
1001
0000
1000
0010
0000
0100
0010
0000
1002
0000
,
0000
1000
1003
0100
2000
3010
0010
0000
,
0101
0001
0100
2000
3000
0200
0300
2001
,
0000
0001
3001
0100
0002
0013
0010
0000
,
1100
1000
0100
0002
0003
0200
0000
0000
,
0300
0000
2001
0000
3020
0032
0000
0203
,
0000
0000
0302
0000
0023
2030
0000
0200
,
0000
3000
0000
0020
0000
0000
0000
0330
,
0000
0011
0000
0001
0100
1000
0100
0001
,
0012
0000
1003
0010
2010
0000
3001
0010
,
0000
1001
0000
1000
0100
0001
0100
0000
,
2100
0000
3001
0100
0102
0000
1003
0100
,
0000
1001
0000
0001
0010
1000
0010
0000
,
0210
0000
1300
0010
0210
0000
0301
0010
,
0000
1100
0000
0100
0001
0100
1000
0020
,
0200
0000
0000
0000
0000
0000
0000
0330
,
0000
1010
0000
1000
0100
0001
0100
1000
,
2010
0000
3100
0010
0012
0000
0103
0010
,
0000
1001
0000
0001
0100
1000
0100
0000
,
0102
0000
0013
0100
2100
0000
3010
0100
,
0000
0000
1001
0000
1000
0000
0001
0000
0100
0000
0010
0100
0010
0000
0000
0000
,
0210
0000
0301
0010
0220
0330
0000
2002
,
3003
1000
0100
0001
0100
0000
1000
2000
,
0002
0000
0000
0000
0000
0000
0000
3003
,
0000
0011
0000
1010
0000
0101
0000
1100
,
0012
0000
0103
1000
1200
0000
0301
0010
,
0000
1001
0000
1000
0100
0001
0100
0000
,
2010
0000
3100
0001
0201
0000
1300
0010
,
0000
0000
1001
0000
0001
0000
1000
0000
0100
0000
0010
0100
0010
0000
0000
0000
,
0210
0000
1300
0010
0220
0330
0000
2002
,
0003
3001
0010
1000
0010
0000
0001
0002
,
1000
0000
0100
0000
1000
0000
,
0100
0000
2000
0000
0000
0000
,
0000
0000
0000
0000
3003
0000
,
0000
0000
0000
0000
;
#NOTES:
     dance-double:
     :
     Easy:
     3:
     :
00000000
00000000
00000000
00000000
,
00000000
00000000
00000000
00000000
,
00000000
00000000
00000000
00000000
,
00000000
00000000
00000000
00000000
,
00000000
00000000
00000000
00000000
,
00001000
00000000
00000000
00000000
,
00010000
00000000
00000000
00000000
,
00001000
00000000
00001000
00000000
,
00001000
00000000
00000000
00000000
,
00010000
00000000
00010000
00000000
,
00000010
00000000
00000000
00000000
,
00001000
00000000
00001000
00000000
,
00000001
00000000
00000000
00000000
,
00001000
00000000
00001000
00000000
,
00000100
00000000
00000000
00000000
,
00010000
00000000
00010000
00000000
,
00001000
00000000
00000000
00000000
,
00100000
00000000
00100000
00000000
,
00100000
00000000
00000000
00000000
,
00010000
00000000
00010000
00000000
,
00010000
00000000
00000000
00000000
,
10000000
00000000
00000000
00000000
,
10000000
00000000
10000000
00000000
,
20000000
00000000
30000000
00000000
,
00000000
00000000
00000000
00000000
,
00010000
10000000
00010000
10000000
,
00000000
00000000
00000000
00000000
,
00010000
00100000
00010000
00100000
,
00000000
00000000
00000000
00000000
,
00001000
00010000
00001000
00010000
,
00000000
00000000
00000010
00000000
,
00000020
00000000
00000000
00000000
,
00000030
00000000
00000000
00000000
,
00001000
00000001
00001000
00000001
,
00000000
00000000
00000000
00000000
,
00001000
00000010
00001000
00000010
,
00000000
00000000
00000000
00000000
,
00010000
00001000
00010000
00000000
,
00000000
00000000
00001000
00000000
,
00200000
00000000
00000000
00000000
,
00300000
00000000
00000000
00000000
,
00010000
10000000
00010000
10000000
,
00000000
00000000
00000000
00000000
,
00010000
01000000
00010000
01000000
,
00000000
00000000
00000000
00000000
,
00001000
00010000
00001000
00000000
,
00000000
00000000
00010000
00000000
,
00002000
00000000
00000000
00000000
,
00000000
00000000
00000000
00000000
,
00000000
00000000
00000000
00000000
00003000
00000000
,
00000000
00000000
00000000
00000000
;
#NOTES:
     dance-double:
     :
     Medium:
     7:
     :
00000000
00000000
00000000
00000000
,
00000000
00000000
00000000
00000000
,
00000000
00000000
00000000
00000000
,
00000000
00000000
00000000
00000000
,
00000000
00000000
00000000
00000000
,
00010000
00000000
00001000
00000000
00010000
00000000
00000000
00000010
,
00000000
00000010
00000000
00000010
00010000
00000000
00000000
00000000
,
00001000
00000010
00000001
00000100
,
00001000
00010000
00100000
00100000
,
10000000
00010000
01000000
00100000
,
10000000
00010000
00000000
00010000
00000000
00000000
00000000
00000000
,
10000000
01000000
00010000
00001000
,
00000100
00000001
00000000
00000001
00000000
00000000
00000000
00000000
,
00001000
00000001
00000010
00000100
,
00001000
00000001
00000000
00000000
00001000
00000001
00000000
00000001
,
00000000
00000010
00001000
00010000
,
00100000
10000000
00000000
10000000
00000000
00000000
00000000
00010000
,
00000000
00010000
00100000
00000000
00100000
00000000
00000000
00000000
,
00001000
00100000
00001000
00100000
00000000
00001000
00000000
00010000
,
00000000
00010000
00000010
00000000
00000010
00000000
00000000
00000000
,
00001000
00000001
00001000
00000001
00000000
00000100
00000000
00000000
,
00000000
00001000
00010000
00100000
,
10000000
01000000
00010000
00001000
,
00020000
00000000
00000000
00030000
,
00000000
00000010
00000000
00000000
00001000
00000000
00001000
00000000
,
00000001
00000000
00000010
00000001
00000010
00000000
00000001
00000000
,
00000000
00001000
00000000
00000000
00000010
00000000
00000010
00000000
,
00010000
00000000
00001000
00010000
00001000
00000000
00010000
00000000
,
00000000
00001000
00000000
00000000
00100000
00000000
00100000
00000000
,
00010000
00000000
01000000
00010000
01000000
00000000
00010000
00000000
,
00000000
00100000
00000000
00100000
01000000
00000000
01000000
00000000
,
20000000
00000000
00000000
30000000
,
00000000
00100000
00000000
00000000
10000000
00000000
00010000
00000000
,
10000000
00000000
00100000
10000000
00100000
00000000
10000000
00000000
,
00000000
00010000
00000000
00000000
00100000
00000000
00100000
00000000
,
00001000
00000000
00010000
00001000
00010000
00000000
00001000
00000000
,
00000000
00010000
00000000
00000000
00000010
00000000
00000010
00000000
,
00001000
00000000
00000100
00001000
00000100
00000000
00000000
00000010
,
00000000
00000001
00000010
00000000
00000001
00000000
00001000
00000000
,
00000002
00000000
00000000
00000003
,
00000000
00001000
00000000
00001000
00000000
00001000
00000000
00001000
,
00000001
00000000
00000100
00000001
00000100
00000000
00000001
00000000
,
00000000
00001000
00000000
00000000
00000100
00000000
00000100
00000000
,
00010000
00000000
00001000
00010000
00001000
00000000
00010000
00000000
,
00000000
00001000
00000000
00000000
01000000
00000000
01000000
00000000
,
00010000
00000000
00100000
00010000
00100000
00000000
00000000
01000000
,
00000000
10000000
01000000
00000000
00010000
00000000
00001000
00000000
,
00020000
00000000
00000000
00000000
,
00000000
00000000
00000000
00000000
,
00000000
00000000
00000000
00000000
00030000
00000000
,
00000000
00000000
00000000
00000000
;
#NOTES:
     dance-double:
     :
     Hard:
     9:
     :
00000000
00000000
00000000
00000000
,
00000000
00000000
00000000
00000000
,
00000000
00000000
00000000
00000000
,
00000000
00000000
00000000
00000000
,
00000000
00000000
00000000
00000000
,
00001000
00000000
01000000
00010000
10000000
00000000
00010000
00100000
,
00000000
00001000
00010000
00001000
00010000
00000000
00000010
00000000
,
00001000
00000100
00000010
00000000
00000001
00000010
00000100
00000000
,
00010000
00001000
01000000
00000000
00100000
00000000
00100000
00000000
,
10000000
00000000
01000000
10000000
01000000
00000000
10000000
01000000
,
00100000
00010000
00000000
00100000
00000000
00000000
00000000
00001000
,
00000000
00010000
00001000
00010000
00001000
00010000
00000000
00000010
,
00001000
00000010
00000000
00000100
00000000
00000000
00000000
00000000
,
00000001
00000010
00000001
00000010
00000001
00000000
00001000
00000000
,
00001001
00000000
00000000
00000000
00011000
00000000
00000000
00001000
,
00000000
01000000
00010000
01000000
00010000
00000000
10000000
00000000
,
00010000
00100000
00000000
00001000
00000000
00000000
00000000
00020000
,
00000000
00001000
00001000
00000000
00031000
00000000
00000000
00000000
,
00010000
00001000
00000010
00000001
00000000
00000100
00000000
00002000
,
00000000
00010000
00010000
00000000
00013000
00000000
00000000
00000000
,
00001000
00010000
00100000
10000000
00000000
01000000
00000000
00000000
,
00000000
00000000
10000000
00000000
00100000
00010000
00000000
00001000
,
00000000
00000000
00010000
00000000
00001000
00000010
00000000
00000002
,
00000000
00000000
00000003
00000000
,
00000000
00001000
00000000
00000001
00000100
00000010
00000100
00000000
,
00000002
00000000
00000013
00000100
00002000
00000000
00003010
00000100
,
00000000
00000010
00000000
00000100
00001000
00010000
00001000
00000000
,
00200000
00000000
00301000
00010000
00000020
00000000
00010030
00001000
,
00000000
00100000
00000000
00010000
10000000
00100000
10000000
00000000
,
00020000
00000000
00130000
01000000
20000000
00000000
30100000
01000000
,
00000000
00010000
00000000
00010000
00100000
00001000
00100000
00001000
,
00020000
00000000
00000000
00030000
,
00000000
00000010
00000000
00010000
00001000
00100000
00010000
00000000
,
20000000
00000000
30100000
01000000
00020000
00000000
00130000
01000000
,
00000000
00100000
00000000
01000000
00010000
00001000
00010000
00000000
,
00000020
00000000
00010030
00001000
00200000
00000000
00301000
00010000
,
00000000
00000100
00000100
00000000
00001000
00001000
00000001
00000000
,
00002000
00000000
00003010
00000100
00000002
00000003
00000001
00000010
,
00000000
00000100
00000010
00000001
00000100
00000000
00001000
00020000
,
00000000
00000000
00000000
00030000
,
00000000
00001000
00000000
00100000
00000000
00001000
00000000
00010000
,
00000020
00000000
00001030
00000001
00000020
00000000
00000031
00001000
,
00000000
00000010
00000000
00000100
00001000
00010000
00001000
00000000
,
02000000
00000000
03001000
00010000
00000200
00000000
00010300
00001000
,
00000000
00100000
00100000
00000000
00010000
00010000
10000000
00000000
,
00200000
00000000
10300000
00010000
00200000
00300000
00100000
01000000
,
00000000
00100000
01000000
10000000
00100000
00000000
00010000
00002000
,
00000000
00000000
00000000
00000000
,
00000000
00000000
00000000
00000000
,
00000000
00000000
00000000
00000000
00003000
00000000
,
00000000
00000000
00000000
00000000
;
#NOTES:
     dance-double:
     :
     Challenge:
     11:
     :
00000000
00000000
00000000
00000000
,
00000000
00000000
00000000
00000000
,
00000000
00000000
00000000
00000000
,
00000000
00000000
00000000
00000000
,
00000000
00000000
00000000
00000000
,
00020100
00000000
00031000
01000000
01002000
00000000
00013000
00000010
,
00000000
00010000
00001000
00100000
00010000
00000000
10000000
10000000
,
01000000
00010000
00001000
00000010
00000001
00000010
00001000
00010000
,
01000000
00100000
00010000
10000000
10010000
00000000
00011000
00000000
,
00001001
00000000
00000001
00000100
00000101
00000000
00001000
00000100
,
00000110
00000002
00000000
00002000
00000000
00003003
00000000
00011000
,
00000000
00001000
00010000
01000000
10000000
00100000
00000000
00010000
,
00100000
20000000
00000000
00020000
00000000
00000000
30030000
00000000
,
00110000
00100000
01000000
00010000
00001000
00010000
00001000
00000010
,
00000110
00000100
00000000
00010000
00011000
00001000
00000000
01100000
,
00000000
10000000
01000000
00010000
01000000
10000000
00100000
00010000
,
00001000
00000000
00000010
00000000
00000000
00000000
00001001
00000000
00000001
00000010
00000000
00000100
00000010
00000000
00002001
00000000
,
00000000
00000001
00003001
00000100
00000002
00001003
00001000
00000000
,
00010100
00010000
00001000
02000000
03000000
00200000
00300000
10020000
,
00000000
10000000
10030000
01000000
20000000
30010000
00010000
00000000
,
01001000
00001000
00010000
00000200
00000300
00000020
00000000
00000000
,
00000030
00000000
00002001
00000000
00003020
00000032
00000000
00000203
,
00000000
00000000
00000302
00000000
00000023
00020030
00000000
00000200
,
00000000
00030000
00000000
00000020
00000000
00000000
00000000
00000330
,
00000000
00011000
00000000
00001000
01000000
10000000
01000000
00010000
,
00120000
00000000
10030000
00100000
20100000
00000000
30010000
00100000
,
00000000
10010000
00000000
10000000
01000000
00010000
00001000
00000000
,
00020010
00000000
00031000
00100000
00102000
00000000
00013000
00000100
,
00000000
00011000
00000000
00001000
00000010
00000001
00000010
00000000
,
00000210
00000000
00001300
00000010
00000210
00000000
00000301
00000010
,
00000000
00010100
00000000
00010000
00001000
01000000
10000000
02000000
,
00200000
00000000
00000000
00000000
00000000
00000000
00000000
03300000
,
00000000
00011000
00000000
00010000
00000100
00000001
00000100
00001000
,
00002010
00000000
00003100
00000010
00000012
00000000
00000103
00000010
,
00000000
00001001
00000000
00000001
00000100
00001000
00010000
00000000
,
00102000
00000000
00013000
00000010
00020010
00000000
00031000
00100000
,
00000000
00000000
00011000
00000000
00010000
00000000
01000000
00000000
10000000
00000000
00100000
01000000
00100000
00000000
00000000
00000000
,
01200000
00000000
10300000
01000000
02200000
03300000
00000000
00022000
,
00033000
00010000
00001000
00000010
00000001
00000000
00001000
00002000
,
00000002
00000000
00000000
00000000
00000000
00000000
00000000
00003003
,
00000000
00000101
00000000
00010010
00000000
00101000
00000000
01010000
,
20100000
00000000
31000000
00010000
02010000
00000000
13000000
00100000
,
00000000
10010000
00000000
10000000
01000000
00010000
00001000
00000000
,
00020010
00000000
00030100
00010000
00102000
00000000
01003000
00001000
,
00000000
00000000
00010010
00000000
00000010
00000000
00001000
00000000
00000001
00000000
00000010
00000100
00000010
00000000
00000000
00000000
,
00000120
00000000
00000031
00000100
00000220
00000330
00000000
00022000
,
00003000
00031000
00010000
00100000
10000000
00000000
01000000
00020000
,
00001000
00000000
00000010
00000000
00001000
00000000
,
00100000
00000000
00002000
00000000
00000000
00000000
,
00000000
00000000
00000000
00000000
00033000
00000000
,
00000000
00000000
00000000
00000000
;
