
//----- song ID: natu -----//
#TITLE:夏祭り;
#TITLETRANSLIT:Natsumatsuri;
#BANNER:Natsumatsuri.png;
#BACKGROUND:Natsumatsuri-bg.png;
#CDTITLE:./CDTitles/DDR GRAND PRIX.png;
#MUSIC:Natsumatsuri.ogg;
#SAMPLESTART:59.047;
#SAMPLELENGTH:15;
#DISPLAYBPM:142;
#BPMS:0=142,196=143;
#NOTES:
     dance-single:
     :
     Beginner:
     3:
     :
0000
0000
0000
0000
,
0000
0000
0000
0000
,
0000
0000
0000
0000
,
0000
0000
0000
0000
,
0000
0000
0000
0000
,
0002
0000
0000
0000
,
0000
0000
0003
0000
,
2000
0000
0000
0000
,
0000
0000
0000
3000
,
0020
0000
0000
0000
,
0000
0000
0030
0000
,
0200
0000
0000
0000
,
0000
0000
0300
0000
,
0020
0000
0000
0000
,
0000
0000
0030
0000
,
1000
0000
1000
0000
,
0001
0000
0001
0000
,
0010
0000
0010
0000
,
0100
0000
0100
0000
,
1000
0000
0000
0000
,
0010
0000
0000
0000
,
1000
0000
0000
0000
,
0100
0000
0000
0000
,
0010
0000
0000
0000
,
0001
0000
0000
0000
,
0010
0000
0000
0000
,
0100
0000
0000
0000
,
1000
0000
0000
0000
,
0001
0000
0000
0000
,
0100
0000
0000
0000
,
0001
0000
0000
0000
,
0010
0000
0000
0000
,
0100
0000
0000
0000
,
0010
0000
0000
0000
,
0001
0000
0000
0000
,
0100
0000
0100
0000
,
0010
0000
0010
0000
,
1000
0000
0001
0000
,
1001
0000
0000
0000
,
0001
0000
0001
0000
,
1000
0000
1000
0000
,
0010
0000
0100
0000
,
0110
0000
0000
0000
,
1000
0000
0100
0000
,
1000
0000
0010
0000
,
0100
0000
0001
0000
,
1001
0000
0000
0000
,
0001
0000
0010
0000
,
0001
0000
0100
0000
,
0010
0000
1000
0000
,
0001
0000
0100
0000
,
0010
0000
0100
0000
,
0001
0000
1000
0000
,
0010
0010
0010
0000
,
0000
0000
0000
0000
;
#NOTES:
     dance-single:
     :
     Easy:
     5:
     :
0000
0000
0000
0000
,
0000
0000
0000
0000
,
0000
0000
0000
0000
,
0000
0000
0000
0000
,
0000
0000
0000
0000
,
0200
0000
0000
0300
,
0002
0000
0000
0003
,
0200
0000
0000
0300
,
0020
0000
0000
0030
,
2000
0000
0000
3000
,
0002
0000
0000
0003
,
0200
0000
0000
0300
,
0020
0000
0000
0030
,
2000
0000
0000
3000
,
0200
0000
0000
0300
,
0010
0010
0001
0001
,
1000
1000
0010
0010
,
0100
0100
0001
0001
,
1000
0001
1001
0000
,
0010
1000
0001
0100
,
0010
0100
0010
0000
,
1000
0100
0010
0001
,
0100
0010
0100
0000
,
0001
0000
0001
0000
,
2000
0000
0000
3000
,
0100
0000
0100
0000
,
0020
0000
0000
0030
,
0100
1000
0001
0100
,
0010
0100
0010
0000
,
1000
0100
0010
0001
,
0100
0010
0100
0000
,
0001
0000
0001
0000
,
0020
0000
0000
0030
,
0100
0000
0100
0000
,
2000
0000
0000
3000
,
0010
0100
0110
0000
,
0001
0010
1001
0000
,
1000
0010
0100
0010
,
0220
0000
0000
0330
,
0100
0010
0110
0000
,
1000
0010
1001
0000
,
0001
0100
0010
0100
,
0220
0000
0000
0330
,
0001
1000
1001
0000
,
0010
0001
0110
0000
,
0010
0100
0001
1000
,
2002
0000
0000
3003
,
1000
0001
1001
0000
,
0100
1000
0110
0000
,
0100
0010
1000
0001
,
0010
0010
0100
0100
,
1000
1000
0001
0001
,
0100
0100
0010
0010
,
1000
0001
1001
0110
,
0000
0000
0000
0000
;
#NOTES:
     dance-single:
     :
     Medium:
     8:
     :
0000
0000
0000
0000
,
0000
0000
0000
0000
,
0000
0000
0000
0000
,
0000
0000
0000
0000
,
0000
0000
0000
0000
,
0020
0000
0230
0000
,
0320
0000
0130
0000
,
0002
0000
0000
0003
,
2000
0000
0000
3000
,
0020
0000
0230
0000
,
0302
0000
1003
0000
,
0200
0000
0320
0000
,
0032
0000
1003
0000
,
0020
0000
0000
0030
,
0200
0000
0000
0300
,
0001
0010
0001
0000
1000
0010
1000
0000
,
0001
0100
0001
0000
0100
0010
0100
0000
,
0010
1000
0010
0000
0100
0001
0100
0000
,
0010
0100
0010
0000
1000
0000
0001
0000
,
1001
0100
1001
0010
,
1001
0000
0100
0010
0100
0000
0001
0000
,
0110
1000
0110
0001
,
0110
0000
1000
0001
1000
0000
0001
0000
,
0100
0001
0010
0100
,
2000
0000
3100
0010
,
0100
1000
0010
0100
,
0002
0000
0013
0100
,
1001
0010
1001
0100
,
1001
0000
0010
0100
0010
0000
1000
0000
,
0110
0001
0110
1000
,
0110
0000
0001
0010
0001
0000
1000
0000
,
0100
1000
0010
0100
,
0002
0000
0103
0010
,
0100
0001
0010
0100
,
2000
0000
3010
0100
,
0001
0000
1000
0000
1001
0000
0001
0100
,
1000
0000
0100
0000
0001
0000
1000
0010
,
0001
0010
1000
0001
,
2000
3010
0002
0013
,
0001
0000
1000
0000
1001
0000
1000
0100
,
0001
0000
0100
0000
1000
0000
0001
0100
,
1000
0100
0001
0010
,
0220
0000
0000
0330
,
0001
0000
1000
0000
1001
0000
0001
0010
,
1000
0000
0010
0000
0001
0000
1000
0010
,
0001
0010
1000
0001
,
2000
3100
0002
0103
,
0001
0000
1000
0000
1001
0000
1000
0010
,
0001
0000
0010
0000
1000
0000
0001
0010
,
1000
0010
0001
1000
,
0010
0100
0010
0000
1000
0100
1000
0000
,
0001
0010
0001
0000
0100
0010
0100
0000
,
0010
1000
0010
0000
1000
0100
1000
0000
,
0001
0100
0110
1001
,
0000
0000
0000
0000
;
#NOTES:
     dance-single:
     :
     Hard:
     12:
     :
0000
0000
0000
0000
,
0000
0000
0000
0000
,
0000
0000
0000
0000
,
0000
0000
0000
0000
,
0000
0000
0000
0000
,
2000
0000
3200
0000
,
0320
0000
0031
1000
,
0020
0000
0000
0030
,
0200
0000
0000
0300
,
0020
0000
2030
0000
,
3002
0000
0103
0001
,
0020
0000
0230
0000
,
0320
0000
0031
0100
,
0020
0000
2030
0000
,
3200
0000
0310
0001
,
0100
0010
0100
0010
0100
0010
0100
0010
,
1000
0100
1000
0100
1000
0100
1000
0100
,
0010
0001
0010
0001
0010
0001
0010
0001
,
1000
0010
0100
0001
1000
0010
1000
0100
,
0010
0000
1000
0100
0010
0000
1000
0100
,
0001
0000
0000
0001
0100
0000
1000
0000
1000
0000
0000
0000
0001
0000
0010
0000
,
0100
0000
0001
0010
0100
0000
0001
0100
,
1000
0000
0000
1000
0100
0000
0001
0000
0001
0000
0000
0000
1000
0000
0010
0000
,
1000
0000
1000
0000
0001
0000
1000
0100
,
0020
0000
0100
0000
0130
0000
0001
0100
,
0001
0000
0001
0000
0010
0000
0001
0100
,
0020
0000
1000
0000
1030
0000
0001
0010
,
0100
0000
0001
0100
0010
0000
0001
0010
,
1000
0000
0000
1000
0010
0000
0001
0000
0001
0000
0000
0000
1000
0000
0100
0000
,
0010
0000
1000
0010
0100
0000
1000
0010
,
0001
0000
0000
0001
0010
0000
1000
0000
1000
0000
0000
0000
0001
0000
0010
0000
,
0001
0000
0001
0000
0010
0000
0001
0100
,
0020
0000
0100
0000
0130
0000
1000
0100
,
1000
0000
1000
0000
0010
0000
1000
0100
,
0020
0001
0001
0130
,
0110
0000
0011
0000
1100
0000
0001
0010
,
0100
0000
1000
0000
0010
0000
1000
0100
,
1000
0000
0100
0000
0010
0000
0001
0100
,
0002
1003
0020
0130
,
0110
0000
1010
0000
0101
0000
1000
0010
,
0100
0000
0001
0000
0010
0000
0001
0100
,
0001
1000
0010
1000
,
2002
0000
0000
3003
,
0110
0000
1010
0000
0101
0000
1000
0010
,
0100
0000
0001
0000
0010
0000
0001
0100
,
0001
0000
0100
0000
0010
0000
1000
0100
,
2000
3001
0020
0130
,
0110
0000
0011
0000
1100
0000
0001
0010
,
0100
0000
1000
0000
0010
0000
1000
0100
,
1000
0001
0010
0100
,
0010
0100
0010
0100
0010
0100
0010
0100
,
1000
0010
1000
0010
1000
0010
1000
0010
,
0100
0001
0100
0001
0100
0001
0100
0001
,
1000
0100
0010
0001
1000
1000
0001
0001
,
0000
0000
0000
0000
;
#NOTES:
     dance-double:
     :
     Easy:
     5:
     :
00000000
00000000
00000000
00000000
,
00000000
00000000
00000000
00000000
,
00000000
00000000
00000000
00000000
,
00000000
00000000
00000000
00000000
,
00000000
00000000
00000000
00000000
,
00020000
00000000
00000000
00030000
,
00002000
00000000
00000000
00003000
,
00000200
00000000
00000000
00000300
,
00002000
00000000
00000000
00003000
,
00020000
00000000
00000000
00030000
,
02000000
00000000
00000000
03000000
,
20000000
00000000
00000000
30000000
,
00200000
00000000
00000000
00300000
,
00020000
00000000
00000000
00030000
,
00002000
00000000
00000000
00003000
,
00010000
00010000
00000010
00000010
,
00001000
00001000
00000001
00000001
,
00000100
00000100
00000010
00000010
,
00001000
00000100
00010000
00000000
,
00001000
00010000
00001000
00100000
,
00010000
10000000
00010000
00000000
,
10000000
00100000
01000000
00010000
,
00100000
00001000
00010000
00000000
,
00001000
00000000
00000010
00000000
,
00000002
00000000
00000000
00000003
,
00000100
00000000
00001000
00000000
,
00020000
00000000
00000000
00030000
,
00001000
00010000
00001000
01000000
,
00010000
10000000
00100000
00000000
,
10000000
01000000
00100000
00010000
,
00100000
00001000
00010000
00000000
,
00001000
00000000
00000100
00000000
,
00000002
00000000
00000000
00000003
,
00000010
00000000
00001000
00000000
,
00020000
00000000
00000000
00030000
,
01000000
00100000
01100000
00000000
,
10000000
00010000
10010000
00000000
,
00001000
00010000
00000100
00001000
,
00000002
00000000
00000000
00000003
,
00001000
00000100
00001100
00000000
,
00010000
00001000
00011000
00000000
,
00001000
00100000
00010000
01000000
,
00200000
00000000
00000000
00300000
,
10000000
00010000
00110000
00000000
,
00001000
00010000
00011000
00000000
,
00000100
00001000
00000001
00001000
,
00000200
00000000
00000000
00000300
,
00010000
00001000
00011000
00000000
,
01000000
00010000
01010000
00000000
,
10000000
00100000
00010000
00001000
,
00000010
00000010
00000001
00000001
,
00001000
00001000
00000100
00000100
,
00010000
00010000
00001000
00001000
,
00100000
00010000
10000000
10010000
,
00000000
00000000
00000000
00000000
;
#NOTES:
     dance-double:
     :
     Medium:
     8:
     :
00000000
00000000
00000000
00000000
,
00000000
00000000
00000000
00000000
,
00000000
00000000
00000000
00000000
,
00000000
00000000
00000000
00000000
,
00000000
00000000
00000000
00000000
,
00020000
00000000
00030020
00000000
,
00002030
00000000
00003100
00000000
,
00020000
00000000
00000000
00030000
,
00002000
00000000
00000000
00003000
,
00200000
00000000
00320000
00000000
,
20030000
00000000
31000000
00000000
,
00200000
00000000
00320000
00000000
,
00032000
00000000
00003100
00000000
,
00000020
00000000
00000000
00000030
,
00000002
00000000
00000000
00000003
,
00001000
00000100
00001000
00000000
00000100
00010000
00000100
00000000
,
00010000
00001000
00010000
00000000
00001000
00100000
00001000
00000000
,
00100000
00010000
00100000
00000000
00010000
01000000
00010000
00000000
,
01000000
00100000
01000000
00000000
00100000
00000000
10000000
00000000
,
11000000
00010000
00110000
00001000
,
00011000
00000000
00010000
00000100
00010000
00000000
00000100
00000000
,
00001100
00000010
00000011
00000001
,
00000101
00000000
00001000
00000100
00001000
00000000
00000001
00000000
,
00000100
00001000
00010000
01000000
,
20000000
00000000
30100000
10000000
,
01000000
00010000
00001000
00000100
,
00000002
00000000
00000013
00000100
,
00001100
00010000
00011000
00100000
,
00110000
00000000
00010000
01000000
00010000
00000000
10000000
00000000
,
10100000
00010000
01010000
00001000
,
00011000
00000000
00010000
00000010
00010000
00000000
00000010
00000000
,
00001000
00000001
00000100
00000010
,
00002000
00000000
00003100
00010000
,
00001000
01000000
00010000
00100000
,
00020000
00000000
10030000
00100000
,
01000000
00000000
00010000
00000000
01010000
00000000
10000000
00100000
,
00010000
00000000
00001000
00000000
00000010
00000000
00000001
00000100
,
00001000
00010000
01000000
10000000
,
00020000
00130000
00002000
00013000
,
00000100
00000000
00001000
00000000
00001100
00000000
00000001
00000010
,
00001000
00000000
00010000
00000000
00100000
00000000
10000000
01000000
,
00010000
00001000
00000100
00000010
,
00000220
00000000
00000000
00000330
,
00001000
00000000
00000010
00000000
00001010
00000000
00000001
00000100
,
00001000
00000000
00010000
00000000
01000000
00000000
10000000
00100000
,
00010000
00001000
00000010
00000001
,
00002000
00003100
00020000
00031000
,
00100000
00000000
00010000
00000000
00110000
00000000
10000000
01000000
,
00010000
00000000
00001000
00000000
00000100
00000000
00000001
00000010
,
00001000
00010000
00100000
10000000
,
00010000
00100000
00010000
00000000
00100000
00001000
00100000
00000000
,
00001000
00010000
00001000
00000000
00010000
00000100
00010000
00000000
,
00000100
00001000
00000100
00000000
00001000
00000010
00001000
00000000
,
00000001
00001000
00001100
00011000
,
00000000
00000000
00000000
00000000
;
#NOTES:
     dance-double:
     :
     Hard:
     14:
     :
00000000
00000000
00000000
00000000
,
00000000
00000000
00000000
00000000
,
00000000
00000000
00000000
00000000
,
00000000
00000000
00000000
00000000
,
00000000
00000000
00000000
00000000
,
00200000
00000000
20300000
00000000
,
32000000
00000000
03010000
00001000
,
00020000
00000000
00000000
00030000
,
00002000
00000000
00000000
00003000
,
00000020
00000000
00000032
00000000
,
00002003
00000000
00003010
00010000
,
00002000
00000000
00023000
00000000
,
02030000
00000000
03100000
00010000
,
20000000
00000000
30200000
00000000
,
00320000
00000000
00031000
00000100
,
00000001
00000100
00000001
00000000
00000100
00000001
00000100
00000000
00000001
00000100
00000001
00000000
00000100
00000001
00000010
00000000
,
00000001
00000010
00000001
00000000
00000010
00000001
00000010
00000000
00000001
00000010
00000001
00000000
00000010
00000001
00001000
00000000
,
00000001
00001000
00000001
00000000
00001000
00000001
00001000
00000000
00000001
00001000
00000001
00000000
00001000
00000001
00001000
00000000
,
00000010
00001000
00000010
00000000
00001000
00000100
00001000
00000000
00000100
00010000
00000100
00000000
00010000
00000000
00001000
00000000
,
00010000
00000000
00001000
00100000
00001000
00000000
00100000
00010000
,
00100000
00000000
00000000
00010000
01000000
00000000
00100000
00000000
00100000
00000000
00000000
00000000
10000000
00000000
01000000
00000000
,
10000000
00000000
01000000
00100000
01000000
00000000
00100000
00010000
,
00100000
00000000
00000000
00010000
01000000
00000000
00001000
00000000
00001000
00000000
00000000
00000000
00010000
00000000
00001000
00000000
,
00000100
00000000
00001000
00000000
00000100
00000000
00000001
00000010
,
00000002
00000000
00001000
00000000
00001003
00000000
00000001
00000100
,
00001000
00000000
00001000
00000000
00010000
00000000
01000000
00010000
,
02000000
00000000
10000000
00000000
13000000
00000000
00010000
00100000
,
00010000
00000000
00100000
00001000
00100000
00000000
00000100
00010000
,
00000100
00000000
00000000
00001000
00000100
00000000
00000010
00000000
00000010
00000000
00000000
00000000
00000001
00000000
00000010
00000000
,
00000001
00000000
00000010
00000100
00000010
00000000
00000100
00001000
,
00000100
00000000
00000000
00010000
00001000
00000000
01000000
00000000
01000000
00000000
00000000
00000000
00001000
00000000
00100000
00000000
,
00010000
00000000
00010000
00000000
10000000
00000000
01000000
00010000
,
00002000
00000000
00010000
00000000
00013000
00000000
00010000
00000100
,
00001000
00000000
00001000
00000000
00000001
00000000
00000100
00001000
,
00020000
00001000
00001000
00130000
,
01100000
00000000
10010000
00000000
00110000
00000000
00001000
00010000
,
00000010
00000000
00001000
00000000
00000100
00000000
00000010
00000001
,
00000010
00000000
00000001
00000000
00000100
00000000
00000010
00001000
,
00000020
00001030
00002000
00003001
,
00000110
00000000
00001001
00000000
00001100
00000000
00010000
00001000
,
00100000
00000000
00010000
00000000
01000000
00000000
00100000
10000000
,
00100000
10000000
01000000
00100000
,
00220000
00000000
00000000
00330000
,
00011000
00000000
00001100
00000000
00000011
00000000
00001000
00000001
,
00000100
00000000
00000010
00000000
00001000
00000000
00000100
00010000
,
00000100
00000000
00010000
00000000
00001000
00000000
00100000
00010000
,
00200000
01300000
20000000
30010000
,
10100000
00000000
01010000
00000000
00011000
00000000
00010000
00000010
,
00001000
00000000
00000100
00000000
00000010
00000000
00000001
00001000
,
00000001
00000100
00000010
00001000
,
00000100
00001000
00000100
00000000
00001000
00000100
00001000
00000000
00000100
00010000
00000100
00000000
00010000
00000100
00010000
00000000
,
00001000
00010000
00001000
00000000
00010000
00001000
00010000
00000000
00001000
01000000
00001000
00000000
01000000
00001000
01000000
00000000
,
00010000
00100000
00010000
00000000
00100000
00010000
00100000
00000000
00010000
10000000
00010000
00000000
10000000
00010000
10000000
00000000
,
00100000
10000000
00100000
00000000
10000000
00100000
10000000
00000000
00100000
01000000
00100000
00000000
01000000
00100000
01000000
00000000
,
00000000
00000000
00000000
00000000
;
