
//----- song ID: mici -----//
#TITLE:Midnight City Warfare;
#ARTIST:sky_delta;
#BANNER:Midnight City Warfare.png;
#BACKGROUND:Midnight City Warfare-bg.png;
#CDTITLE:./CDTitles/jubeat clan.png;
#MUSIC:Midnight City Warfare.ogg;
#SAMPLESTART:86.668;
#SAMPLELENGTH:15;
#BPMS:0=180;
#BGSTAGE:31;
#NOTES:
     dance-single:
     :
     Beginner:
     4:
     :
0000
0000
0000
0000
,
0000
0000
0000
0000
,
0000
0000
0000
0000
,
0000
0000
0000
0000
,
0000
0000
0000
0000
,
0000
0000
0000
0000
,
0000
0000
0000
0000
,
0000
0000
0000
0000
,
0000
0000
0000
0000
,
1000
0000
0000
0000
,
1000
0000
0000
0000
,
0010
0000
0000
0000
,
0000
0000
0000
0000
,
0010
0000
0000
0000
,
0010
0000
0000
0000
,
0001
0000
0000
0000
,
0000
0000
0000
0000
,
0001
0000
0010
0000
,
0001
0000
0000
0000
,
0010
0000
0010
0000
,
1000
0000
0000
0000
,
1000
0000
0010
0000
,
1000
0000
0000
0000
,
0010
0000
0010
0000
,
0001
0000
0000
0000
,
0002
0000
0000
0000
,
0003
0000
0000
0000
,
0020
0000
0000
0000
,
0030
0000
0000
0000
,
0020
0000
0000
0000
,
0030
0000
0000
0000
,
2000
0000
0000
0000
,
3000
0000
0000
0000
,
1000
0000
0100
0000
,
1000
1000
0100
0000
,
0010
0000
0010
0000
,
0001
0000
0000
0000
,
0001
0000
0100
0000
,
0001
0001
0100
0000
,
0010
0000
0010
0000
,
1000
0000
0000
0000
,
1000
0000
0010
0000
,
1000
0000
1000
0000
,
0010
0000
0010
0000
,
0001
0000
0000
0000
,
0002
0000
0000
0000
,
0003
0000
0000
0000
,
2000
0000
0000
0000
,
3000
0000
0000
0000
,
1001
0000
0000
0000
,
0110
0000
0000
0000
,
1001
0000
0000
0000
,
0000
0000
0000
0000
,
1000
0000
1000
0000
,
0100
0000
0010
0000
,
0001
0000
0001
0000
,
0001
0000
0000
0000
,
1001
0000
0000
0000
,
0000
0000
0000
0000
,
1001
0000
0000
0000
,
0000
0000
0000
0000
,
0001
0000
0010
0000
,
0001
0001
0010
0000
,
0010
0000
1000
0000
,
1000
0000
0000
0000
,
1000
1000
0010
0000
,
1000
0000
0000
0000
,
0010
0000
0010
0000
,
0001
0000
0000
0000
,
0001
0001
0010
0000
,
0001
0000
0000
0000
,
0010
0000
0010
0000
,
1000
0000
0000
0000
,
1000
0000
0010
0000
,
1000
1000
0010
0000
,
0010
0000
0100
0000
,
0010
0000
0000
0000
,
0001
0000
0010
0000
,
0001
0001
0010
0000
,
0010
0000
0100
0000
,
0010
0000
0000
0000
,
1001
0000
0000
0000
,
0001
0010
0010
0000
,
1001
0000
0000
0000
,
1000
0010
0010
0000
,
0001
0000
0001
0000
,
0010
0000
0010
0000
,
1000
0000
1000
0000
,
2000
0000
0000
3000
,
0000
0000
0000
0000
;
#NOTES:
     dance-single:
     :
     Easy:
     8:
     :
0000
0000
0000
0000
,
0000
0000
0000
0000
,
0000
0000
0000
0000
,
0000
0000
0000
0000
,
0000
0000
0000
0000
,
0000
0000
0000
0000
,
0000
0000
0000
0000
,
0000
0000
0000
0000
,
0000
0000
0000
0000
,
0002
0000
0000
0003
,
0001
0100
0010
0000
,
2000
0000
0000
3000
,
1000
0100
0010
0000
,
0001
1000
0001
1000
,
0010
0100
0010
0000
,
1000
0000
0000
1000
0000
0000
0001
0000
,
0000
0001
0000
0000
1001
0000
0000
0000
,
1000
0100
1000
0100
,
0010
0000
0001
0000
1000
0001
1000
0000
,
0001
0100
0001
0100
,
0010
0000
1000
0000
0001
1000
0001
0000
,
1000
0010
0100
0001
,
1000
0000
0010
0000
0100
0001
0100
0000
,
0001
0000
0000
0001
0000
0000
1000
0000
,
0000
1000
0000
0000
1001
0000
0000
0000
,
0002
0000
0000
0000
,
0003
0000
0000
0000
,
2000
0000
0000
0000
,
3000
0000
0000
0000
,
0020
0000
0000
0000
,
0030
0000
0000
0000
,
0200
0000
0000
0000
,
0300
0000
0000
0000
,
0001
0100
0001
0001
,
1000
0100
1000
0000
,
1000
0010
1000
1000
,
0001
0010
0001
0000
,
0001
0010
0001
0001
,
0100
0001
0010
0000
,
0001
1000
0010
1000
,
0002
0000
0000
0003
,
1000
0010
1000
0100
,
1000
0001
1000
0000
,
1000
0010
0100
0001
,
1000
1000
0001
0000
,
2000
0000
0000
3000
,
0002
0000
0000
0003
,
1000
0000
0001
0000
1000
0001
1000
0000
,
0000
0000
0000
0000
,
1001
0000
0110
0000
,
1001
0000
0110
0000
,
1001
0000
0110
0000
,
1000
0100
0010
0000
,
0001
0010
1000
0000
,
1000
0010
0001
0000
,
1000
0001
1000
0001
,
2000
0000
0000
3000
,
0002
0000
0000
0000
,
0003
0000
0000
0000
,
2000
0000
0000
0000
,
3000
0000
0000
0000
,
0001
0010
0001
0100
,
0001
0000
0010
0000
0001
1000
0001
0000
,
1000
0010
1000
0100
,
2000
0000
0000
3000
,
1000
0000
0100
0000
0010
0001
0010
0000
,
0001
1000
0001
0000
,
0001
0000
0100
0000
0010
1000
0010
0000
,
1000
0001
1000
0000
,
0001
0000
1000
0000
0010
0100
0010
0000
,
1000
0000
0001
0000
0010
0100
0010
0000
,
0001
0010
0100
1000
,
0001
0000
0100
0000
0010
0000
1000
0001
,
1000
0001
0100
0010
,
1000
0001
1000
0001
1000
0000
0000
0000
,
0001
1000
0100
0010
,
0001
1000
0001
1000
0001
0000
0000
0000
,
1000
0100
0001
0000
,
0001
0100
1000
0000
,
0001
0000
0100
0000
0010
1000
0001
0000
,
2000
0000
0000
3000
,
1001
0000
0001
0001
,
0010
0010
0010
0000
,
1001
0000
1000
1000
,
0010
0010
0010
0000
,
1000
0010
0100
0001
,
0000
1000
0000
0000
0001
0000
0000
0000
,
1000
0001
1000
0000
0001
1000
0001
0000
,
2000
0000
0000
3000
,
0000
0000
0000
0000
;
#NOTES:
     dance-single:
     :
     Medium:
     12:
     :
0000
0000
0000
0000
,
0000
0000
0000
0000
,
0000
0000
0000
0000
,
0000
0000
0000
0000
,
0000
0000
0000
0000
,
0000
0000
0000
0000
,
0000
0000
0000
0000
,
0000
0000
0000
0000
,
0000
0000
0000
0000
,
1000
0010
0100
0001
0000
0001
1000
0000
,
0001
0010
0100
1000
0000
1000
0001
0000
,
1000
0100
0010
0001
0000
0001
1000
0000
,
0001
0100
0010
1000
0000
1000
0001
0000
,
1000
0100
0010
0100
1000
0001
1000
0100
,
0010
0100
1000
0001
1000
0100
0010
0000
,
0011
0000
0000
1001
0000
0000
1100
0000
,
0000
0110
0000
0000
1001
0000
0000
0000
,
0001
1000
0010
0100
0001
0010
0100
1000
,
0001
0100
1000
0100
0001
1000
0010
0000
,
1000
0001
0010
0100
1000
0010
0100
0001
,
1000
0100
0001
0100
1000
0001
0010
0000
,
0001
0100
0010
1000
0100
0010
0001
0100
,
0010
1000
0100
0010
0001
1000
0001
0000
,
1000
0100
1000
0100
0000
1000
0010
1000
,
0010
1000
0000
0001
0100
0001
0100
0000
,
0002
0000
0000
0000
,
0000
0000
0000
0003
,
2000
0000
0000
0000
,
0000
0000
0000
3000
,
0001
0001
0001
0001
,
1000
1000
1000
1000
,
0001
1000
0001
1000
0001
1000
0001
1000
,
0001
0000
0000
0000
,
1001
0000
0001
0100
1000
0100
0001
0000
,
1000
0100
1000
0100
0001
0100
1000
0000
,
0001
0010
0100
0000
1000
0010
0100
0000
,
0101
0001
1010
1000
,
1001
0000
0001
0010
1000
0010
0001
0000
,
1000
0010
1000
0010
0001
0010
1000
0000
,
0001
0100
0010
0000
1000
0100
0010
0000
,
0001
0000
0000
1000
0000
0000
1001
0000
0000
0000
0000
0000
0000
0000
0000
0000
,
1001
0000
0001
0010
1000
0010
0001
1000
,
0001
0000
1000
0010
0001
0010
1000
0001
,
1000
0000
0001
0100
1000
0100
0001
1000
,
0001
0101
0100
0110
,
1000
0000
0000
1010
0000
0000
0001
0000
,
0000
0101
0000
0000
1001
0000
0000
0000
,
1000
0100
0010
0001
1000
0001
1000
0001
,
1000
0000
0000
0000
,
1001
0000
0000
0000
0001
0000
0000
0100
0000
0000
0100
0000
0000
0010
0000
0000
,
0010
0000
0000
0000
1000
0000
0000
0100
0000
0000
0100
0000
0000
0010
0000
0000
,
0010
0000
0000
0000
0001
0000
0000
0010
0000
0000
0010
0000
0000
0100
0000
0000
,
0100
1000
0001
1001
,
1000
0000
0100
0001
0100
0000
1000
0000
,
0010
0001
0010
0000
1000
0000
0001
0000
,
1001
0000
0001
0010
1000
0010
0001
0000
,
1000
0000
0000
0001
0000
0000
1000
0000
0000
0000
0000
0000
0000
0000
0000
0000
,
0020
0000
0000
0030
,
0200
0000
0000
0300
,
0002
0000
0000
0003
,
2000
0000
0000
3000
,
0001
0010
0001
0000
0010
0100
1000
0000
,
1000
0010
1000
0000
0010
0100
0001
0000
,
0001
0100
0010
1000
0100
0010
0001
0000
,
2000
0000
0000
3000
,
1001
0000
0001
1000
0010
0100
0001
0000
,
1000
0100
0001
0100
1000
0000
0100
0010
,
0100
0000
1000
0010
0100
0001
1000
0000
,
0001
0100
1000
0100
0001
0000
0100
0010
,
0100
0000
0001
1000
0100
0010
1000
0000
,
0010
0100
1000
0001
0100
0010
0100
0000
,
0001
0010
0100
0000
1000
0010
0100
0000
,
0001
0100
0010
1000
0100
0010
0001
0000
,
1001
0000
1000
0001
0100
0010
1000
0000
,
0001
0010
1000
0010
0001
0000
0010
0100
,
0010
0000
0001
0100
0010
1000
0001
0000
,
1000
0010
0001
0010
1000
0000
0010
0100
,
0010
0000
1000
0001
0010
0100
0001
0000
,
0100
0010
0001
1000
0010
0100
0010
0000
,
1000
0100
0010
0000
0001
0100
0010
0000
,
2000
0000
0000
3000
,
1001
0000
0000
0000
0001
0100
0001
0000
,
1000
0100
1000
0100
1000
0000
0000
0000
,
1001
0000
0000
0000
1000
0010
1000
0000
,
0001
0010
0001
0010
0001
0000
0000
0000
,
1001
0000
1000
0100
0010
0000
0001
0000
,
0000
1001
0000
0000
1000
0001
0100
0000
,
0001
0010
0001
0010
0100
1000
0100
1000
,
0002
0000
0000
1003
,
0000
0000
0000
0000
;
#NOTES:
     dance-single:
     :
     Hard:
     16:
     :
0000
0000
0000
0000
,
0000
0000
0000
0000
,
0000
0000
0000
0000
,
0000
0000
0000
0000
,
0000
0000
0000
0000
,
0000
0000
0000
0000
,
0000
0000
0000
0000
,
0000
0000
0000
0000
,
0000
0000
0000
0000
,
1000
0000
0100
0000
0010
0000
0001
1000
0001
1000
0001
0000
0100
0000
0000
0000
,
0001
0000
0010
0000
0100
0000
1000
0001
1000
0001
1000
0000
0100
0000
0000
0000
,
1000
0000
0010
0000
0100
0000
0001
0010
0001
0010
0001
0000
0100
0000
0000
0000
,
0001
0000
0010
0000
0100
0000
1000
0010
1000
0010
1000
0000
0100
0000
0000
0000
,
2000
3020
0230
0302
0023
0230
2300
3002
,
0203
2300
3200
0302
2003
3200
0320
0031
,
0011
0000
0000
0101
0000
0000
1010
0000
,
0000
0000
1100
0000
0000
0000
0000
0000
1001
0000
0001
1000
0001
1000
0001
0000
,
1000
0000
0100
0000
0010
0000
0001
1000
0001
0100
0001
0000
1000
0000
0100
0000
,
0010
0000
0001
0000
0100
0000
0010
0100
0010
1000
0010
0000
0100
0000
0001
0000
,
1000
0000
0100
0000
0010
0000
0100
1000
0001
1000
0100
0000
0010
0000
0001
0000
,
1000
0000
0010
0000
0100
0000
0001
1000
0010
1000
0001
0000
0100
0000
0000
0000
,
0001
0000
0010
0000
0100
0000
1000
0001
1000
0010
1000
0000
0001
0000
0010
0000
,
0100
0000
1000
0000
0010
0000
0100
0010
0100
0001
0100
0000
0010
0000
1000
0000
,
1010
0000
1000
1100
0000
0001
0011
0000
,
0001
0101
0000
1000
0001
1000
0001
0000
,
2000
0000
0000
0000
,
3100
0010
0000
0100
0010
0100
0010
0000
,
0002
0000
0000
0000
,
0103
0010
0000
0100
0010
0100
0010
0000
,
1000
1000
1010
1010
,
0001
0001
0011
0011
,
0001
0000
0100
0000
0010
0000
1000
0100
0010
0000
0001
0010
0001
1000
0001
1000
,
0001
0000
0000
0000
,
1001
0000
0000
0000
1000
0000
0010
0100
0001
0000
0010
0100
1000
0000
0000
0000
,
0001
0100
0001
0100
0001
0000
0000
1000
0010
1000
0010
0000
1000
0000
0000
0000
,
0001
0000
0000
0000
0010
0100
0010
0000
0001
0000
1000
0001
0000
1000
0001
0000
,
1010
0101
1100
0011
,
1001
0000
0000
0000
0001
0000
0010
0001
0100
0000
0000
0000
0010
1000
0010
1000
,
0100
0000
0010
0001
0010
0000
0001
0100
0001
0000
0010
0000
0001
0000
0000
0000
,
2000
3020
0032
2003
3200
0302
2003
3100
,
0010
0000
0001
1000
0000
0001
2000
0000
0000
0000
0000
0000
3000
0000
0000
0000
,
1001
0000
0000
0000
1000
0000
0100
0010
0000
0001
1000
0001
0000
0100
0010
0100
,
0010
0000
0000
0000
1000
0000
0010
0100
0000
0001
0010
0001
1000
0000
0100
1000
,
0100
0000
0000
0000
0010
0000
0001
1000
0000
0001
0100
0001
0000
1000
0010
1000
,
0020
0130
2000
3100
0002
0103
0020
0000
,
2030
0000
0000
3200
0000
0000
0320
0000
,
0000
0032
0000
0000
2003
0000
0000
0000
,
3001
0000
0010
0000
0100
0000
1000
0000
0001
1000
0001
1000
0001
1000
0001
1000
,
0001
0000
0000
0000
,
1000
0000
0000
0000
1010
0000
0000
0110
0000
0000
0101
0000
0000
0011
0000
0000
,
1001
0000
0000
0000
0011
0000
0000
0110
0000
0000
1100
0000
0000
1010
0000
0000
,
1001
0000
0000
0000
0110
0000
0000
1001
0000
0000
0110
0000
0000
1001
0000
0000
,
1000
0010
0001
0010
2000
0000
3001
0000
,
1001
0000
0000
0000
0001
0100
0010
0000
1000
0000
0001
0100
0010
0000
1000
0000
,
0001
0010
0100
0000
1000
0100
0010
0000
0001
0000
1000
0000
0002
0000
0000
0000
,
1003
0000
0000
0000
0100
1000
0100
1000
0001
0010
0001
0010
0001
1000
0001
1000
,
0001
0000
0100
0010
0000
0100
0020
0000
0000
0000
0000
0000
0030
0000
0000
0000
,
2000
0000
0000
3000
,
0002
0000
0000
0003
,
0020
0000
0000
0030
,
0200
0000
0000
0300
,
1000
0100
0010
0100
1000
0001
0100
0010
,
1000
0001
0100
0001
1000
0100
0010
0001
,
1000
0010
1000
0000
0001
0010
0001
0000
1000
0100
1000
0000
0001
0100
0001
0000
,
2000
0000
0000
3000
,
1001
0000
0000
0000
0001
0000
0010
0100
0000
0100
1000
0000
0001
0000
0100
0000
,
0010
0000
1000
0100
0000
1000
0010
0000
1000
0100
0010
0001
0010
0100
1000
0000
,
0001
0000
0000
0000
0100
0000
0010
1000
0000
1000
0001
0000
0010
0000
0100
0000
,
1000
0000
0001
0010
0000
0001
0100
0000
0001
0100
0010
1000
0010
0100
0001
1000
,
0001
0000
0000
0000
1000
0000
0100
0001
0000
0100
1000
0000
0001
0000
0010
0000
,
0001
0000
0100
0010
0000
0010
1000
0000
0002
0000
0203
0000
2300
0000
3200
0000
,
0301
0000
0010
0100
0000
0100
1000
0000
0001
0000
0100
0010
1000
0000
0000
0000
,
0001
0000
1000
0000
0100
0000
0110
0000
0000
0000
0010
0001
1000
0000
0100
0010
,
0001
0000
0000
0000
1000
0000
0010
0100
0000
0100
0001
0000
1000
0001
1000
0001
,
1000
0000
0001
0100
0000
0010
1000
0000
0001
1000
0010
0100
0010
1000
0001
0000
,
1000
0000
0000
0000
0100
0000
0010
0001
0000
0001
0100
0000
0001
0010
0100
0000
,
1000
0000
0001
0100
0000
0100
0010
0000
1000
0010
0100
0000
0001
0010
0100
0000
,
1000
0000
1000
0001
0101
0000
0110
0000
,
0100
0000
0010
0000
0100
0000
0000
0000
0110
0000
0001
1000
0001
0000
0000
0000
,
1000
0000
0100
0000
0010
0000
0001
0000
1000
0100
1000
0100
0010
0001
0010
0001
,
0010
0000
0000
0000
,
1001
0000
0000
0000
0000
0000
0000
0000
1001
0000
0000
0000
1000
0010
0100
0000
,
0001
0100
0001
0100
0010
0000
0000
1000
0100
1000
0100
0000
0010
0000
0000
0000
,
0110
0000
0000
0000
0001
0000
0001
0000
1000
0000
1000
0010
0000
0100
0010
0000
,
1000
0100
0010
0001
0101
0000
1010
0000
,
1001
0000
0001
0101
0000
0000
1001
0000
,
0000
0000
1100
0000
0000
0000
0100
1000
0001
0000
0100
0000
0010
0000
0100
0000
,
0001
0000
0010
0000
0100
0000
1000
0000
0001
0000
0010
0100
1000
0100
0010
0001
,
2000
0000
0000
3001
,
0000
0000
0000
0000
;
#NOTES:
     dance-single:
     :
     Challenge:
     17:
     :
0000
0000
0000
0000
,
0000
0000
0000
0000
,
0000
0000
0000
0000
,
0000
0000
0000
0000
,
0000
0000
0000
0000
,
0000
0000
0000
0000
,
0000
0000
0000
0000
,
0000
0000
0000
0000
,
0000
0000
0000
0000
,
1001
0000
0000
0000
0001
0000
0010
0100
1000
0001
0100
0000
0010
0000
0000
0000
,
1001
0000
0000
0000
1000
0000
0010
0100
0001
1000
0100
0000
0010
0000
0000
0000
,
1001
0000
0000
0000
0001
0000
0100
0010
1000
0001
0010
0000
0100
0000
0000
0000
,
1001
0000
0000
0000
1000
0000
0100
0010
0001
1000
0010
0000
0100
0000
0000
0000
,
0002
2003
3020
0230
0302
2003
3200
0320
,
0032
2003
3020
0230
0302
2003
3200
0320
,
0032
0203
2300
3002
0023
2030
3010
1010
,
1000
0000
1001
0000
0001
0000
0100
0000
0110
0000
0001
1000
0001
1000
0001
1000
,
0001
0000
0000
0000
1000
0010
0100
0000
0000
0000
0001
0010
0100
0000
0000
0000
,
1000
0000
0010
0000
0100
0000
0001
0010
0001
0100
0001
0000
0010
0100
1000
0100
,
0010
0000
0000
0000
0001
1000
0010
0000
0000
0000
0001
0010
1000
0000
0000
0000
,
0010
0000
0100
0000
0001
0000
0010
0001
1000
0010
0100
0000
0010
1000
0100
1000
,
0010
0000
0000
0000
1000
0010
0001
0000
0000
0000
0010
1000
0100
0000
0000
0000
,
0001
0000
0100
0000
0010
0000
0001
0010
0001
1000
0010
0000
0100
0001
0010
0100
,
1000
0000
0000
0000
0001
0100
1000
0000
0000
0000
0001
0010
1000
0000
0100
0000
,
0001
0000
0100
0000
0000
0000
1000
0100
0010
0001
0100
0010
1000
0100
0010
0001
,
2000
0000
0000
0000
,
0000
0000
0000
0000
,
3002
0000
0000
0000
,
0000
0000
0000
0000
,
1003
0010
1000
0100
1000
0010
1000
0000
,
0001
0000
0010
0000
0001
0000
0100
0000
0001
0000
0010
0000
0001
0000
1000
0100
,
0010
0000
0001
0100
0010
0000
1000
0100
1000
0010
0100
0001
0010
0100
1000
0010
,
0100
0000
0000
0000
,
1001
0000
0000
0000
0001
0010
0100
0010
0001
0100
0010
0100
0001
0000
0000
0000
,
1000
0100
1000
0100
0002
0000
0000
1003
0010
1000
0010
0000
0001
0000
0000
0000
,
1001
0000
0000
0000
0001
0100
0010
0000
1000
0000
0001
1000
0000
0001
1000
0000
,
0001
0010
0100
1000
0001
0010
0100
1000
0001
0100
0001
0100
0010
1000
0010
1000
,
0001
0000
0000
0000
1000
0100
0001
0100
1000
0000
0000
0000
1000
0010
0001
0010
,
1000
0000
0010
1000
0100
0000
0010
0001
0100
0000
0100
0000
0100
0000
0100
0000
,
0010
1010
0001
0101
1000
1100
0010
0011
,
0001
0000
1000
0001
0000
1000
0002
0000
0000
0000
0000
0000
0003
0000
0000
0000
,
1001
0000
0000
0000
1000
0100
0010
0001
0000
0100
1000
0100
0000
0001
0010
0001
,
0010
0000
0000
0000
1000
0000
0010
0001
0000
0100
1000
0100
0001
0000
1000
0000
,
0010
0000
0000
0000
1000
0100
0001
0100
0000
1000
0010
1000
0000
0010
0001
0010
,
1000
0000
0100
0001
1000
0000
0010
0001
1000
0000
0100
0001
1000
0000
0010
0001
,
2000
0000
0000
0000
,
0000
0000
0000
0000
,
3010
0000
1000
0000
0100
0000
0010
0000
0001
0100
0010
1000
0100
0010
0001
0100
,
0010
0000
0000
0000
,
1001
0000
0000
0000
1000
0010
1000
0001
0010
0001
1000
0100
1000
0001
0100
0001
,
1000
0000
0000
0000
0001
0100
0001
1000
0100
1000
0001
0010
0001
1000
0010
1000
,
0001
0000
0000
0000
1000
0010
0100
0001
0100
0010
1000
0100
0010
0001
0010
0100
,
1000
1000
0001
0001
2000
0000
3001
0000
,
1001
0000
0000
0000
0001
0100
0001
0000
0001
0000
0001
0010
0001
0000
0001
0000
,
1000
0100
1000
0000
1000
0010
1000
0000
1000
0001
1000
0001
2000
0000
0000
0000
,
3001
0000
0000
0000
1000
0010
0100
0001
1000
0100
0010
0100
1000
0001
0010
0100
,
1000
0000
0010
0001
0000
0010
2000
0000
0000
0000
0000
0000
3000
0000
0000
0000
,
0002
0000
0000
0000
,
0000
0000
0000
0000
,
2003
0000
0000
0000
,
0000
0000
0000
0000
,
3001
0010
0001
0010
0100
1000
0100
1000
,
0001
0100
0001
0100
0010
1000
0010
1000
,
0001
0100
0010
1000
0001
0010
0100
1000
0001
0100
0010
1000
0001
0010
0100
1000
,
0002
0000
0000
0003
,
1001
0000
0000
0000
1000
0100
0010
0001
0000
0010
1000
0000
0010
0001
0100
0010
,
1000
0000
0100
0001
0000
0100
1000
0000
0001
0010
0001
0100
0010
1000
0100
0010
,
0001
0000
0000
0000
1000
0010
0100
0001
0000
0100
1000
0000
0100
0001
0010
0100
,
1000
0000
0010
0001
0000
0010
1000
0000
0100
0010
0001
0100
0010
1000
0100
0010
,
0001
0000
0000
0000
1000
0010
0100
0010
0000
0010
0100
0000
0010
0100
0001
0000
,
0010
0000
0100
1000
0000
0001
0100
0000
0010
1000
0010
1000
0100
0010
0100
0010
,
0001
0000
0010
0001
0000
0001
0100
0000
0010
1000
0100
1000
0010
0000
0000
0000
,
0200
0000
0000
0000
0000
0000
1300
0000
0100
0001
0010
0100
1000
0010
0001
0010
,
1000
0000
0000
0000
0001
1000
0010
1000
0001
0100
0010
1000
0100
0010
0001
1000
,
0100
0010
0100
0001
0100
0010
0100
1000
0001
0100
0010
1000
0100
0010
0001
0100
,
0010
0000
0000
0000
1000
0001
0010
0001
1000
0100
0010
0001
0100
0010
1000
0001
,
0100
0010
0100
1000
0100
0010
0100
0001
1000
0100
0010
0001
0100
0010
1000
0100
,
0020
0000
0000
0001
0031
0000
0002
0000
,
0000
0000
1000
0000
1003
0000
0000
0000
1000
0000
0010
0100
0010
0000
0010
0000
,
1000
0000
0100
0000
0001
0000
1000
0000
0010
0001
0100
0010
1000
0100
0001
0100
,
1000
0000
0000
0000
,
1001
0000
0000
0000
1000
0100
1000
0100
0010
0000
0001
0100
0010
1000
0010
1000
,
0001
0100
0010
0100
0001
0000
0000
0010
0100
1000
0100
0000
0010
0000
0001
0000
,
1001
0000
0000
0000
1000
0001
0100
0000
0001
1000
0100
0001
0000
0100
1000
0000
,
0001
0001
0010
0010
0011
0000
1100
0000
,
1001
0000
0000
0110
0000
0000
1001
0000
,
0000
0000
0110
0000
0000
0000
0100
0010
0100
0000
0010
0000
0110
0000
1001
0000
,
0001
0010
0100
0001
1000
0001
0100
0010
0001
0100
0010
0001
1000
0001
0010
0100
,
0002
0000
0000
1003
,
0000
0000
0000
0000
;
#NOTES:
     dance-double:
     :
     Easy:
     8:
     :
00000000
00000000
00000000
00000000
,
00000000
00000000
00000000
00000000
,
00000000
00000000
00000000
00000000
,
00000000
00000000
00000000
00000000
,
00000000
00000000
00000000
00000000
,
00000000
00000000
00000000
00000000
,
00000000
00000000
00000000
00000000
,
00000000
00000000
00000000
00000000
,
00000000
00000000
00000000
00000000
,
00001000
00000000
00010000
00000000
,
00001000
00100000
00010000
00000000
,
01000000
00000000
00010000
00000000
,
10000000
01000000
10000000
00000000
,
00010000
00000000
00100000
00000000
,
00001000
00010000
00001000
00000000
,
00010000
00000000
00000000
00010000
00000000
00000000
00001000
00000000
,
00000000
00001000
00000000
00000000
00011000
00000000
00000000
00000000
,
00001000
00010000
00000100
00000000
,
00001000
00000010
00001000
00000000
00000001
00000000
00000000
00000000
,
00000001
00000010
00000100
00000000
,
00001000
00000100
00001000
00000000
00000100
00000000
00000000
00000000
,
00000100
00010000
00001000
00000000
,
00010000
00001000
00010000
00000000
00001000
00000000
00000000
00000000
,
00100000
00000000
00000000
00100000
00000000
00000000
00010000
00000000
,
00000000
00010000
00000000
00000000
01000000
00000000
00000000
00000000
,
00200000
00000000
00000000
00000000
,
00300000
00000000
00000000
00000000
,
20000000
00000000
00000000
00000000
,
30000000
00000000
00000000
00000000
,
00020000
00000000
00000000
00000000
,
00030000
00000000
00000000
00000000
,
02000000
00000000
00000000
00000000
,
03000000
00000000
00000000
00000000
,
10010000
00000000
10000000
00100000
,
01000000
00001000
00010000
00000000
,
00011000
00000000
00001000
00010000
,
00000100
00001000
00000010
00000000
,
00001001
00000000
00000001
00000010
,
00000100
00010000
00001000
00000000
,
00010000
00001000
01000000
00010000
,
00200000
00000000
00000000
00300000
,
00100000
00010000
01000000
00010000
,
00100000
00001000
00010000
00000000
,
00000010
00001000
00000100
00001000
,
00000010
00010000
00001000
00000000
,
00020000
00000000
00000000
00030000
,
00002000
00000000
00000000
00003000
,
00010000
00000000
00001000
00000000
00010000
00001000
00010000
00000000
,
00000000
00000000
00000000
00000000
,
00011000
00000000
00011000
00000000
,
01100000
00000000
01100000
00000000
,
00011000
00000000
00011000
00000000
,
00000110
00000000
00000110
00000000
,
00000001
00000010
00000100
00000000
,
00000100
00010000
00001000
00000000
,
00001000
01000000
00010000
10000000
,
00020000
00000000
00000000
00030000
,
20000000
00000000
00000000
00000000
,
30000000
00000000
00000000
00000000
,
00020000
00000000
00000000
00000000
,
00030000
00000000
00000000
00000000
,
10000000
00100000
01000000
01000000
,
00010000
00000000
00100000
00000000
00001000
00010000
00001000
00000000
,
00010000
00000100
00001000
00000010
,
00000200
00000000
00000000
00000300
,
00000001
00000000
00000010
00000000
00000100
00001000
00000100
00000000
,
00010000
00001000
00010000
00000000
,
00001000
00000000
01000000
00000000
00010000
01000000
00010000
00000000
,
10000000
00100000
10000000
00000000
,
10000000
00000000
01000000
00000000
00100000
00010000
00100000
00000000
,
00001000
00000000
00010000
00000000
00000100
00001000
00000100
00000000
,
00000010
00000010
00000001
00000001
,
00001000
00000001
00001000
00000000
00000001
00001000
00000001
00000000
,
00001001
00000001
00000100
00001000
,
00010000
00000000
00100000
00000000
10000000
00010000
10000000
00000000
,
10010000
10000000
01000000
00010000
,
00001000
00000000
00000010
00000000
00000001
00001000
00000001
00000000
,
00001000
00001000
00000100
00000000
,
00010000
00010000
00001000
00000000
,
00001000
00000000
00010000
00000000
00100000
00000000
10000000
00010000
,
20000000
00000000
00000000
30000000
,
10010000
00000000
10000000
01000000
,
00100000
00100000
00100000
00000000
,
00100000
00001000
00010000
00001000
,
00010000
00010000
00000100
00000100
,
00001000
00000000
00001001
00000000
,
00000001
00000100
00001000
00000000
,
00010000
00001000
00010000
00000000
00001000
00010000
00001000
00000000
,
00020000
00000000
00000000
00030000
,
00000000
00000000
00000000
00000000
;
#NOTES:
     dance-double:
     :
     Medium:
     12:
     :
00000000
00000000
00000000
00000000
,
00000000
00000000
00000000
00000000
,
00000000
00000000
00000000
00000000
,
00000000
00000000
00000000
00000000
,
00000000
00000000
00000000
00000000
,
00000000
00000000
00000000
00000000
,
00000000
00000000
00000000
00000000
,
00000000
00000000
00000000
00000000
,
00000000
00000000
00000000
00000000
,
00001000
00010000
00001000
00010000
00000000
00001000
00100000
00000000
,
00010000
01000000
00010000
01000000
00000000
00100000
10000000
00000000
,
01000000
00100000
01000000
00100000
00000000
00010000
00100000
00000000
,
00001000
00100000
00001000
00100000
00000000
00001000
00010000
00000000
,
00001000
00010000
00000100
00001000
00000010
00000100
00000010
00000000
,
00000100
00000001
00001000
00000100
00010000
00001000
00010000
00000000
,
00011000
00000000
00000000
00101000
00000000
00000000
00110000
00000000
,
00000000
01010000
00000000
00000000
01100000
00000000
00000000
00000000
,
00100000
10000000
01000000
00100000
00010000
00100000
01000000
00000000
,
10000000
00010000
01000000
00001000
00010000
00000010
00001000
00000000
,
00000100
00000010
00000001
00000100
00000010
00001000
00000100
00000000
,
00000010
00000001
00001000
00000100
00010000
00001000
00010000
00000000
,
00001000
00100000
00010000
01000000
00010000
00100000
01000000
00000000
,
10000000
00100000
00010000
00100000
10000000
01000000
00100000
00000000
,
00010000
00100000
00010000
00100000
00000000
00001000
00100000
00001000
,
00100000
00001000
00000000
00010000
00001000
00010000
00001000
00000000
,
00020000
00000000
00000000
00000000
,
00000000
00000000
00000000
00030000
,
00002000
00000000
00000000
00000000
,
00000000
00000000
00000000
00003000
,
00010000
00010000
00010000
00010000
,
00001000
00001000
00001000
00001000
,
00010000
00001000
00010000
00001000
00010000
00001000
00010000
00001000
,
00010000
00000000
00000000
00000000
,
00011000
00000000
00010000
00001000
00000100
00000000
00000001
00000000
,
00001000
00000100
00001000
00000000
00000001
00000100
00000001
00000000
,
00000010
00000100
00001000
00000010
00000100
00001000
00010000
00000000
,
00001000
00010000
01000000
10000000
,
10010000
00000000
00010000
01000000
10000000
00000000
01000000
00000000
,
00010000
00100000
00010000
00000000
10000000
00100000
10000000
00000000
,
00010000
00100000
01000000
00000000
10000000
00100000
01000000
00000000
,
00001000
00000000
00000000
00010000
00000000
00000000
00011000
00000000
00000000
00000000
00000000
00000000
00000000
00000000
00000000
00000000
,
00011000
00000000
00010000
00001000
00000100
00000000
00000010
00000000
,
00000100
00001000
00010000
00000000
00100000
01000000
00100000
00000000
,
10000000
00000000
01000000
00010000
00001000
00000000
00000010
00000000
,
00001000
00010000
00001000
00000000
00010000
00001000
00010000
00000000
,
00002000
00000000
00000000
00003000
,
00020000
00000000
00000000
00030000
,
00001000
00010000
00001000
00010000
00001000
00010000
00001000
00010000
,
00001000
00000000
00000000
00000000
,
00011000
00000000
00000000
00000000
00010000
00000000
00000000
00000010
00000000
00000000
00000010
00000000
00000000
00001000
00000000
00000000
,
00001000
00000000
00000000
00000000
00000001
00000000
00000000
00000010
00000000
00000000
00000010
00000000
00000000
00000100
00000000
00000000
,
00000100
00000000
00000000
00000000
00010000
00000000
00000000
00001000
00000000
00000000
00001000
00000000
00000000
01000000
00000000
00000000
,
01000000
00100000
10100000
10010000
,
10000000
00000000
01000000
00000000
00010000
00001000
00000010
00000000
,
00000001
00000000
00000100
00000000
00001000
00010000
00100000
00000000
,
00000000
00000000
10000000
01000000
00100000
00000000
00001000
00000000
,
00022000
00000000
00000000
00033000
,
00020000
00000000
00000000
00030000
,
00000200
00000000
00000000
00000300
,
00002000
00000000
00000000
00003000
,
00000002
00000000
00000000
00000003
,
00000001
00000000
00000010
00000000
00000100
00001000
00000100
00000000
,
00010000
00000000
00001000
00000000
01000000
00010000
01000000
00000000
,
00100000
10000000
00100000
00000000
10000000
01000000
00100000
00001000
,
00020000
00000000
00000000
00030000
,
00011000
00000000
00001000
00010000
00000010
00001000
00000010
00000000
,
00000100
00000001
00000100
00000000
00001000
00000100
00000001
00001000
,
00000100
00000000
00000010
00000001
00001000
00000100
00001000
00000000
,
00000100
00010000
00001000
00000000
00100000
00010000
01000000
00010000
,
00100000
00000000
01000000
00010000
01000000
10000000
00010000
00000000
,
01000000
00100000
10000000
00000000
01000000
00100000
00010000
00000000
,
00200000
00301000
00002000
00013000
,
00020000
00000000
00030100
00000000
00000100
00001000
00000010
00000100
,
00000001
00000000
00000010
00000100
00001000
00000001
00000100
00001000
,
00000100
00000010
00001000
00000100
00010000
00001000
00010000
00000000
,
00011000
00000000
00001000
01000000
00010000
01000000
00100000
10000000
,
01000000
00010000
01000000
00100000
00010000
10000000
00100000
00010000
,
00001000
00000000
00010000
00001000
00000010
00000000
00000001
00000000
,
00000001
00000100
00001000
00000000
00010000
00100000
10000000
00000000
,
00100000
10000000
00010000
00100000
00001000
00010000
00000010
00001000
,
00000002
00000000
00000000
00000003
,
00001001
00000000
00000000
00000000
00000001
00000100
00001000
00000000
,
00001000
00010000
00100000
00010000
00001000
00000000
00000000
00000000
,
00011000
00000000
00000000
00000000
00001000
00010000
01000000
00000000
,
10000000
01000000
00010000
01000000
10000000
00000000
00000000
00000000
,
10010000
00000000
10000000
00100000
01000000
00000000
00010000
00000000
,
00000000
00110000
00000000
00000000
00101000
00000000
00011000
00000000
,
00010000
00000100
00010000
00000100
00001000
00000010
00001000
00000010
,
00000200
00000000
00000000
00000301
,
00000000
00000000
00000000
00000000
;
#NOTES:
     dance-double:
     :
     Hard:
     16:
     :
00000000
00000000
00000000
00000000
,
00000000
00000000
00000000
00000000
,
00000000
00000000
00000000
00000000
,
00000000
00000000
00000000
00000000
,
00000000
00000000
00000000
00000000
,
00000000
00000000
00000000
00000000
,
00000000
00000000
00000000
00000000
,
00000000
00000000
00000000
00000000
,
00000000
00000000
00000000
00000000
,
00001000
00000000
00010000
00000000
00000010
00000000
00001000
00000010
00001000
00000010
00001000
00000000
00000001
00000000
00000000
00000000
,
00000010
00000000
00000100
00000000
00001000
00000000
00000100
00010000
00000100
00010000
00000100
00000000
00010000
00000000
00000000
00000000
,
00001000
00000000
00100000
00000000
00010000
00000000
01000000
00010000
01000000
00010000
01000000
00000000
00100000
00000000
00000000
00000000
,
10000000
00000000
01000000
00000000
00100000
00000000
00010000
00100000
00010000
00100000
00010000
00000000
00100000
00000000
00000000
00000000
,
00020000
02030000
03200000
20300000
32000000
03200000
00302000
00023000
,
00030200
00002300
00003020
00000230
00000302
00000023
00000230
00002300
,
00003001
00000100
00000010
00001000
00000000
00001000
00000100
00010000
,
00001000
00000000
00010000
00000000
00000000
00000000
00000000
00000000
00011000
00000000
00001000
00010000
00001000
00010000
00001000
00000000
,
00010000
00000000
00001000
00000000
01000000
00000000
00010000
00100000
00010000
00000000
01000000
00000000
00100000
10000000
00100000
00000000
,
01000000
00000000
00010000
00000000
00100000
00000000
01000000
10000000
01000000
00000000
00100000
00000000
00001000
00010000
00001000
00000000
,
00010000
00000000
00000100
00000000
00001000
00000000
00000010
00000100
00000010
00000000
00001000
00000000
00000100
00000010
00000100
00000000
,
00001000
00000000
00000001
00000000
00000010
00000000
00000100
00001000
00000100
00000000
00010000
00000000
00001000
00010000
00001000
00000000
,
00010000
00000000
00100000
00000000
01000000
00000000
00100000
10000000
00100000
00000000
01000000
00000000
00010000
00100000
00010000
00000000
,
00100000
00000000
00001000
00000000
00010000
00000000
00000100
00000010
00000100
00000000
00001000
00000000
00000010
00000100
00000010
00000000
,
00000001
00000010
00001000
00000010
00000000
00000010
00010000
00001000
,
01000000
00010000
00000000
00010000
01000000
10000000
01000000
00000000
,
00020000
00000000
00000000
00000000
,
10030000
01000000
00000000
10000000
01000000
00100000
00010000
00000000
,
00200000
00000000
00000000
00000000
,
00301000
00100000
00000000
00001000
00010000
00001000
00010000
00000000
,
00001000
00001000
00000010
00000010
,
00000001
00000001
00000100
00000100
,
00001000
00000000
00010000
00000000
00100000
00000000
00000000
00000000
00100000
00000000
10000000
00000000
00010000
10000000
00010000
10000000
,
00010000
00000000
00000000
00000000
,
10010000
00000000
00000000
00000000
10000000
00000000
00100000
01000000
00100000
00000000
10000000
00010000
10000000
00000000
00000000
00000000
,
00010000
01000000
00010000
01000000
00010000
00000000
00000000
01000000
00001000
01000000
00001000
00000000
00010000
00000000
00000000
00000000
,
00001000
00000000
00000000
00000000
00010000
00000000
00001000
00000000
00000010
00000000
00000001
00001000
00000000
00000100
00000010
00000000
,
00000001
00000100
00001000
00010000
00110000
00000000
10100000
00000000
,
10010000
00000000
00000000
00000000
10000000
00000000
00100000
01000000
00010000
00000000
00100000
00001000
00010000
00000000
00000000
00000000
,
00001000
00010000
00001000
00000000
00010000
00000010
00010000
00000000
00000010
00000000
00000100
00000000
00001000
00000000
00000100
00000000
,
00000002
00000023
00000230
00020300
00032000
00203000
00320000
20030000
,
30100000
00000000
01000000
00100000
00000000
01000000
00200000
00000000
00000000
00000000
00000000
00000000
00300000
00000000
00000000
00000000
,
10010000
00000000
00000000
00000000
10000000
00000000
00010000
00100000
00000000
00010000
10000000
00010000
00000000
10000000
01000000
00100000
,
00010000
00000000
00000000
00000000
00100000
00000000
00001000
00100000
00000000
00001000
00010000
00001000
00010000
00000000
00000100
00010000
,
00000100
00000000
00000000
00000000
00001000
00000000
00000010
00000100
00000000
00000001
00001000
00000001
00000000
00001000
00000100
00000010
,
00000002
00000203
00002300
00023000
00230000
20300000
30020000
00000000
,
20030000
00000000
00000000
32000000
00000000
00000000
03020000
00000000
,
00000000
00032000
00000000
00000000
00003020
00000000
00000000
00000000
,
00000031
00000000
00000010
00000000
00001000
00000000
00010000
00000000
00001000
00010000
00001000
00010000
00001000
00010000
00001000
00010000
,
00001000
00000000
00000000
00000000
,
00011000
00000000
00000000
00000000
00001000
00000000
00000000
01001000
00000000
00000000
01000000
00000000
00000000
01100000
00000000
00000000
,
10010000
00000000
00000000
00000000
10000000
00000000
00000000
11000000
00000000
00000000
01000000
00000000
00000000
01100000
00000000
00000000
,
00101000
00000000
00000000
00000000
00001000
00000000
00000000
00011000
00000000
00000000
00010000
00000000
00000000
00010100
00000000
00000000
,
00000110
00000010
00000001
00001000
00000200
00000000
00000310
00000000
,
00000110
00000000
00000000
00000000
00000001
00000010
00000100
00000000
00001000
00000000
00000010
00000100
00001000
00000000
00010000
00000000
,
00100000
01000000
00010000
00000000
00100000
01000000
10000000
00000000
00010000
00000000
10000000
00000000
00020000
00000000
00000000
00000000
,
10030000
00000000
00000000
00000000
00010000
00100000
00010000
00100000
00001000
00010000
00001000
00010000
00000100
00001000
00000100
00001000
,
00000100
00000000
00000010
00000001
00000000
00001000
00000002
00000000
00000000
00000000
00000000
00000000
00000003
00000000
00000000
00000000
,
00002000
00000000
00000000
00000000
,
00000000
00000000
00000000
00000000
,
00003200
00000000
00000000
00000000
,
00000000
00000000
00000000
00000000
,
00010300
00001000
00010000
01000000
00100000
00010000
01000000
00100000
,
00010000
00001000
00000100
00000010
00010000
00001000
00000100
00000010
,
00001000
00000100
00001000
00000000
00000010
00010000
00000010
00000000
00010000
00001000
00010000
00000000
00001000
01000000
00001000
00100000
,
00002000
00000000
00000000
00003000
,
00011000
00000000
00000000
00000000
00001000
00000000
00010000
00100000
00000000
00100000
10000000
00000000
00010000
00000000
01000000
00000000
,
10000000
00000000
01000000
00010000
00000000
10000000
00010000
00000000
10000000
01000000
00100000
00000000
00010000
00100000
00001000
00010000
,
00001000
00000000
00000000
00000000
00010000
00000000
00001000
00000010
00000000
00000010
00000001
00000000
00001000
00000000
00000100
00000000
,
00000001
00000000
00000100
00001000
00000000
00000001
00001000
00000000
00000001
00000100
00000010
00000000
00001000
00000010
00010000
00001000
,
00010000
00000000
00000000
00000000
00001000
00000000
00010000
01000000
00000000
00010000
00001000
00000000
00010000
00100000
00010000
00000000
,
00001000
00000000
00000100
00001000
00000000
00010000
00001000
00000000
00000010
00000000
00000001
00000000
00000100
00000000
00000010
00000000
,
00001000
00000000
00000100
00010000
00000000
00010000
00001000
00000000
01000000
00000000
00010000
00000000
10000000
00000000
00000000
00000000
,
00020000
00000000
00000000
00000000
00000000
00000000
10030000
00000000
01000000
00100000
01000000
00100000
00010000
00000000
10000000
00010000
,
10000000
00000000
00000000
00000000
00010000
00000000
00100000
10000000
00000000
00100000
00010000
00000000
00100000
00001000
00010000
00000000
,
00001000
00000000
00000010
00000001
00000000
00001000
00000001
00000000
00000010
00000100
00001000
00000001
00001000
00000100
00000010
00000000
,
00000001
00000000
00000000
00000000
00001000
00000000
00000100
00000001
00000000
00000100
00001000
00000000
00000100
00010000
00001000
00000000
,
00010000
00000000
01000000
10000000
00000000
00010000
10000000
00000000
01000000
00100000
00010000
10000000
00010000
00100000
01000000
00000000
,
20000000
00000000
00000000
30100000
00100000
00000000
01100000
00000000
,
00000000
01000000
00001000
00000000
00010000
00001000
00010000
00000000
,
00001000
00000000
00010000
00000000
00000100
00000000
00001000
00000000
00000010
00000100
00000010
00000100
00000001
00001000
00000001
00001000
,
00000001
00000000
00000000
00000000
,
00001001
00000000
00000000
00000000
00000001
00000000
00000010
00000000
00001000
00000000
00010000
00000000
01000000
10000000
01000000
00000000
,
10000000
00010000
10000000
00010000
10000000
00000000
00000000
00100000
01000000
00100000
01000000
00000000
00100000
00000000
00010000
00000000
,
00001000
00000000
00000000
00000000
00010000
00000000
00000010
00000000
00001000
00000000
00000100
00000010
00000000
00000001
00000010
00000000
,
00000001
00000100
00001000
00000000
00010000
00100000
10000000
00000000
,
10010000
00000000
10000000
01000000
00000000
01000000
00010000
00000000
,
00010000
00001000
00000000
00001000
00000010
00000001
00001000
00000000
,
00000001
00000000
00000100
00000000
00001000
00000000
00010000
00000000
00100000
01000000
00010000
00000000
00100000
01000000
00010000
00001000
,
00020000
00000000
00000000
00031000
,
00000000
00000000
00000000
00000000
;
#NOTES:
     dance-double:
     :
     Challenge:
     18:
     :
00000000
00000000
00000000
00000000
,
00000000
00000000
00000000
00000000
,
00000000
00000000
00000000
00000000
,
00000000
00000000
00000000
00000000
,
00000000
00000000
00000000
00000000
,
00000000
00000000
00000000
00000000
,
00000000
00000000
00000000
00000000
,
00000000
00000000
00000000
00000000
,
00000000
00000000
00000000
00000000
,
00011000
00000000
00001000
00010000
01000000
10000000
00010000
00000000
,
10010000
00000000
10000000
00100000
00010000
00001000
00010000
00000000
,
00011000
00000000
00010000
00001000
00000100
00000001
00001000
00000000
,
00001001
00000000
00000001
00000010
00001000
00010000
00001000
00000000
,
00020000
02030000
23000000
30200000
00320000
00032000
00003200
00000302
,
00002003
00003200
00000320
00002030
00023000
02030000
03200000
00302000
,
00023000
00230000
00320000
00032000
00003200
00000302
00001003
00001100
,
00000100
00000000
00000110
00000000
00000010
00000000
00000001
00000000
00001001
00000000
00001000
00000001
00001000
00000001
00001000
00000001
,
00001000
00000000
00000001
00000100
00000001
00000000
00001000
00000010
00000000
00001000
00000010
00000000
00010000
00001000
00010000
00000000
,
00001000
00000000
00100000
00010000
00100000
00000000
00010000
01000000
00000000
00010000
01000000
00000000
00100000
10000000
00100000
00000000
,
10000000
00000000
01000000
00100000
01000000
00000000
00010000
00001000
00000000
00010000
00001000
00000000
00000010
00000100
00001000
00000000
,
00000001
00000000
00000100
00001000
00000100
00000000
00000001
00001000
00000000
00000001
00001000
00000000
00000100
00000010
00000001
00000000
,
00000100
00000000
00000001
00000010
00000100
00000000
00001000
00000100
00000000
00010000
00000100
00000000
00010000
00001000
00010000
00000000
,
00001000
00000000
01000000
00010000
00100000
00000000
01000000
10000000
00000000
01000000
10000000
00000000
00010000
01000000
00100000
10000000
,
00100000
10000000
01000000
01010000
00010000
00001000
00001010
00000010
,
00000001
00000000
00001001
00000000
00000000
00000000
00001000
00000010
00010000
00001000
00010000
00001000
01000000
00010000
01000000
00010000
,
20000000
00000000
00000000
00000000
,
00000000
00000000
00000000
00000000
,
30020000
00000000
00000000
00000000
,
00000000
00000000
00000000
00000000
,
00032000
00000000
00000000
00000000
,
00003002
00000000
00000000
00000000
,
00001003
00000100
00000010
00000000
00000001
00000100
00000010
00000000
00001000
00000100
00010000
00001000
00100000
00010000
01000000
00010000
,
10000000
00000000
00000000
00000000
,
10010000
00000000
00000000
00000000
10000000
00100000
01000000
00100000
10000000
00010000
00100000
00001000
00010000
00000000
00000000
00000000
,
00001000
00010000
00001000
00010000
00000200
00000000
00000000
00001300
00000010
00001000
00000010
00000000
00000100
00000000
00000000
00000000
,
00001001
00000000
00000000
00000000
00000001
00000100
00001000
00000000
00010000
00000000
00100000
10000000
00000000
00100000
01000000
00000000
,
00010000
01000000
10000000
00000000
00010000
00100000
10000000
00000000
00100000
01000000
00010000
00100000
00001000
00010000
00000100
00001000
,
00000010
00000000
00000000
00000000
00000110
00000000
00000000
00000000
00000100
00000001
00000100
00000001
00000010
00000100
00000010
00000100
,
00001000
00000000
00000100
00010000
00001000
00000000
00100000
00010000
01000000
00000000
01000000
00000000
01000000
00000000
01000000
00000000
,
00100000
10100000
10000000
10010000
00010000
01010000
01000000
01001000
,
00001000
00000000
00010000
00100000
00000000
00010000
00002000
00000000
00000000
00000000
00000000
00000000
00003000
00000000
00000000
00000000
,
00011000
00000000
00000000
00000000
00010000
00000100
00001000
00000010
00000000
00001000
00000100
00010000
00000000
00000100
00001000
00000010
,
00001000
00000000
00000000
00000000
00000001
00000000
00000100
00001000
00000000
00010000
00001000
00010000
00001000
00000000
00000000
00000000
,
00011000
00000000
00000000
00000000
00001000
00000000
00010000
01000000
00000000
10000000
01000000
00100000
00000000
00010000
01000000
00100000
,
10000000
00000000
01000000
00010000
00001000
00000000
00000010
00000000
00000001
00000100
00001000
00000000
00010000
00100000
10000000
00000000
,
00020000
00000000
00000000
00000000
,
00000000
00000000
00000000
00000000
,
10030000
00000000
01000000
00000000
00100000
00000000
00010000
00000000
00001000
00000100
00000010
00000001
00001000
00000100
00000010
00000001
,
00001000
00000000
00000000
00000000
,
00001001
00000000
00000000
00000000
00000001
00000100
00000001
00001000
00000100
00001000
00000001
00000100
00000001
00001000
00000100
00001000
,
00000100
00000000
00000000
00000000
00010000
00001000
00010000
00000100
00001000
00000100
00010000
00001000
00010000
00000100
00001000
00000100
,
00010000
00000000
00000000
00000000
00001000
00100000
00001000
01000000
00010000
01000000
00001000
00100000
00001000
01000000
00010000
01000000
,
00010000
00100000
01000000
10000000
00020000
00000000
10030000
00000000
,
10010000
00000000
00000000
00000000
10000000
01000000
00010000
00000000
01000000
00000000
10000000
00100000
00010000
00000000
00001000
00000000
,
00000100
00000001
00000010
00000000
00000100
00001000
00000010
00000000
00000100
00000001
00000010
00000100
00002000
00000000
00000000
00000000
,
00003001
00000000
00000000
00000000
00000100
00000001
00001000
00000010
00010000
00001000
01000000
00010000
10000000
01000000
00100000
00010000
,
01000000
00000000
10000000
01000000
00000000
00010000
02000000
00000000
00000000
00000000
00000000
00000000
03000000
00000000
00000000
00000000
,
00200000
00000000
00000000
00000000
,
00000000
00000000
00000000
00000000
,
20300000
00000000
00000000
00000000
,
00000000
00000000
00000000
00000000
,
31000000
00010000
01000000
00010000
00001000
00010000
00001000
00010000
,
00001000
00000010
00001000
00000010
00000001
00000010
00000001
00000000
,
00000010
00000001
00000100
00000010
00000100
00000001
00001000
00000100
00000010
00000100
00001000
00000100
00010000
00001000
00100000
00001000
,
00020000
00000000
00000000
00030000
,
00011000
00000000
00000000
00000000
00001000
00100000
00010000
01000000
00100000
01000000
00010000
00100000
01000000
00100000
00010000
10000000
,
00100000
00000000
01000000
10000000
00000000
01000000
00010000
00000000
10000000
01000000
00100000
00010000
01000000
00100000
00010000
00001000
,
00010000
00000000
00000000
00000000
00010000
00000010
00001000
00000100
00000010
00000100
00001000
00000010
00000100
00000010
00001000
00000001
,
00000010
00000000
00000100
00000001
00000000
00000100
00001000
00000000
00000001
00000100
00000010
00001000
00000100
00000010
00001000
00010000
,
00001000
00000000
00000000
00000000
00001000
00010000
00100000
01000000
00000000
01000000
10000000
01000000
00010000
00100000
01000000
00000000
,
10000000
00000000
01000000
00010000
00000000
00001000
00000010
00000000
00000002
00000000
00002003
00000000
00003200
00000000
00020300
00000000
,
00031000
00000000
00010000
00001000
00000000
00010000
01000000
00000000
10000000
00100000
00010000
00100000
10000000
00000000
00000000
00000000
,
00020000
00000000
00000000
00000000
00000000
00000000
10030000
00000000
00100000
01000000
00010000
00100000
00001000
00010000
00000100
00001000
,
00000010
00000000
00000000
00000000
00001000
00000010
00000100
00000001
00000010
00000100
00000001
00000100
00001000
00000100
00010000
00001000
,
00100000
00010000
01000000
00100000
00010000
00001000
00100000
00010000
01000000
00100000
10000000
01000000
00100000
00001000
00010000
01000000
,
10000000
00000000
00000000
00000000
00010000
00100000
01000000
10000000
00100000
01000000
10000000
01000000
00010000
01000000
00001000
00010000
,
00000010
00001000
00000100
00000010
00001000
00010000
00000010
00001000
00000100
00000010
00000001
00000100
00000010
00010000
00001000
00000100
,
00000002
00000000
00000000
00000010
00000013
00000000
00000020
00000000
,
00000000
00000000
00001030
00000000
00001000
00000000
00000000
00000000
00010000
00000000
00001000
00010000
00001000
00000000
00000000
00000000
,
00010000
00000000
01000000
00000000
10000000
00000000
00010000
00000000
10000000
01000000
00010000
00001000
00000010
00000001
00001000
00000100
,
00000010
00000000
00000000
00000000
,
00001001
00000000
00000000
00000000
00000001
00000000
00000100
00000000
00001000
00000000
00010000
00000000
00100000
10000000
00010000
00000000
,
10000000
01000000
00010000
00001000
00010000
00000000
00000000
00001000
00000010
00000001
00000010
00000000
00000001
00000000
00000000
00000000
,
00001001
00000000
00000000
00000000
00000001
00000010
00001000
00000000
00010000
00000000
01000000
10000000
00000000
01000000
10000000
00000000
,
00010000
00010000
00100000
00100000
00001000
00000000
00010000
00000000
,
00011000
00000000
00010000
00001000
00000010
00000000
00000110
00000000
,
00000010
00000000
00000001
00000000
00000100
00000000
00000010
00000100
00000010
00000000
00001000
00000000
00001001
00000000
00000000
00000000
,
00000001
00000010
00000100
00010000
00001000
01000000
00100000
10000000
00010000
00100000
00001000
00010000
00000100
00000010
00000001
00000010
,
00002000
00000000
00000000
00013000
,
00000000
00000000
00000000
00000000
;
