
//----- song ID: luml -----//
#TITLE:ラムのラブソング;
#ARTIST:kaco;
#TITLETRANSLIT:Lum no love song;
#BANNER:Lum no love song.png;
#BACKGROUND:Lum no love song-bg.png;
#CDTITLE:./CDTitles/pnm 7.png;
#MUSIC:Lum no love song.ogg;
#SAMPLESTART:6.634;
#SAMPLELENGTH:15;
#DISPLAYBPM:180;
#BPMS:0=180.9;
#STAGE:5;
#NOTES:
     dance-single:
     :
     Beginner:
     2:
     :
0000
0000
0000
0000
,
0000
0000
0000
0000
,
0000
0000
0000
0000
,
0000
0000
0000
0000
,
0000
0000
0000
0000
,
0001
0000
0000
0000
,
0001
0000
0000
0000
,
0010
0000
0000
0000
,
0000
0000
0000
0000
,
1000
0000
0000
0000
,
1000
0000
0000
0000
,
0010
0000
0000
0000
,
0000
0000
0000
0000
,
1000
0000
0000
0000
,
0100
0000
0000
0000
,
0100
0000
0000
0000
,
0000
0000
0000
0000
,
0001
0000
0000
0000
,
0100
0000
0000
0000
,
0100
0000
0000
0000
,
0000
0000
0000
0000
,
1000
0000
0000
0000
,
1000
0000
0000
0000
,
0010
0000
0000
0000
,
0000
0000
0000
0000
,
0100
0000
0000
0000
,
0100
0000
0000
0000
,
0001
0000
0000
0000
,
0000
0000
0000
0000
,
0001
0000
0000
0000
,
0001
0000
0000
0000
,
0010
0000
0000
0000
,
0000
0000
0000
0000
,
0100
0000
0000
0000
,
0100
0000
0000
0000
,
1000
0000
0000
0000
,
0000
0000
0000
0000
,
2002
0000
0000
0000
,
3003
0000
0000
0000
,
1000
0000
0000
0000
,
0001
0000
0000
0000
,
2002
0000
0000
0000
,
3003
0000
0000
0000
,
0001
0000
0000
0000
,
1000
0000
0000
0000
,
1000
0000
0000
0000
,
0010
0000
0000
0000
,
1000
0000
0000
0000
,
0000
0000
0000
0000
,
0001
0000
0000
0000
,
0010
0000
0000
0000
,
0001
0000
0000
0000
,
0000
0000
0000
0000
,
0001
0000
0001
0000
,
0010
0000
0000
0000
,
0100
0000
0000
0000
,
0000
0000
0000
0000
,
1000
0000
1000
0000
,
0010
0000
0000
0000
,
0100
0000
0000
0000
,
1001
0000
0000
0000
,
0010
0000
0000
0000
,
1001
0000
0000
0000
,
0010
0000
0000
0000
,
0100
0000
0000
0000
,
0002
0000
0000
0000
,
0003
0000
0000
0000
,
2000
0000
0000
0000
,
3000
0000
0000
0000
,
0001
0000
1000
0000
,
1001
0000
0000
0000
,
0000
0000
0000
0000
;
#NOTES:
     dance-single:
     :
     Easy:
     6:
     :
0000
0000
0000
0000
,
0000
0000
0000
0000
,
0000
0000
0000
0000
,
0000
0000
0000
0000
,
0000
0000
0000
0000
,
0001
0000
0100
0000
,
1001
0000
0000
0000
,
1000
0000
0100
0000
,
1001
0000
0000
0000
,
0001
0000
0010
0000
,
1001
0000
0000
0000
,
1000
0000
0010
0000
,
1001
0000
0000
0000
,
0001
0010
0001
0000
,
1000
0010
1000
0000
,
0001
0100
0001
0000
,
1000
0100
1000
0000
,
0001
0010
0001
0000
,
1000
0010
1000
0000
,
0001
0100
0001
0000
,
1000
0100
1000
0000
,
0001
0010
0001
0100
,
0001
0010
0100
0000
,
1000
0010
1000
0100
,
1000
0100
0010
0000
,
0001
0100
0001
0100
,
1000
0100
0001
0000
,
1000
0100
1000
0100
,
0001
0100
1000
0000
,
1000
0100
1000
0010
,
1000
0100
0010
0000
,
0001
0100
0001
0010
,
0001
0010
0100
0000
,
1000
0010
1000
0010
,
0001
0010
1000
0000
,
0001
0010
1000
0010
,
0001
0000
0000
0000
,
2000
0000
3002
0000
,
1003
0010
0100
0010
,
2000
0000
3002
0000
,
1003
0010
0100
0001
,
0020
0000
0230
0000
,
1300
0100
0010
0001
,
0200
0000
0320
0000
,
0130
0100
0100
0000
,
0002
0000
0203
0000
,
0301
0100
0010
0100
,
0002
0000
2003
0000
,
3001
0100
0010
1000
,
0200
0000
0320
0000
,
0130
0010
0100
1000
,
0020
0000
0230
0000
,
0310
0010
0010
0000
,
1000
0000
0110
0000
,
0001
1000
0001
0000
,
0001
0000
0110
0000
,
1000
0001
1000
0000
,
1000
0010
1001
0000
,
0001
0010
1001
0000
,
1001
0000
0110
0000
,
1001
0000
0000
0000
,
1001
0000
0110
0000
,
1001
0000
0000
0000
,
1001
0000
0000
0000
,
0110
0000
0000
0000
,
0001
0010
0110
0000
,
1000
0010
0110
0000
,
0001
0100
0110
0000
,
1000
0100
0110
0000
,
0001
0000
1000
0000
,
2002
0000
3003
0000
,
0000
0000
0000
0000
;
#NOTES:
     dance-single:
     :
     Medium:
     8:
     :
0000
0000
0000
0000
,
0000
0000
0000
0000
,
0000
0000
0000
0000
,
0000
0000
0000
0000
,
0000
0000
0000
0000
,
0011
0000
1100
0000
,
0001
1000
0000
0001
0000
0000
0000
0000
,
1010
0000
0101
0000
,
1000
0001
0000
1000
0000
0000
0000
0000
,
0101
0000
1010
0000
,
0001
1000
0000
0001
0000
0000
0000
0000
,
1100
0000
0011
0000
,
1000
0001
1000
0001
0000
0000
0000
0000
,
2000
0000
3010
0000
,
1001
0000
0000
0000
,
0002
0000
0013
0000
,
1001
0000
0000
0000
,
2000
0000
3100
0000
,
1001
0000
0000
0000
,
0002
0000
0103
0000
,
1001
0000
0000
0000
,
1000
0000
0010
0000
0100
0000
0001
0010
,
0000
0001
0000
0100
0001
0000
0010
0000
,
0100
0000
0000
0110
0000
0000
0000
0000
,
1000
0001
1001
0000
,
0001
0000
0100
0000
0010
1000
0000
0100
,
0000
1000
0000
0010
1000
0000
0100
0000
,
0010
0000
0000
0110
0000
0000
0000
0000
,
0001
1000
1001
0000
,
0001
0000
0010
0000
0100
1000
0000
0100
,
0000
1000
0000
0001
0100
0000
0000
0000
,
0001
0100
1000
0000
,
1000
0100
0001
0000
,
1000
0000
0100
0000
0010
0001
0000
0010
,
0000
0001
0000
1000
0010
0000
0000
0000
,
1000
0000
0000
0001
0000
1000
0000
0000
,
1001
0000
0000
0000
,
2000
0000
3200
0000
,
0310
0001
0010
0000
0001
0000
1000
0000
,
0002
0000
0203
0000
,
0310
1000
0010
0000
1000
0000
0001
0000
,
2000
0000
3020
0000
,
0130
0001
0100
0000
0001
0000
1000
0000
,
0002
0000
0023
0000
,
0130
1000
0100
0000
1000
0000
0000
0000
,
0002
0000
0023
0000
,
1030
0000
0010
0000
0001
1000
0001
0000
,
2000
0000
3020
0000
,
0031
0000
0010
0000
1000
0001
1000
0000
,
0002
0000
0203
0000
,
1300
0000
0100
0000
0001
1000
0001
0000
,
2000
0000
3200
0000
,
0301
0100
1000
0000
,
0001
0001
0011
0000
,
1000
0010
0000
1010
0000
0000
0000
0000
,
0001
0001
0101
0000
,
1000
0100
1000
0100
0000
0000
0000
0000
,
1000
1000
1010
0000
,
0001
0010
0000
0011
0000
0000
0000
0000
,
0011
0000
1010
0000
,
0001
1000
0001
1000
0000
0000
0000
0000
,
1100
0000
0101
0000
,
1000
0001
1000
0001
0000
0000
0000
0000
,
0110
0000
0000
0000
,
1001
0000
0000
0000
,
0002
0000
1003
0000
,
0110
0000
0000
0000
,
2000
0000
3001
0000
,
0110
0000
0000
0000
,
0001
1000
0001
1000
0000
0001
0000
0000
,
2002
0000
3003
0000
,
0000
0000
0000
0000
;
#NOTES:
     dance-single:
     :
     Hard:
     12:
     :
0000
0000
0000
0000
,
0000
0000
0000
0000
,
0000
0000
0000
0000
,
0000
0000
0000
0000
,
0000
0000
0000
0000
,
1001
0000
0110
0000
,
1000
0100
0010
0001
0000
0000
0000
0000
,
1001
0000
0110
0000
,
0001
0100
0010
1000
0000
0000
0000
0000
,
1001
0000
0110
0000
,
0001
0010
0100
1000
0000
0000
0000
0000
,
1001
0000
0110
0000
,
0001
0001
1000
0001
0000
0000
0000
0000
,
0001
0010
0001
0000
0010
0100
0010
0000
,
0100
1000
0100
0000
0000
0000
0000
0000
,
1000
0010
1000
0000
0010
0100
0010
0000
,
0100
0001
0100
0000
0000
0000
0000
0000
,
0001
0100
0010
0000
1000
0100
0010
0000
,
0001
0100
0010
0000
0000
0000
0000
0000
,
1000
0010
0100
0000
0001
0010
0100
0000
,
1000
0010
0100
0000
0000
0000
0000
0000
,
0001
0100
0010
1000
0100
0010
0100
1000
,
0000
1000
0010
0100
0001
0010
0001
0000
,
1000
0010
0100
0001
0010
0100
0010
0001
,
0000
0001
0100
0010
1000
0100
1000
0000
,
0001
1000
0100
1000
0010
0100
0010
1000
,
0000
1000
0100
0010
0001
0100
0001
0000
,
1000
0001
0010
0001
0100
0010
0100
0001
,
0000
0001
0010
0100
1000
0010
1000
0000
,
1010
0100
0001
0100
0101
1000
0100
1000
,
0000
1010
0001
0100
0010
1000
1001
0000
,
0101
0010
1000
0010
1010
0001
0010
0001
,
0000
0101
1000
0010
0100
0001
1001
0000
,
0011
1000
0100
1000
1010
0001
0100
0001
,
0000
0011
1000
0001
0100
0100
0010
0010
,
1010
0000
0000
0011
0000
1010
0000
0001
,
1000
0000
1001
0000
,
0201
1000
0001
1300
,
0001
0010
0100
1000
0010
1000
0100
0010
,
0021
1000
0001
1030
,
0001
0100
0010
0100
0010
1000
0001
0000
,
1200
0001
1000
0301
,
1000
0010
0100
0001
0010
0001
0100
0010
,
1020
0001
1000
0031
,
1000
0100
0010
0100
0010
0001
1000
0000
,
0021
0100
1000
0130
,
0001
0100
0010
1000
0100
0010
0001
0100
,
0201
0010
1000
0310
,
0001
0010
0100
1000
0010
0100
0001
0000
,
1200
0010
0001
0310
,
1000
0010
0100
0001
0010
0100
1000
0010
,
1020
0100
0001
0130
,
1000
0100
0010
0001
0000
0000
0000
0000
,
0001
0010
0001
0010
0100
1000
0010
1000
,
0100
0010
0000
0011
0000
0000
0000
0000
,
1000
0010
1000
0010
0100
0001
0010
0001
,
0100
1000
0100
0001
0000
0000
0000
0000
,
1000
0100
0001
0100
1000
0010
0001
0010
,
1000
0100
0010
0001
0000
0000
0000
0000
,
0011
0001
0100
0010
0110
0100
0010
1000
,
0001
0001
1000
1001
0000
0000
0000
0000
,
1010
1000
0100
0010
0110
0100
0010
0001
,
1000
1000
0001
1001
0000
0000
0000
0000
,
0101
0001
0100
1000
,
1100
1000
0100
0001
,
1000
0010
1000
0000
0001
0100
0001
0000
,
1000
0001
1000
0000
0000
0000
0000
0000
,
0001
0010
0001
0000
1000
0100
1000
0000
,
0001
1000
0001
0000
0000
0000
0000
0000
,
0101
1000
0010
1010
0000
0110
0000
0010
,
2002
0000
3003
0000
,
0000
0000
0000
0000
;
#NOTES:
     dance-double:
     :
     Easy:
     6:
     :
00000000
00000000
00000000
00000000
,
00000000
00000000
00000000
00000000
,
00000000
00000000
00000000
00000000
,
00000000
00000000
00000000
00000000
,
00000000
00000000
00000000
00000000
,
10000000
00000000
01000000
00000000
,
01100000
00000000
00000000
00000000
,
00001000
00000000
00010000
00000000
,
00011000
00000000
00000000
00000000
,
00000100
00000000
00000010
00000000
,
00000110
00000000
00000000
00000000
,
00000001
00000000
00001000
00000000
,
00001001
00000000
00000000
00000000
,
00000001
00000100
00000001
00000000
,
00001000
00000100
00001000
00000000
,
00000100
00010000
00000100
00000000
,
00010000
00001000
00010000
00000000
,
00001000
00100000
00001000
00000000
,
00100000
00010000
00100000
00000000
,
01000000
10000000
01000000
00000000
,
10000000
00010000
10000000
00000000
,
00010000
10000000
01000000
10000000
,
01000000
00100000
00010000
00000000
,
00100000
00001000
00010000
00001000
,
00100000
00001000
00010000
00000000
,
00001000
00010000
00000100
00001000
,
00000100
00000010
00000001
00000000
,
00001000
00000001
00000100
00000001
,
00000010
00000100
00001000
00000000
,
00000001
00000100
00000001
00000100
,
00000010
00000100
00001000
00000000
,
00010000
00001000
00010000
00001000
,
01000000
00010000
00100000
00000000
,
01000000
10000000
01000000
10000000
,
00100000
01000000
00100000
00010000
,
00001000
00000000
00010000
00000000
,
00011000
00000000
00000000
00000000
,
00020000
00000000
00032000
00000000
,
00003010
00000100
00000010
00000000
,
00000002
00000000
00002003
00000000
,
00003001
00000100
00001000
00000000
,
00020000
00000000
00032000
00000000
,
01003000
00100000
01000000
00000000
,
00020000
00000000
20030000
00000000
,
30010000
01000000
00100000
00000000
,
20000000
00000000
32000000
00000000
,
03100000
00001000
00010000
00001000
,
00000020
00000000
00000230
00000000
,
00001300
00000010
00000001
00000010
,
00002000
00000000
00003002
00000000
,
00000103
00000010
00000100
00001000
,
00020000
00000000
00032000
00000000
,
00013000
00010000
00010000
00000000
,
00001000
00000000
00010000
00000000
,
00100000
01000000
00100000
00000000
,
10000000
00000000
00010000
00000000
,
10000000
01000000
00010000
00000000
,
00001000
00000010
00000001
00000000
,
00001000
00000100
00000010
00000000
,
00001001
00000000
00000110
00000000
,
00001001
00000000
00000000
00000000
,
00010000
00000000
00001000
00000000
,
00011000
00000000
00000000
00000000
,
01100000
00000000
00000000
00000000
,
10010000
00000000
00000000
00000000
,
10000000
01000000
01100000
00000000
,
00100000
00001000
00011000
00000000
,
00010000
00000100
00000110
00000000
,
00000010
00000001
00001001
00000000
,
00000100
00000000
00000010
00000000
,
00002002
00000000
00003003
00000000
,
00000000
00000000
00000000
00000000
;
#NOTES:
     dance-double:
     :
     Medium:
     8:
     :
00000000
00000000
00000000
00000000
,
00000000
00000000
00000000
00000000
,
00000000
00000000
00000000
00000000
,
00000000
00000000
00000000
00000000
,
00000000
00000000
00000000
00000000
,
00110000
00000000
11000000
00000000
,
10000000
01000000
00000000
00100000
00000000
00000000
00000000
00000000
,
00101000
00000000
00011000
00000000
,
00010000
00001000
00010000
00001000
00000000
00000000
00000000
00000000
,
00011000
00000000
00010100
00000000
,
00001000
00000100
00000000
00000010
00000000
00000000
00000000
00000000
,
00000011
00000000
00001100
00000000
,
00000001
00001000
00000001
00001000
00000000
00000000
00000000
00000000
,
00000002
00000000
00000103
00000000
,
00000110
00000000
00000000
00000000
,
00020000
00000000
00031000
00000000
,
00011000
00000000
00000000
00000000
,
02000000
00000000
03100000
00000000
,
01100000
00000000
00000000
00000000
,
00020000
00000000
10030000
00000000
,
10010000
00000000
00000000
00000000
,
10000000
00000000
00100000
00000000
01000000
00000000
00010000
01000000
,
00000000
00010000
00000000
00100000
00001000
00000000
00010000
00000000
,
00001000
00000000
00000000
00011000
00000000
00000000
00000000
00000000
,
00010000
00001000
00000010
00000001
,
00001000
00000000
00000010
00000000
00000100
00000001
00000000
00001000
,
00000000
00000100
00000000
00010000
00001000
00000000
00100000
00000000
,
00010000
00000000
01000000
00100000
00000000
00000000
00000000
00000000
,
10000000
00010000
10010000
00000000
,
10000000
00000000
00100000
00000000
00010000
00001000
00000000
00010000
,
00000000
00010000
00000000
00000010
00001000
00000000
00000100
00000000
,
00000010
00000000
00000001
00000000
00000100
00000000
00000001
00001000
,
00000000
00001000
00000001
00000100
,
00000001
00000000
00000010
00000000
00000100
00010000
00000000
00000100
,
00000000
00010000
00000000
00001000
00010000
00000000
00000000
00000000
,
00100000
00000000
00000000
01000000
00000000
00100000
00000000
00000000
,
01100000
00000000
00000000
00000000
,
20000000
00000000
30200000
00000000
,
01300000
00010000
01000000
00000000
00010000
00000000
00100000
00000000
,
00002000
00000000
00023000
00000000
,
00030010
00001000
00000010
00000000
00000100
00000000
00000000
00000000
,
00000002
00000000
00000023
00000000
,
00000130
00001000
00000100
00000000
00001000
00000000
00000010
00000000
,
00020000
00000000
00032000
00000000
,
00103000
00010000
00100000
00000000
01000000
00000000
00000000
00000000
,
20000000
00000000
32000000
00000000
,
03010000
00000000
00001000
00000000
00000010
00000100
00000010
00000000
,
00000002
00000000
00000203
00000000
,
00001300
00000000
00010000
00000000
00100000
01000000
00100000
00000000
,
20000000
00000000
30200000
00000000
,
00310000
00000000
00001000
00000000
00000100
00000010
00000100
00000000
,
00000002
00000000
00000023
00000000
,
00001030
00000000
00010000
00001000
00000000
00000000
00000000
00000000
,
00010000
00001000
00010000
00100000
,
10000000
00100000
00000000
10100000
00000000
00000000
00000000
00000000
,
10000000
01000000
00100000
00010000
,
00100000
00001000
00010000
00001000
00000000
00000000
00000000
00000000
,
00010000
00001000
00000010
00000001
,
00000100
00000001
00000000
00000101
00000000
00000000
00000000
00000000
,
00000011
00000000
00001010
00000000
,
00000001
00001000
00000001
00001000
00000000
00000000
00000000
00000000
,
00000101
00000000
00001100
00000000
,
00001000
00010000
00001000
00010000
00000000
00000000
00000000
00000000
,
00011000
00000000
00000000
00000000
,
01100000
00000000
00000000
00000000
,
20000000
00000000
30010000
00000000
,
01100000
00000000
00000000
00000000
,
00200000
00000000
01300000
00000000
,
00011000
00000000
00000000
00000000
,
00000100
00000010
00000100
00000010
00000000
00000100
00000000
00000000
,
00000220
00000000
00000330
00000000
,
00000000
00000000
00000000
00000000
;
#NOTES:
     dance-double:
     :
     Hard:
     12:
     :
00000000
00000000
00000000
00000000
,
00000000
00000000
00000000
00000000
,
00000000
00000000
00000000
00000000
,
00000000
00000000
00000000
00000000
,
00000000
00000000
00000000
00000000
,
10010000
00000000
01100000
00000000
,
10000000
01000000
00010000
00001000
00000000
00000000
00000000
00000000
,
00011000
00000000
00011000
00000000
,
00010000
00001000
00000010
00000001
00000000
00000000
00000000
00000000
,
00001001
00000000
00000110
00000000
,
00000001
00000100
00001000
00010000
00000000
00000000
00000000
00000000
,
00011000
00000000
00011000
00000000
,
00001000
00001000
00010000
00001000
00000000
00000000
00000000
00000000
,
00001000
00010000
00001000
00000000
01000000
00100000
01000000
00000000
,
00010000
10000000
00010000
00000000
00000000
00000000
00000000
00000000
,
10000000
00010000
10000000
00000000
01000000
00100000
01000000
00000000
,
00010000
00001000
00010000
00000000
00000000
00000000
00000000
00000000
,
00010000
00001000
00000010
00000000
00000001
00001000
00000100
00000000
,
00000001
00000100
00001000
00000000
00000000
00000000
00000000
00000000
,
00000001
00000100
00001000
00000000
00010000
00001000
00010000
00000000
,
01000000
10000000
01000000
00000000
00000000
00000000
00000000
00000000
,
10000000
00100000
10000000
00100000
01000000
00010000
00100000
00010000
,
00000000
00010000
01000000
00001000
00010000
00001000
00000100
00000000
,
00000001
00000010
00000001
00000010
00000100
00001000
00000010
00001000
,
00000000
00001000
00000100
00010000
00001000
00010000
01000000
00000000
,
10000000
00100000
01000000
00010000
00100000
01000000
00010000
00001000
,
00000000
00001000
00000010
00000001
00001000
00000100
00000010
00000000
,
00000001
00000010
00000100
00001000
00000010
00000100
00001000
00010000
,
00000000
00010000
00100000
10000000
00010000
01000000
00100000
00000000
,
10100000
01000000
00010000
01000000
00100000
10000000
01000000
01100000
,
00000000
10010000
00000000
00010000
01000000
00001000
00010000
00000000
,
00011000
00000100
00001000
00000100
00000010
00000001
00001000
00001001
,
00000000
00000110
00000000
00001000
00000100
00000010
00000001
00000000
,
00000011
00000100
00001000
00000100
00000010
00000001
00000100
00000110
,
00000000
00001001
00000000
00001000
00000100
00010000
00001000
00000000
,
00011000
00000000
00001000
01000000
00000000
01000000
00000000
00100000
,
01100000
00000000
10010000
00000000
,
00020000
01000000
10000000
01030000
,
10000000
01000000
00010000
00001000
00000010
00000000
00000001
00000000
,
00002000
00000100
00000001
00003100
,
00000001
00000100
00001000
00000000
00010000
00100000
10000000
00000000
,
00020000
00100000
10000000
01030000
,
10000000
00100000
00010000
00001000
00000100
00000000
00000001
00000000
,
00002000
00000010
00000001
00003100
,
00000001
00000010
00001000
00000000
00010000
01000000
10000000
00000000
,
00020000
01000000
20030000
01000000
,
30010000
00100000
00001000
00010000
00000100
00001000
00000010
00000100
,
00000002
00000010
00002003
00000010
,
00003001
00000100
00000010
00010000
00001000
01000000
00010000
00100000
,
02000000
00010000
23000000
00100000
,
30010000
01000000
00001000
00010000
00000100
00001000
00000010
00000001
,
00000020
00001000
00000230
00001000
,
00000301
00000010
00000100
00001000
00000000
00000000
00000000
00000000
,
00000001
00000100
00000001
00000100
00000010
00001000
00000010
00010000
,
00001000
00010000
00000000
00011000
00000000
00000000
00000000
00000000
,
00001000
01000000
00001000
01000000
00010000
00100000
00010000
00100000
,
01000000
10000000
00010000
10000000
00000000
00000000
00000000
00000000
,
10000000
01000000
10000000
01000000
00100000
00010000
00100000
00001000
,
00010000
00001000
00000000
00011000
00000000
00000000
00000000
00000000
,
00010000
00001000
00000010
00000010
00000001
00001000
00000010
00000010
,
00000100
00000001
00001000
00001001
00000000
00000000
00000000
00000000
,
00000001
00000100
00001000
00001000
00010000
00001000
00100000
00100000
,
00010000
10000000
00010000
10010000
00000000
00000000
00000000
00000000
,
10010000
10000000
01000000
00010000
,
00011000
00001000
00000010
00000001
,
00001000
00000001
00000100
00000000
00001000
00010000
00001000
00000000
,
00010000
00100000
10000000
00000000
00000000
00000000
00000000
00000000
,
00010000
10000000
01000000
00000000
00010000
00001000
00010000
00000000
,
00001000
00000010
00000001
00000000
00000000
00000000
00000000
00000000
,
00001000
00001000
00000001
00001000
00000000
00010000
00000000
00010000
,
00022000
00000000
00033000
00000000
,
00000000
00000000
00000000
00000000
;
