
//----- song ID: ruka -----//
#TITLE:ルカルカ★ナイトフィーバー;
#TITLETRANSLIT:Luka luka night fever;
#BANNER:Luka luka night fever.png;
#BACKGROUND:Luka luka night fever-bg.png;
#CDTITLE:./CDTitles/DDR GRAND PRIX.png;
#MUSIC:Luka luka night fever.ogg;
#SAMPLESTART:52.245;
#SAMPLELENGTH:15;
#BPMS:0=160;
#NOTES:
     dance-single:
     :
     Beginner:
     2:
     :
0000
0000
0000
0000
,
0000
0000
0000
0000
,
0000
0000
0000
0000
,
0001
0000
0000
0000
,
1000
0000
0000
0000
,
0001
0000
0000
0000
,
0100
0000
0000
0000
,
0001
0000
0000
0000
,
1000
0000
0000
0000
,
0100
0000
0000
0000
,
0010
0000
0000
0000
,
0001
0000
0000
0000
,
1000
0000
0000
0000
,
0001
0000
1000
0000
,
0001
0000
0000
0000
,
0010
0000
0000
0000
,
0100
0000
0000
0000
,
0010
0000
0000
0000
,
0001
0000
0000
0000
,
1000
0000
0000
0000
,
0001
0000
0000
0000
,
1000
0000
0100
0000
,
1000
0000
0000
0000
,
0001
0000
0000
0000
,
1000
0000
0000
0000
,
0001
0000
0100
0000
,
0001
0000
0000
0000
,
1000
0000
0000
0000
,
0010
0000
0000
0000
,
0100
0000
0000
0000
,
0010
0000
0000
0000
,
1000
0000
0001
0000
,
1000
0000
0001
0000
,
1000
0000
0000
0000
,
1001
0000
0000
0000
,
0001
0000
0100
0000
,
0001
0000
0100
0000
,
0001
0000
0000
0000
,
1000
0000
0000
0000
,
0010
0000
0000
0000
,
0100
0000
0000
0000
,
0001
0000
0000
0000
,
0001
0000
0000
0000
,
1000
0000
0010
0000
,
1000
0000
0010
0000
,
1000
0000
0000
0000
,
0001
0000
0000
0000
,
0010
0000
0000
0000
,
0100
0000
0000
0000
,
1000
0000
0000
0000
,
1001
0000
0000
0000
,
0001
0000
1000
0000
,
0001
0000
0000
0000
,
0010
0000
0100
0000
,
0010
0000
0000
0000
,
1000
0000
0100
0000
,
1000
0000
0000
0000
,
0001
0000
0100
0000
,
0001
0000
0000
0000
,
1000
0000
0000
0000
,
1001
0000
0000
0000
,
0000
0000
0000
0000
;
#NOTES:
     dance-single:
     :
     Easy:
     4:
     :
0000
0000
0000
0000
,
0000
0000
0000
0000
,
0000
0000
0000
0000
,
1000
0000
0100
0000
,
1000
0000
0000
0000
,
0001
0000
0100
0000
,
0001
0000
1000
0001
,
1000
0000
0100
0000
,
0001
0000
0000
0000
,
0001
0000
0100
0000
,
1000
0000
0001
1000
,
0001
0000
0001
0000
,
1000
0000
0000
0000
,
1000
0000
1000
0000
,
0001
0000
0000
0000
,
0010
0000
0000
0000
,
0001
0000
0000
0000
,
0100
0000
0000
0000
,
1000
0000
0001
1000
,
0001
0000
0100
0000
,
0001
0000
0000
0000
,
1000
0000
0010
0000
,
1000
0000
0000
0000
,
0100
0000
0100
0000
,
0100
0000
0000
0000
,
0010
0000
0010
0000
,
0010
0000
1000
0001
,
1000
0000
0000
0000
,
0001
0000
0000
0000
,
0000
0100
0000
0100
,
0000
0010
0100
0010
,
0000
1000
0000
0001
,
0000
1000
0000
0010
,
0100
0000
0010
0000
,
0110
0000
0000
0000
,
1000
0001
1000
0001
,
1000
0000
1001
0000
,
0100
0010
0100
0010
,
0100
0000
0110
0000
,
0001
0000
0000
0000
,
1000
0000
0000
0000
,
0001
0000
0010
0000
,
0100
0000
1000
1000
,
0001
1000
0001
1000
,
0001
0000
1001
0000
,
0010
0100
0010
0100
,
0010
0000
0110
0000
,
1000
0000
0000
0000
,
0001
0000
0000
0000
,
1000
0000
0100
0000
,
0020
0000
0000
0030
,
0001
0000
0100
0000
,
0001
0000
0100
0000
,
0001
0000
1000
0000
,
0100
0000
1000
0001
,
1000
0000
0100
0000
,
0010
0000
0001
0000
,
1000
0000
0010
0000
,
0100
0000
0001
1000
,
0001
0000
0000
0000
,
0000
0010
0100
0110
,
0000
0000
0000
0000
;
#NOTES:
     dance-single:
     :
     Medium:
     10:
     :
0000
0000
0000
0000
,
0000
0000
0000
0000
,
0000
0000
0000
0000
,
1000
0010
0100
0001
,
0010
0100
1000
0000
0010
0100
0001
0000
,
1000
0100
0010
0001
,
0010
0001
0010
0000
0101
0000
1100
0000
,
0001
0100
0010
1000
,
0100
0010
0001
0000
0100
0010
1000
0000
,
0001
0010
0100
1000
,
0100
1000
0100
0000
1010
0000
0011
0000
,
0001
0010
0001
0000
1000
0010
1000
0000
,
0001
0100
1000
0100
,
0001
0100
0001
0000
1000
0100
1000
0000
,
0001
0010
1000
0010
,
0001
1000
0100
0000
1000
0001
0100
0000
,
0010
0000
0100
0000
0010
0000
1000
0001
,
2000
0010
3020
0100
,
0230
0301
0101
1001
,
1000
0100
1000
0000
0001
0100
0001
0000
,
1000
0010
0001
0010
,
1000
0010
1000
0000
0001
0010
0001
0000
,
1000
0100
0001
0100
,
1000
0001
0010
0000
0001
1000
0010
0000
,
0100
0000
0010
0000
0100
0000
0001
1000
,
0002
0100
0203
0010
,
0320
1030
1010
1001
,
0002
0023
0130
1100
,
2000
3020
0130
0101
,
0001
1001
0100
0110
,
0010
1010
1001
0101
,
0110
0000
1000
0000
0001
0000
0010
0100
,
0000
0000
1000
0000
0010
0000
1000
0100
,
1000
0000
0000
0001
0100
0000
0000
0010
,
0000
1000
0001
1000
0001
0000
0100
0000
,
0001
1100
0001
1100
,
0010
0100
0010
0000
,
1000
0011
1000
0011
,
0100
0010
0100
0010
,
1000
0100
1000
0000
0001
0100
0001
0000
,
0010
0100
0010
0100
0010
0000
0001
0000
,
0002
0010
0023
0100
,
0230
1300
1100
1001
,
0100
1001
0100
1001
,
0001
1000
0001
0000
,
0010
1001
0010
1001
,
0010
0100
0010
0100
,
0001
0010
0001
0000
1000
0010
1000
0000
,
0100
0010
0100
0010
0100
0000
0000
0000
,
1000
0000
0100
0000
0010
0000
0001
1000
,
0000
0010
0100
0010
0100
0000
1001
0000
,
0001
0010
0100
1000
,
0010
0100
0010
0100
0010
0000
1000
0000
,
0001
0100
0010
1000
,
0001
1000
0001
0000
1100
0000
0101
0000
,
1000
0100
0010
0001
,
0100
0010
0100
0010
0100
0000
0001
0000
,
1000
0010
0100
0001
,
1000
0001
1000
0000
0011
0000
1010
0000
,
2000
0000
0000
0000
0000
0000
3000
0001
,
0000
0010
0100
0010
0200
0000
1300
0000
,
0000
0000
0000
0000
;
#NOTES:
     dance-single:
     :
     Hard:
     13:
     :
0000
0000
0000
0000
,
0000
0000
0000
0000
,
0000
0000
0000
0000
,
0001
0000
0010
0000
0100
0000
1000
0100
0000
1000
0100
0000
1000
0000
0001
0000
,
1000
0010
1000
0010
0100
0001
0010
0100
,
1000
0000
0010
0000
0100
0000
0001
0100
0000
0001
0100
0000
0001
0000
1000
0000
,
0001
0010
0001
0010
0100
0000
1100
0000
,
1000
0000
0100
0000
0010
0000
0001
0010
0000
0001
0010
0000
0001
0000
1000
0000
,
0001
0100
0001
0100
0010
1000
0010
0100
,
0001
0000
0100
0000
0010
0000
1000
0010
0000
1000
0010
0000
1000
0000
0001
0000
,
1000
0100
1000
0100
0010
0000
0011
0000
,
0000
0001
0100
0010
0100
0001
0000
1000
,
0010
0001
0010
1000
0001
0010
0100
0000
,
0000
1000
0100
0010
0100
1000
0000
0001
,
0100
1000
0100
0001
1000
0010
0100
0000
,
0000
0001
0100
0001
0100
0001
0000
1000
,
0100
1000
0100
1000
0100
0000
1000
0010
,
0200
0000
0302
0000
0023
0000
0130
2000
,
0000
3001
0002
0000
0203
0000
0020
0330
,
0000
1000
0100
0010
0001
0100
0000
0010
,
0100
1000
0100
0001
1000
0100
1000
0000
,
0000
0001
0010
0100
1000
0010
0000
0100
,
0010
0001
0010
1000
0001
0100
0001
0000
,
0000
0010
0100
0010
0100
0010
0000
0001
,
1000
0001
1000
0001
1000
0000
0100
0010
,
0002
0000
0203
0000
2300
0000
3100
0002
,
0000
0013
0020
0000
0032
0000
0103
0010
,
2000
0000
3020
0000
0230
0000
0301
1000
,
0200
0000
0320
0000
0032
0000
0013
0100
,
0010
0001
0101
0000
0010
1000
1100
0000
,
0001
0100
1100
0000
0101
0000
1001
0000
,
0110
0000
0002
0000
2003
0000
3010
0200
,
0000
0000
0302
0000
0023
0000
0130
1000
,
0001
0000
0000
0100
0010
0000
0000
2000
,
0000
3001
0010
0100
1000
0000
1001
0000
,
0001
0100
0101
0000
1000
0100
1100
0000
,
0001
0100
0001
0000
2000
0000
0000
0000
0002
0000
3003
0000
0000
0000
0000
0000
,
1000
0010
1010
0000
0001
0010
0011
0000
,
1000
0010
0100
0100
0001
0010
0100
0100
,
0000
1000
0010
0100
0010
1000
0000
0001
,
0010
0100
0020
0000
0002
0030
0000
0003
,
2000
0000
3020
0000
0230
0000
0301
2000
,
0000
3002
0000
0013
0100
0000
1100
0000
,
1000
0010
1010
0000
0001
0010
0011
0000
,
1000
0010
1000
0000
0002
0000
0000
0000
2000
0000
3003
0000
0000
0000
0000
0000
,
0001
0100
0101
0000
1000
0100
1100
0000
,
0001
0100
0010
0010
1000
0100
0010
0010
,
0000
0001
0100
0010
0100
0001
0000
2000
,
0000
3010
0020
0000
0200
0330
0000
0000
,
0002
0000
0023
0000
2030
0000
3001
0200
,
0000
1300
0001
0010
1000
0000
0110
0000
,
1000
0000
0100
0000
0010
0000
0001
0010
0000
0001
0010
0000
0001
0000
1000
0000
,
0010
1000
0010
0000
0100
0000
0001
0000
0100
0000
1000
0000
0100
0000
0001
0000
,
1000
0000
0010
0000
0100
0000
0001
0100
0000
0001
0100
0000
0001
0000
1000
0000
,
0001
0010
1000
0010
0001
0000
1001
0000
,
0001
0000
0010
0000
0100
0000
1000
0100
0000
1000
0100
0000
1000
0000
0001
0000
,
0100
0001
0100
0000
0010
0000
1000
0000
0100
0000
0001
0000
0100
0000
1000
0000
,
0001
0000
0100
0000
0010
0000
1000
0010
0000
1000
0010
0000
1000
0000
0001
0000
,
1000
0010
0001
0010
1000
0000
1001
0000
,
0220
0000
0000
0000
0000
0330
0000
0002
,
0000
1003
0100
0100
0100
0000
1001
0000
,
0000
0000
0000
0000
;
#NOTES:
     dance-double:
     :
     Easy:
     4:
     :
00000000
00000000
00000000
00000000
,
00000000
00000000
00000000
00000000
,
00000000
00000000
00000000
00000000
,
00000001
00000000
00001000
00000000
,
00000001
00000000
00001000
00000000
,
00000010
00000000
00001000
00000000
,
00000100
00000000
00010000
00001000
,
00010000
00000000
00001000
00000000
,
00100000
00000000
00010000
00000000
,
01000000
00000000
00100000
00000000
,
10000000
00000000
00010000
10000000
,
00010000
00000000
00010000
00000000
,
10000000
00000000
00000000
00000000
,
10000000
00000000
10000000
00000000
,
00010000
00000000
00000000
00000000
,
00100000
00000000
01000000
00000000
,
00100000
00000000
00000000
00000000
,
00010000
00000000
01000000
00000000
,
00001000
00000000
00010000
00001000
,
00010000
00000000
00010000
00000000
,
00000100
00000000
00000000
00000000
,
00000100
00000000
00000100
00000000
,
00001000
00000000
00000000
00000000
,
00000010
00000000
00000100
00000000
,
00000001
00000000
00000010
00000000
,
00000100
00000000
00001000
00000000
,
00000001
00000000
00001000
00000001
,
00001000
00000000
00000010
00000000
,
00000100
00000000
00000010
00000000
,
00000000
00000100
00000000
00001000
,
00000000
00010000
00100000
10000000
,
00000000
00100000
00000000
10000000
,
00000000
01000000
00000000
00010000
,
00001000
00000000
00010000
00000000
,
00000100
00001000
00001100
00000000
,
00000010
00000100
00000010
00000100
,
00000010
00000000
00000110
00000000
,
00001000
00000001
00001000
00000001
,
00001000
00000000
00001001
00000000
,
00001000
00000000
00000010
00000000
,
00001000
00000000
00000100
00000000
,
00010000
00000000
00001000
00000000
,
00100000
00000000
00010000
00010000
,
10000000
00010000
10000000
00010000
,
10000000
00000000
10010000
00000000
,
00100000
01000000
00100000
01000000
,
00100000
00000000
01100000
00000000
,
10000000
00000000
00000000
00000000
,
00100000
00000000
00000000
00000000
,
01000000
00000000
00010000
00000000
,
00200000
00000000
00000000
00300000
,
00001000
00000000
00010000
00000000
,
00001000
00000000
00010000
00000000
,
00000100
00000000
00001000
00000000
,
00000100
00000000
00001000
00000001
,
00001000
00000000
00000010
00000000
,
00000100
00000000
00000001
00000000
,
00000010
00000000
00000100
00000000
,
00001000
00000000
00000010
00001000
,
00000200
00000000
00000000
00000300
,
00000000
00010000
00001000
00011000
,
00000000
00000000
00000000
00000000
;
#NOTES:
     dance-double:
     :
     Medium:
     10:
     :
00000000
00000000
00000000
00000000
,
00000000
00000000
00000000
00000000
,
00000000
00000000
00000000
00000000
,
00010000
00100000
00010000
01000000
,
00100000
10000000
00100000
00000000
01000000
00010000
01000000
00000000
,
00001000
00010000
00000100
00001000
,
00000010
00001000
00000010
00000000
00001010
00000000
00001001
00000000
,
00000100
00000001
00000100
00000010
,
00000100
00000001
00000010
00000000
00000100
00001000
00000010
00000000
,
00001000
00000010
00010000
00001000
,
00010000
00001000
00010000
00000000
00011000
00000000
00101000
00000000
,
00100000
00010000
00100000
00000000
01000000
10000000
01000000
00000000
,
10000000
01000000
00010000
01000000
,
10000000
01000000
10000000
00000000
00010000
00100000
00010000
00000000
,
00100000
00010000
00001000
00000100
,
00001000
00000001
00001000
00000000
00000010
00000100
00000010
00000000
,
00001000
00000000
00000100
00000000
00001000
00000000
00000010
00010000
,
00002000
00100000
00203000
00010000
,
00320000
01030000
01100000
10010000
,
10000000
00100000
10000000
00000000
00010000
01000000
00010000
00000000
,
10000000
00100000
00010000
00001000
,
00000100
00000001
00000100
00000000
00000001
00000010
00000001
00000000
,
00000100
00001000
00010000
00100000
,
10000000
00010000
10000000
00000000
01000000
00100000
01000000
00000000
,
10000000
00000000
00100000
00000000
01000000
00000000
00010000
01000000
,
00020000
10000000
20030000
01000000
,
30200000
01300000
01100000
10010000
,
02000000
03020000
00130000
00101000
,
00002000
00023000
00030100
00001100
,
00001000
00001010
00000001
00000101
,
00000010
00000110
00001010
00001100
,
00010100
00000000
00010000
00000000
00000100
00000000
00010000
00001000
,
00000000
00000000
00100000
00000000
00010000
00000000
01000000
00100000
,
01000000
00000000
00010000
10000000
00010000
00000000
00000000
01000000
,
00000000
00001000
00010000
00001000
00010000
00000000
00011000
00000000
,
00000100
00010000
00000100
00000000
00001000
00000010
00001000
00000000
,
00000010
00000100
00000110
00000000
,
00000001
00000100
00000001
00000000
00001000
00000010
00001000
00000000
,
00000100
00010000
00001000
00100000
,
00010000
01000000
00010000
00000000
10000000
01000000
10000000
00000000
,
00100000
01000000
01100000
00000000
,
00200000
10000000
20300000
01000000
,
32000000
03100000
00110000
00001000
,
00010000
00001000
00010000
00000000
00001000
00010000
00001000
00000000
,
00010000
00000100
00001100
00000000
,
00000010
00001000
00000010
00000000
00000100
00000001
00000100
00000000
,
00000010
00010000
00001000
01000000
,
00010000
10000000
00010000
00000000
00100000
01000000
00100000
00000000
,
00010000
10000000
01100000
00000000
,
00100000
00000000
00010000
00000000
00001000
00000000
00000100
00000010
,
00000000
00001000
00000001
00001000
00000002
00000000
00000013
00000000
,
00000001
00000100
00000001
00000010
,
00000001
00000100
00000001
00000100
00000001
00000000
00001000
00000000
,
00000100
00010000
00001000
00100000
,
00010000
01000000
00010000
00000000
01010000
00000000
10010000
00000000
,
00100000
10000000
00100000
01000000
,
00100000
10000000
00100000
10000000
00100000
00000000
01000000
00000000
,
00010000
01000000
00001000
00010000
,
00001000
00010000
00001000
00000000
00011000
00000000
00010100
00000000
,
00002000
00000000
00000000
00000000
00000000
00000000
00003000
00000100
,
00000000
00000010
00000100
00000010
00000002
00000000
00001003
00000000
,
00000000
00000000
00000000
00000000
;
#NOTES:
     dance-double:
     :
     Hard:
     12:
     :
00000000
00000000
00000000
00000000
,
00000000
00000000
00000000
00000000
,
00000000
00000000
00000000
00000000
,
00000001
00000010
00000100
00000010
00000001
00000100
00000010
00000100
,
00000001
00001000
00000010
00000000
00010000
00001000
00100000
00000000
,
00010000
01000000
00100000
01000000
00010000
00100000
01000000
00100000
,
00010000
10000000
00100000
10000000
10100000
00000000
11000000
00000000
,
10000000
01000000
00100000
01000000
10000000
00100000
01000000
00100000
,
10000000
00010000
01000000
00000000
00001000
00010000
00000100
00000000
,
00001000
00000010
00000100
00000010
00001000
00000100
00000010
00000100
,
00001000
00000001
00000100
00000001
00000101
00000000
00000011
00000000
,
00000000
00000010
00000001
00000000
00000100
00000001
00000000
00000100
,
00001000
00010000
00100000
00000000
01100000
00000000
10010000
00000000
,
00000000
01000000
10000000
00000000
00100000
10000000
00000000
00100000
,
00010000
00001000
00000100
00000000
00000110
00000000
00001001
00000000
,
00000000
00000001
00001000
00000010
00000100
00000001
00000000
00001000
,
00000100
00000010
00000001
00000000
00000100
00000000
00000010
00000100
,
00001000
00000000
00010000
00000000
00100000
00000000
10000000
00020000
,
00000000
10030000
20000000
00000000
32000000
00000000
00200000
03300000
,
00000000
00010000
01000000
00000000
00100000
10000000
00000000
01000000
,
00100000
00010000
01000000
00000000
01001000
00000000
00011000
00000000
,
00000000
00010000
00000100
00000000
00001000
00000010
00000000
00000100
,
00000001
00000010
00000001
00000000
00001001
00000000
00000110
00000000
,
00000000
00001000
00000010
00000100
00000001
00001000
00000000
00000100
,
00010000
00001000
00100000
00010000
10000000
00000000
01000000
10000000
,
00100000
00000000
00010000
00000000
00001000
00000000
00000100
00000002
,
00000000
00000000
00001000
00000003
00002000
00000000
00000000
00000000
00003010
00000000
00000000
00000000
00000100
00000000
00000010
00000000
,
00002000
00000000
00003002
00000000
00002003
00000000
00003010
00000100
,
00000020
00000000
00000230
00000000
00000320
00000000
00001030
00001000
,
00000000
00000100
00000100
00000000
00010000
00001000
00011000
00000000
,
00100000
01000000
01100000
00000000
10010000
00000000
01100000
00000000
,
10010000
00000000
02000000
00000000
03200000
00000000
10300000
00020000
,
00000000
00000000
20030000
00000000
32000000
00000000
03100000
00010000
,
00100000
00000000
00001000
00010000
00001000
00000000
00000000
00020000
,
00000000
00030100
00000010
00000100
00001000
00000000
00001001
00000000
,
00001100
00001010
00000101
00000011
,
00001000
00000100
00000001
00000100
00002000
00000000
00003010
00000000
,
00001000
00010010
00010000
01001000
,
00010000
00100000
00010000
10000000
01000000
10000000
00100000
01000000
,
00000000
00010000
01000000
10000000
01000000
00010000
00000000
00100000
,
00001000
00010000
00000020
00000000
00002000
00000030
00000000
00003000
,
00000002
00000000
00000203
00000000
00002300
00000000
00013000
00200000
,
00000000
20300000
00000000
30100000
01000000
00000000
10010000
00000000
,
11000000
01010000
10100000
00110000
,
00010000
00100000
10000000
00100000
00020000
00000000
01030000
00000000
,
00010000
01001000
00001000
00010010
,
00001000
00000100
00001000
00000001
00000010
00000001
00000100
00000010
,
00000000
00001000
00000100
00000001
00000100
00001000
00000000
00000020
,
00000000
00001030
00000002
00000000
00000203
00000000
00000300
00000000
,
00002000
00000000
00023000
00000000
00230000
00000000
10300000
00020000
,
00000000
10030000
00100000
00010000
00100000
00000000
01100000
00000000
,
10000000
01000000
00100000
01000000
10000000
00100000
01000000
00100000
,
10000000
01000000
00010000
00001000
00000010
00000001
00000100
00000001
,
00001000
00000010
00000100
00000010
00001000
00000001
00000010
00000001
,
00001000
00000001
00000100
00000001
00001001
00000000
00000110
00000000
,
00000001
00000010
00000100
00000010
00000001
00000100
00000010
00000100
,
00000001
00000010
00001000
00010000
01000000
10000000
00100000
10000000
,
00010000
01000000
00100000
01000000
00010000
10000000
01000000
10000000
,
00010000
10000000
00100000
10000000
10010000
00000000
01100000
00000000
,
20020000
00000000
00000000
00000000
00000000
30030000
00000000
20000000
,
00000000
31000000
00010000
00001000
00010000
00000000
00011000
00000000
,
00000000
00000000
00000000
00000000
;
