
//----- song ID: lofi -----//
#TITLE:Lo-Fi-M;
#ARTIST:yaseta;
#BANNER:Lo-Fi-M.png;
#BACKGROUND:Lo-Fi-M-bg.png;
#CDTITLE:./CDTitles/MUSECA.png;
#MUSIC:Lo-Fi-M.ogg;
#SAMPLESTART:15.429;
#SAMPLELENGTH:15;
#BPMS:0=140;
#BGSTAGE:15;
#NOTES:
     dance-single:
     :
     Beginner:
     2:
     :
0000
0000
0000
0000
,
0000
0000
0000
0000
,
0000
0000
0000
0000
,
0000
0000
0000
0000
,
0000
0000
0000
0000
,
1000
0000
0000
0000
,
1000
0000
0000
0000
,
1000
0000
0000
0000
,
1000
0000
0000
0000
,
0001
0000
0000
0000
,
1000
0000
0000
0000
,
0001
0000
0000
0000
,
1000
0000
0000
0000
,
0001
0000
0000
0000
,
1000
0000
0000
0000
,
0001
0000
1000
0000
,
0001
0000
1001
0000
,
1000
0000
0000
0000
,
1000
0000
0000
0000
,
0001
0000
0000
0000
,
0001
0000
0000
0000
,
0010
0000
0000
0000
,
0010
0000
0000
0000
,
0100
0000
0000
0000
,
0100
0000
0000
0000
,
2000
0000
3000
0000
,
0001
0000
0000
0000
,
0002
0000
0003
0000
,
1000
0000
0000
0000
,
2000
0000
3000
0000
,
0001
0000
0000
0000
,
0002
0000
0003
0000
,
1000
0000
0000
0000
,
1000
0000
1000
0000
,
1000
0000
1000
0000
,
1000
0000
0000
0000
,
0001
0000
0001
0000
,
0001
0000
0000
0000
,
1000
0000
1000
0000
,
0001
0000
0001
0000
,
1000
0000
1000
0000
,
0001
0000
0000
0000
,
0010
0000
0000
0000
,
0010
0000
0000
0000
,
0100
0000
0000
0000
,
0100
0000
0000
0000
,
0010
0000
0010
0000
,
0010
0000
0000
0000
,
0100
0000
0100
0000
,
0100
0000
0000
0000
,
1000
0000
0000
0000
,
0001
0000
0000
0000
,
1000
0000
1000
0000
,
1000
0000
0000
0000
,
0001
0000
0000
0000
,
1000
0000
0000
0000
,
0001
0000
0001
0000
,
0001
0000
0000
0000
,
0010
0000
0000
0000
,
0010
0000
0000
0000
,
0100
0000
0000
0000
,
0100
0000
0000
0000
,
1000
0000
0000
0000
,
1000
0000
0000
0000
,
0001
0000
0000
0000
,
0001
0000
0000
0000
,
2002
3003
0000
0000
,
0000
0000
0000
0000
;
#NOTES:
     dance-single:
     :
     Easy:
     6:
     :
0000
0000
0000
0000
,
0000
0000
0000
0000
,
0000
0000
0000
0000
,
0000
0000
0000
0000
,
0000
0000
0000
0000
,
1000
1000
0001
0001
,
0010
0010
0100
1001
,
0001
0001
1000
1000
,
0010
0010
0100
0110
,
1000
0100
1000
0000
,
0001
0100
0001
0000
,
0010
0100
0010
0000
,
0001
1000
0001
1000
,
0010
0100
0010
0000
,
0100
0010
0100
0000
,
0001
0010
0100
1000
,
0010
0010
0100
1001
,
2000
3000
0020
0030
,
0200
0300
0001
1001
,
0002
0003
0020
0030
,
0200
0300
1000
1001
,
2000
3000
0020
0030
,
0100
0001
1000
1001
,
0100
0000
0100
0000
,
0010
0000
0010
1001
,
2000
0000
0000
3000
,
0002
0000
0000
0003
,
0020
0000
0000
0030
,
0200
0000
0000
0300
,
0000
1000
0000
1000
,
0000
0001
0000
0001
,
0000
0010
0000
0010
,
0001
0100
0010
1000
,
1000
1000
1000
0000
,
0001
0001
1000
1000
,
0010
0010
0100
0100
,
0001
1000
0001
1000
,
0010
0100
0010
0110
,
1001
0000
0110
0000
,
1001
0000
0110
0000
,
1000
1000
0001
0001
,
0010
0100
1000
1001
,
1000
0100
0010
0100
,
1000
0100
0010
0000
,
0001
0010
0100
0010
,
0001
0010
0100
0000
,
1000
0001
1000
0000
,
0001
1000
0010
0100
,
0001
0010
0100
1000
,
0001
0100
0010
1001
,
2000
3000
1000
1000
,
0001
0001
0010
1001
,
0002
0003
0001
0001
,
1000
1000
0010
1001
,
1000
0100
1000
0000
,
0001
0100
0001
0100
,
0001
0010
0100
1000
,
0001
1000
0001
0000
,
1000
1000
0001
0001
,
0010
0010
0100
1001
,
0001
0001
1000
1000
,
0010
0010
0100
1001
,
1000
0100
1000
0100
,
0010
0001
0100
1001
,
0001
0010
0100
1000
,
0001
1000
0010
2002
,
3003
0000
0000
0000
,
0000
0000
0000
0000
;
#NOTES:
     dance-single:
     :
     Medium:
     10:
     :
0000
0000
0000
0000
,
0000
0000
0000
0000
,
0000
0000
0000
0000
,
0000
0000
0000
0000
,
0000
0000
0000
0000
,
1000
0100
1000
0100
0010
0001
0010
0001
,
1000
0001
1000
0001
0010
0000
1001
0000
,
0001
0100
0001
0100
0010
1000
0010
1000
,
0010
0100
0010
0100
0010
0000
1001
0000
,
1000
0010
0100
0000
0001
0010
0100
0000
,
1000
0010
0100
0000
0010
0000
1001
0000
,
0001
0100
0010
0000
1000
0100
0010
0000
,
0001
0100
0010
0000
1000
0001
1000
0000
,
0001
0100
0001
0000
1000
0100
1000
0000
,
0001
0100
0001
0000
0010
0000
1001
0000
,
0001
0010
0100
1000
0001
1000
0001
0000
,
1000
0100
1000
0010
0100
0001
1000
0000
,
0000
1000
0000
1000
0000
0001
0000
0001
,
0000
1000
0000
1000
0001
1000
0001
0000
,
0000
0001
0000
0001
0000
1000
0000
1000
,
0000
0001
0000
0001
0010
0100
0010
0000
,
0000
0010
0000
0010
0000
0100
0000
0100
,
0010
0001
0010
0000
0001
0000
1001
0000
,
2000
3100
0200
0310
,
0020
0031
0100
0010
,
2000
0000
0000
0000
,
3200
0000
0000
0000
,
0320
0000
0000
0000
,
0032
0000
0000
0000
,
2003
0001
0000
0010
,
3020
1000
0000
0100
,
0230
0010
0000
0001
,
0302
0100
0000
1003
,
1000
1000
1000
0000
,
1001
0000
0000
1000
,
1100
0000
0000
0010
,
0011
0000
0000
0001
,
1001
0000
0000
0100
,
0110
0001
0011
1000
,
1100
0001
1001
0001
,
1000
0100
1000
0100
0010
0001
0010
0001
,
1000
0001
1010
0101
,
1001
0000
1000
0100
0010
0001
0000
0000
,
0001
0010
0100
1000
0100
0010
0100
0000
,
1000
1000
0001
0001
,
0100
0100
0010
1001
,
0001
0010
0001
2000
0000
0000
3200
0000
,
0302
0203
2300
3002
,
1003
0100
1000
0100
0010
0100
0010
0001
,
1000
1100
0101
1001
,
1000
0010
0100
0001
,
0010
0001
0010
0000
0100
1000
0100
0000
,
0010
0001
1000
0010
,
0200
0300
0020
0030
,
1000
0010
1000
0010
0000
0000
1010
0000
,
0010
0010
0100
0100
,
0001
0010
0100
1000
0100
0010
0100
1000
,
0001
0000
1000
0000
0010
0100
0110
0000
,
0001
0100
0001
0100
0010
1000
0010
1000
,
0001
1000
0001
1000
0010
0000
1001
0000
,
1000
0100
1000
0100
0010
0001
0010
0001
,
0010
0100
0010
0100
0010
0000
1001
0000
,
0000
1000
0000
1000
0000
0100
0000
0100
,
0000
0010
0000
0010
0001
1000
0001
0000
,
0001
0010
0100
1000
0100
0010
0100
0000
,
1000
0100
0010
0001
1000
0000
0001
0000
,
2000
3000
0000
0000
,
0000
0000
0000
0000
;
#NOTES:
     dance-single:
     :
     Hard:
     14:
     :
0000
0000
0000
0000
,
0000
0000
0000
0000
,
0000
0000
0000
0000
,
0000
0000
0000
0000
,
0000
0000
0000
0000
,
1000
0000
0100
0000
0010
0001
0010
0000
0100
0000
1000
0000
0010
0001
0010
0000
,
1000
0000
0100
0000
0001
0100
0001
0000
0100
0000
1000
0000
0001
0000
0000
0000
,
1000
0000
0001
0000
1000
0100
1000
0000
0001
0010
0001
0000
0010
0100
0010
0000
,
0100
1000
0100
0000
0010
0001
0010
0000
0002
0000
0000
0000
0203
0000
0310
0000
,
1000
0000
0001
0000
1000
0100
1000
0000
0010
0000
0001
0000
1000
0100
1000
0000
,
0100
0000
0001
0000
1000
0100
1000
0000
0002
0000
0203
0000
0320
0000
0030
0000
,
1000
0000
0001
0000
0010
0100
0010
0000
0001
0000
1000
0000
0010
0100
0010
0000
,
1000
0000
0001
0000
0010
0100
0010
0000
0002
0000
2003
0000
3020
0000
0030
0000
,
1000
0000
0001
0000
1000
0100
1000
0000
0010
0000
0001
0000
1000
0100
1000
0000
,
0100
0000
0001
0000
1000
0100
1000
0000
0002
0000
0023
0000
0230
0000
0300
0000
,
1000
0000
0100
1000
0000
0010
1000
0000
0001
1000
0000
0000
0001
0000
0010
0001
0000
0100
0001
0000
1000
0001
0000
0000
,
1000
0000
0001
0010
0000
0001
0100
0000
0010
0100
0000
0001
0020
0000
0000
0032
0000
0000
2003
0000
0000
3000
0000
0000
,
0000
0000
2000
0000
0000
0000
3010
0100
0000
0000
0002
0000
0000
0000
0013
0100
,
0000
0000
2000
0000
0000
0000
3001
0000
0010
0100
0010
0000
1001
0000
0000
0000
,
0000
0000
2000
0000
0000
0000
3010
0100
0000
0000
0002
0000
0000
0000
0013
0100
,
0000
0000
2000
0000
0000
0000
3001
0000
0100
0010
0100
0000
1001
0000
0000
0000
,
0002
0010
0000
0010
0000
0010
0000
0013
,
0001
0000
1000
0000
0001
0000
0100
0000
0001
0010
0001
0000
1000
0000
0000
0000
,
1000
0000
0100
0000
0010
0000
0001
0100
0010
0000
1000
0000
0001
0000
1000
0010
,
0100
0000
0001
0100
0010
0000
1000
0010
0100
0000
0010
0000
0110
0000
0000
0000
,
2000
0000
0000
0000
,
3002
0000
0000
0000
,
1003
0100
0010
0000
0001
0000
0001
0010
0100
0000
1000
0000
1000
0100
1000
0100
,
0010
0000
0001
0010
0100
1000
0100
0010
0001
0100
0001
0010
0001
0000
1000
0000
,
1001
0000
0000
0000
0000
0000
1000
0100
1000
0000
0010
0000
0001
0010
0001
0000
,
0010
0000
1000
0100
1000
0000
0100
0000
0010
0000
0001
0000
1000
0000
0000
0000
,
1000
0100
1000
0000
0010
0000
0001
0010
0001
0000
0010
0000
1000
0000
0100
0010
,
0100
0000
1000
0100
1000
0100
1000
0000
0010
1000
0001
1000
0100
0000
0000
0000
,
0100
0100
0100
0000
,
1001
0000
0100
0100
,
1001
0000
0010
0010
,
1001
0000
1000
1000
,
1001
0000
0000
0000
0001
0000
1000
0001
,
1001
0000
0001
1000
1001
0000
0011
0010
,
1100
0000
1010
0010
0101
0000
0000
0000
,
0100
0100
0001
0100
0100
1000
0100
0100
,
0010
0100
0100
0001
2000
3000
0002
0003
,
0100
0000
0000
0000
1001
0000
0100
0010
0100
0000
1001
0000
0000
0000
0000
0000
,
0001
0000
0100
1000
0100
0000
0001
0000
1000
0000
0100
0000
0010
0000
0000
0000
,
0001
0000
0000
0010
0100
1000
0100
0010
,
0001
0000
0010
0100
0010
0100
0010
0000
0001
0000
1000
0000
0100
0000
0000
0000
,
1000
0010
1000
0001
0100
0001
0100
0000
0000
0000
0000
0000
0100
0000
0000
0000
,
0010
0000
0100
0000
0010
0000
0100
0000
0010
0000
1000
0010
1000
0000
0000
0000
,
1000
0000
0100
0010
0000
0001
0010
0000
0100
0010
0000
0001
1000
0000
0001
0010
0000
0100
1000
0000
0100
1000
0000
0000
,
1000
0000
0010
1000
0000
0000
0001
0000
0100
0001
0000
0000
1000
0000
0010
1000
0000
0100
0000
0000
0000
0000
0000
0000
,
1001
1000
1000
1000
,
1000
0000
0100
1000
0100
0000
0010
0000
0001
0000
0100
0000
0010
0000
0000
0000
,
0100
0000
0100
0001
0000
1000
0100
0010
,
0002
1000
1000
1003
,
1000
0010
0100
0000
1000
0100
0020
0000
0000
0000
0000
0000
0001
0000
0000
0000
,
1000
0130
0001
0001
,
0001
0000
0010
0100
0000
1000
0001
0000
0010
0100
0000
1000
0000
0000
1000
0100
0000
0010
0001
0000
0010
0001
0000
1000
,
0001
0000
0100
0001
0000
0010
0001
0000
0100
0001
0000
1000
0010
0000
0000
1000
0000
0000
0001
0000
0000
0000
0000
0000
,
0001
0000
1000
0000
0001
0100
0001
0000
0010
0000
1000
0000
0001
0100
0001
0000
,
0100
0000
1000
0000
0001
0100
0001
0000
2000
0000
3200
0000
0320
0000
0030
0000
,
0001
0000
1000
0000
0010
0100
0010
0000
1000
0000
0001
0000
0010
0100
0010
0000
,
0001
0000
1000
0000
0010
0100
0010
0000
2000
0000
3002
0000
0023
0000
0030
0000
,
0001
0000
1000
0000
0001
0100
0001
0000
0010
0000
1000
0000
0001
0100
0001
0000
,
0100
0000
1000
0000
0001
0100
0001
0000
2000
0000
3020
0000
0230
0000
0300
0000
,
0001
0000
0010
0001
0000
0100
0001
0000
1000
0001
0000
0000
1000
0000
0100
1000
0000
0010
1000
0000
0001
1000
0000
0000
,
0001
0000
1000
0100
0000
1000
0010
0000
0100
0010
0000
1000
0200
0000
0000
2300
0000
0000
3002
0000
0000
0003
0000
0000
,
0000
0000
0000
0000
;
#NOTES:
     dance-double:
     :
     Easy:
     7:
     :
00000000
00000000
00000000
00000000
,
00000000
00000000
00000000
00000000
,
00000000
00000000
00000000
00000000
,
00000000
00000000
00000000
00000000
,
00000000
00000000
00000000
00000000
,
10000000
10000000
00010000
00010000
,
00100000
00001000
00010000
00011000
,
00010000
00010000
00000010
00000010
,
00001000
00000001
00000100
00000101
,
00000001
00000100
00000010
00000000
,
00001000
00000100
00010000
00000000
,
00001000
00100000
00010000
00000000
,
10000000
00010000
10000000
00010000
,
00100000
00001000
00010000
00000000
,
00000010
00010000
00001000
00000000
,
00010000
00100000
00010000
00001000
,
00000010
00001000
00010000
00011000
,
00002000
00003000
00200000
00300000
,
02000000
03000000
00010000
00011000
,
00020000
00030000
00000020
00000030
,
00000200
00000300
00001000
00011000
,
00020000
00030000
00200000
00300000
,
10000000
01000000
10000000
11000000
,
01000000
00000000
00100000
00000000
,
00010000
00000000
00001000
00001100
,
00000200
00000000
00000000
00000300
,
00000020
00000000
00000000
00000030
,
00000002
00000000
00000000
00000003
,
00002000
00000000
00000000
00003000
,
00000000
00000010
00000000
00000010
,
00000000
00001000
00000000
00001000
,
00000000
00010000
00000000
00010000
,
01000000
00010000
10000000
01000000
,
01000000
01000000
01000000
00000000
,
00100000
00000000
00001000
00010000
,
00000100
00000000
00010000
00001000
,
01000000
00000000
00001000
00010000
,
00000010
00000000
00010000
00000100
,
00010100
00000000
00000110
00000000
,
00001001
00000000
00001100
00000000
,
00000100
00000100
00010000
00010000
,
00001000
00100000
00010000
10010000
,
10000000
01000000
00100000
00010000
,
00001000
00000100
00000010
00000000
,
00000001
00000100
00000010
00001000
,
00010000
01000000
00100000
00000000
,
10000000
01000000
00010000
00000000
,
00001000
00010000
00000100
00010000
,
00001000
00010000
00100000
01000000
,
00100000
00010000
00001000
00011000
,
00020000
00030000
00000100
00000100
,
00000010
00000100
00010000
00011000
,
00002000
00003000
01000000
01000000
,
00100000
01000000
00001000
00011000
,
00010000
00000100
00000010
00000000
,
00000001
00000010
00000001
00000100
,
00001000
00010000
00100000
10000000
,
01000000
00010000
01000000
00000000
,
10000000
10000000
00010000
00010000
,
00100000
00100000
01000000
01100000
,
00100000
00100000
00010000
00010000
,
00001000
00001000
00000100
00001100
,
00000001
00000100
00001000
00010000
,
00001000
00010000
00100000
10010000
,
10000000
01000000
00100000
00010000
,
00001000
00000100
00000010
00002002
,
00003003
00000000
00000000
00000000
,
00000000
00000000
00000000
00000000
;
#NOTES:
     dance-double:
     :
     Medium:
     10:
     :
00000000
00000000
00000000
00000000
,
00000000
00000000
00000000
00000000
,
00000000
00000000
00000000
00000000
,
00000000
00000000
00000000
00000000
,
00000000
00000000
00000000
00000000
,
10000000
01000000
10000000
01000000
00100000
00010000
00100000
00010000
,
00001000
00000100
00001000
00000100
00000010
00000000
00001001
00000000
,
00000001
00000100
00000001
00000100
00000010
00001000
00000010
00001000
,
00010000
01000000
00010000
01000000
00100000
00000000
10010000
00000000
,
10000000
00100000
01000000
00000000
01000000
00010000
00100000
00000000
,
00100000
00001000
00010000
00000000
00000100
00000000
00011000
00000000
,
00001000
01000000
00001000
00000000
00010000
00000100
00010000
00000000
,
00001000
00010000
00000010
00000000
00001000
00000001
00001000
00000000
,
00000001
00000010
00000100
00000000
00000100
00001000
00000010
00000000
,
00000010
00010000
00001000
00000000
01000000
00000000
00011000
00000000
,
00001000
00010000
00100000
01000000
00010000
00100000
00001000
00000000
,
00010000
00001000
00000100
00000010
00001000
00000001
00001000
00000000
,
00000000
00000010
00000000
00000010
00000000
00000100
00000000
00000100
,
00000000
00001000
00000000
00010000
00001000
00100000
00010000
00000000
,
00000000
00100000
00000000
00100000
00000000
01000000
00000000
01000000
,
00000000
00010000
00000000
00001000
00010000
00000010
00001000
00000000
,
00000000
00000001
00000000
00000001
00000000
00001000
00000000
00001000
,
00000010
00000100
00000010
00000000
00001000
00000000
00001001
00000000
,
00002000
00003000
00000200
00000300
,
00020000
00030000
00001000
00010000
,
00200000
00000000
00000000
00000000
,
20300000
00000000
00000000
00000000
,
32000000
00000000
00000000
00000000
,
03020000
00000000
00000000
00000000
,
00032000
00010000
00000000
00000100
,
00003200
00000010
00000000
00000001
,
00000302
00000100
00000000
00001003
,
00002000
00000100
00000000
00003010
,
00000010
00000010
00000010
00000000
,
00001001
00000000
00000000
00001000
,
00001100
00000000
00000000
00010000
,
00011000
00000000
00000000
00100000
,
00110000
00000000
00000000
10000000
,
11000000
00000000
01010000
00000000
,
00011000
00000000
00001100
00000000
,
00000001
00000100
00000001
00000100
00000010
00001000
00000010
00001000
,
00000100
00010000
00101000
01010000
,
10010000
00000000
10000000
01000000
00100000
00010000
00000000
00000000
,
00001000
00000100
00000010
00000001
00000010
00000100
00000010
00000000
,
00000001
00000010
00000001
00000000
00000001
00000100
00001000
00000000
,
00010000
00100000
10000000
00000000
10000000
00000000
10010000
00000000
,
00010000
00100000
00010000
02000000
00000000
00000000
03002000
00000000
,
00023000
00030020
00002030
00003002
,
00000103
00000010
00001000
00000010
00001000
00010000
01000000
00010000
,
01000000
01100000
10100000
10010000
,
10000000
01000000
00010000
00001000
,
00010000
00000100
00001000
00000000
00000010
00001000
00000001
00000000
,
00000001
00000100
00001000
00010000
,
00002000
00003000
00020000
00030000
,
00001000
00100000
00001000
00100000
00000000
00000000
00110000
00000000
,
00100000
01100000
01000000
11000000
,
01000000
00100000
00010000
00100000
01000000
00010000
00001000
00010000
,
00001000
00000000
00000010
00000000
00000001
00001000
00001001
00000000
,
00000001
00000100
00000001
00000100
00000010
00001000
00000010
00001000
,
00010000
01000000
00010000
01000000
00100000
00000000
10010000
00000000
,
10000000
01000000
10000000
01000000
00100000
00010000
00100000
00010000
,
00001000
00000100
00001000
00000100
00000010
00000000
00001001
00000000
,
00000000
00000001
00000000
00000001
00000000
00001000
00000000
00001000
,
00000000
00000100
00000000
00000100
00010000
00001000
00010000
00000000
,
00001000
00010000
00100000
01000000
00010000
00100000
00001000
00000000
,
00010000
00001000
00000100
00000010
00001000
00000001
00001000
00000000
,
00000002
00000003
00000000
00000000
,
00000000
00000000
00000000
00000000
;
#NOTES:
     dance-double:
     :
     Hard:
     14:
     :
00000000
00000000
00000000
00000000
,
00000000
00000000
00000000
00000000
,
00000000
00000000
00000000
00000000
,
00000000
00000000
00000000
00000000
,
00000000
00000000
00000000
00000000
,
00001000
00000000
00010000
00000000
00000010
00001000
00000010
00000000
00010000
00000000
00001000
00000000
00100000
00010000
00100000
00000000
,
00001000
00000000
00010000
00000000
00000010
00001000
00000010
00000000
00010000
00000000
00000100
00000000
00001000
00000000
00000000
00000000
,
00000001
00000000
00000100
00000000
00000010
00000100
00000010
00000000
00001000
00000100
00010000
00000000
00001000
00100000
00010000
00000000
,
01000000
00100000
01000000
00000000
00100000
10000000
00100000
00000000
20000000
00000000
00000000
00000000
00020000
00000000
30030000
00000000
,
00100000
00000000
00001000
00000000
00010000
00001000
00010000
00000000
00000010
00000000
00010000
00000000
00001000
00010000
00001000
00000000
,
01000000
00000000
00010000
00000000
00100000
00010000
00100000
00000000
00002000
00000000
00023000
00000000
00030200
00000000
00000300
00000000
,
00010000
00000000
00001000
00000000
00100000
00010000
01000000
00000000
00001000
00000000
00010000
00000000
00000010
00001000
00000100
00000000
,
00010000
00000000
00001000
00000000
00100000
00010000
01000000
00000000
00020000
00000000
00230000
00000000
00302000
00000000
00003000
00000000
,
00010000
00000000
00001000
00000000
00100000
01000000
00010000
00000000
00001000
00000000
00010000
00000000
00000010
00000100
00001000
00000000
,
00010000
00000000
00001000
00000000
00100000
01000000
00010000
00000000
00002000
00000000
00023000
00000000
00032000
00000000
00003000
00000000
,
00010000
00000000
00001000
00010000
00000000
00000100
00010000
00000000
00000010
00010000
00000000
00000000
00001000
00000000
00010000
00001000
00000000
00100000
00001000
00000000
01000000
00001000
00000000
00000000
,
00010000
00000000
00001000
00010000
00000000
00001000
00100000
00000000
00010000
00100000
00000000
00000000
00020000
00000000
00000000
00230000
00000000
00000000
00302000
00000000
00000000
00003000
00000000
00000000
,
00000000
00000000
00020000
00000000
00000000
00000000
00031000
00000100
00000000
00000000
00002000
00000000
00000000
00000000
00013000
01000000
,
00000000
00020000
00000000
00031000
00000100
00000010
00001010
00000000
,
00000000
00000000
00000020
00000000
00000000
00000000
00010030
00001000
00000000
00000000
00200000
00000000
00000000
00000000
00301000
00010000
,
00000000
00000200
00000000
00010300
00001000
00010000
00011000
00000000
,
00020000
00001000
00000000
00001000
00000000
00000100
00000000
00030100
,
00001000
00000000
00000100
00000000
00000010
00000000
00000100
00000000
00010000
00001000
00010000
00000000
00001000
00000000
00000000
00000000
,
00001000
00010000
00100000
10000000
01000000
00010000
00001000
00000010
,
00000001
00000000
00000010
00000000
00000100
00000000
00001000
00000100
00001000
00000000
00000001
00000000
00001001
00000000
00000000
00000000
,
00000002
00000000
00000000
00000000
,
00002003
00000000
00000000
00000000
,
00003001
00000100
00000010
00000000
00001000
00000000
00000001
00000010
00000100
00000000
00001000
00000000
00000100
00000000
00010000
00000000
,
00001000
00000000
00010000
00000000
00100000
01000000
00010000
00000000
10000000
01000000
00100000
00010000
10000000
00000000
00010000
00000000
,
10010000
00000000
00000000
00000000
00000000
00000000
10000000
01000000
00100000
00000000
00010000
00000000
10000000
00100000
01000000
00000000
,
00010000
01000000
00001000
00010000
00001000
00000010
00000001
00000000
,
00000001
00000010
00000001
00000000
00000100
00000000
00000010
00001000
00000010
00000000
00000100
00000000
00001000
00000000
00010000
00001000
,
00010000
00000000
00001000
00000000
00010000
00000000
00100000
00000000
10000000
00100000
01000000
00100000
10000000
00000000
00000000
00000000
,
10000000
01000000
01000000
00000000
,
11000000
00000000
01000000
00100000
,
00110000
00000000
00100000
00001000
,
00011000
00000000
00010000
00000100
,
00000110
00000000
00000000
00000000
00000001
00000000
00001000
00000001
,
00001001
00000000
00001000
00000100
00001100
00000000
00000100
00010000
,
00011000
00000000
00001000
00100000
00110000
00000000
00200000
00300000
,
01000000
01000000
00010000
01000000
01000000
10000000
01000000
01000000
,
00100000
01000000
01000000
00010000
00002000
00003000
00020000
00030000
,
00011000
00000000
00000000
00000000
00001000
00000000
00000100
00000010
00000100
00000000
00000001
00000000
00000000
00000000
00000000
00000000
,
00000001
00000000
00000100
00000010
00000100
00000000
00001000
00000000
00010000
00000000
00100000
00000000
01000000
00000000
00000000
00000000
,
00010000
00000000
00000000
10000000
01000000
00010000
01000000
00100000
,
00001000
00000000
00010000
00001000
00010000
00000000
00000100
00000000
00000010
00000000
00000001
00000000
00001000
00000000
00000000
00000000
,
00000001
00000100
00000001
00001000
00000010
00001000
00000010
00000000
00000000
00000000
00000000
00000000
00000010
00000000
00000000
00000000
,
00001000
00010000
01000000
00100000
00010000
00001000
00010000
00000000
,
00001000
00000000
00010000
00001000
00000000
01000000
00001000
00000000
00100000
00001000
00000000
00000000
00010000
00000000
00001000
00010000
00000000
00000100
00010000
00000000
00000010
00010000
00000000
00000000
,
00001000
00000000
00010000
00001000
00000000
00000000
00100000
00000000
00001000
00100000
00000000
00000000
00010000
00000000
01000000
00010000
00000000
01000000
00000000
00000000
00000000
00000000
00000000
00000000
,
10010000
10000000
00010000
00010000
,
10000000
00000000
01000000
10000000
01000000
00000000
00100000
00000000
00001000
00000000
00010000
00000000
00001000
00000000
00000000
00000000
,
00010000
00000000
00010000
00000010
00000000
00001000
00000100
00000010
,
00000002
00001000
00000100
00000013
,
00000010
00000100
00001000
00000000
00000100
00010000
00002000
00000000
00000000
00000000
00000000
00000000
00013000
00000000
00000000
00000000
,
00100000
10000000
01000000
00010000
,
00001000
00000000
00010000
00001000
00000000
01000000
00001000
00000000
00100000
00001000
00000000
00010000
00000000
00000000
00001000
00010000
00000000
00000100
00010000
00000000
00000010
00010000
00000000
00001000
,
00010000
00000000
00000100
00010000
00000000
00000100
00001000
00000000
00000010
00001000
00000000
00000010
00000200
00000000
00000000
00000302
00000000
00000000
00002003
00000000
00000000
00003000
00000000
00000000
,
00000010
00000000
00010000
00000000
00001000
00010000
00001000
00000000
00100000
00000000
00001000
00000000
00010000
00001000
00010000
00000000
,
00000100
00000000
00001000
00000000
00000010
00001000
00000010
00000000
00020000
00000000
00032000
00000000
02003000
00000000
03000000
00000000
,
00001000
00000000
00010000
00000000
00000010
00001000
00000100
00000000
00010000
00000000
00001000
00000000
00100000
00010000
01000000
00000000
,
00001000
00000000
00010000
00000000
00000010
00001000
00000100
00000000
00002000
00000000
00003020
00000000
00020030
00000000
00030000
00000000
,
00001000
00000000
00010000
00000000
00000010
00000100
00001000
00000000
00010000
00000000
00001000
00000000
00100000
01000000
00010000
00000000
,
00001000
00000000
00010000
00000000
00000010
00000100
00001000
00000000
00020000
00000000
00032000
00000000
00023000
00000000
00030000
00000000
,
00001000
00000000
00010000
00001000
00000000
01000000
00001000
00000000
00100000
00001000
00000000
00000000
00010000
00000000
00001000
00010000
00000000
00000100
00010000
00000000
00000010
00010000
00000000
00000000
,
00001000
00000000
00010000
00001000
00000000
00010000
00000010
00000000
00001000
00000010
00000000
00000000
00002000
00000000
00000000
00003020
00000000
00000000
00020030
00000000
00000000
00030000
00000000
00000000
,
00000000
00000000
00000000
00000000
;
