
//----- song ID: lemo -----//
#TITLE:Lemon;
#BANNER:Lemon.png;
#BACKGROUND:Lemon-bg.png;
#CDTITLE:./CDTitles/DDR GRAND PRIX.png;
#MUSIC:Lemon.ogg;
#SAMPLESTART:60.001;
#SAMPLELENGTH:15;
#BPMS:0=87;
#NOTES:
     dance-single:
     :
     Beginner:
     2:
     :
0000
0000
0000
0000
,
0000
0000
0000
0000
,
0000
0000
0000
0000
,
1000
0000
0000
0000
,
0001
0000
0000
0000
,
1000
0000
1000
0000
,
0001
0000
0001
0000
,
1000
0000
1000
0000
,
0010
0000
0020
0000
,
0030
0000
0000
0000
,
1000
0000
0001
0000
,
0010
0000
0000
0000
,
0001
0000
1000
0000
,
0100
0000
0000
0000
,
1000
0000
0001
0000
,
0100
0000
0000
0000
,
0001
0000
1000
0000
,
0020
0000
0030
0000
,
1000
0000
1000
1000
,
0000
0000
0001
0001
,
0000
0000
0010
0010
,
0010
0000
0001
0000
,
0001
0001
0001
0000
,
1000
1000
1000
0000
,
0001
0000
0010
0000
,
0100
0000
1000
0000
,
0010
0010
0010
0000
,
0100
0100
0100
0000
,
0001
0000
0010
0000
,
0001
0001
0001
0000
,
1000
0000
0010
0000
,
1000
1000
2000
0000
,
0000
0000
3000
0000
,
0000
0000
0000
0000
;
#NOTES:
     dance-single:
     :
     Easy:
     3:
     :
0000
0000
0000
0000
,
0000
0000
0000
0000
,
0000
0000
0000
0000
,
0001
0000
1000
0000
,
0010
0000
0100
0000
,
0001
0010
0001
0000
,
1000
0010
1000
0000
,
0001
0001
1000
1000
,
0020
0030
2000
3000
,
0000
0000
0000
0000
,
0001
0000
1000
1000
,
1000
0000
0010
0000
,
1000
0000
0001
0001
,
0001
0000
0010
0000
,
0001
0001
0010
0000
,
0100
0100
1000
0000
,
0100
0000
1000
0010
,
1000
0000
0001
0000
,
2000
3000
1000
0000
,
0002
0003
0001
0000
,
0200
0300
0100
0000
,
0010
0010
1000
0000
,
0001
0010
0100
0000
,
1000
0100
0010
0000
,
0001
0001
1000
1000
,
0020
0030
0200
0300
,
0001
0010
0100
1000
,
0010
1000
0001
0000
,
0100
0100
0010
0010
,
1000
0001
2000
3000
,
0100
0100
0010
0010
,
0001
1000
2002
0000
,
0000
0000
0000
0000
,
0000
0000
3003
0000
,
0000
0000
0000
0000
;
#NOTES:
     dance-single:
     :
     Medium:
     9:
     :
0000
0000
0000
0000
,
0000
0000
0000
0000
,
0000
0000
0000
0000
,
2000
0010
3002
0100
,
0023
0000
1000
0000
0230
0310
0000
0010
,
0001
1000
0010
1000
0001
0100
0010
0100
,
0001
1000
0100
0010
0002
0000
0103
0001
,
1000
0001
0010
0100
1000
0010
0100
0001
,
0010
0000
0000
0000
0000
0010
0100
0000
0000
0000
0000
0100
2000
0000
0000
0000
0000
0000
3000
0000
0000
0000
0000
0000
,
0000
0000
0000
0000
0000
0000
0000
0001
,
1000
0000
0000
0001
0000
0001
0000
0000
0000
0010
0000
0000
0100
0000
0000
1000
0000
1000
0000
0000
0000
0010
0000
0000
,
1000
0000
0000
0100
0000
0100
0000
0000
0000
0010
0000
0000
0002
0000
0000
0000
0000
0000
0003
0000
0000
0100
0000
0000
,
0001
0000
0000
0000
0000
0000
0010
0000
0000
0001
0000
0010
0001
0000
0000
0000
0000
0000
1000
0000
0000
0100
0000
1000
,
0100
0000
0000
0000
0000
0000
0010
0000
0000
0100
0000
0010
0200
0000
0000
0000
0000
0000
0300
0000
0000
1000
0000
0000
,
0001
0000
0000
1000
0000
1000
0000
0000
0000
0010
0000
0000
0100
0000
0000
0001
0000
0001
0000
0000
0000
0010
0000
0000
,
0001
0000
0000
0100
0000
0100
0000
0000
0000
0010
0000
0000
2000
0000
0000
0000
0000
0000
3000
0000
0000
0001
0000
0000
,
0100
0000
0000
0000
0000
0000
0010
0000
0000
1000
0000
0010
1000
0000
0000
0100
0000
0000
0010
0000
0000
0001
0000
0000
,
0010
0000
0010
0000
0000
0000
0002
0000
0000
0003
0000
0001
2000
0000
0000
0000
0000
0000
3000
0000
0000
0000
0000
0000
,
0200
0000
0300
0010
0001
0000
0100
0000
1000
0000
0100
0000
0001
0000
0000
0000
,
2000
0000
3000
0100
0010
0000
0100
0000
1000
0000
0001
0000
0001
0000
0000
0000
,
0200
0000
0300
0010
1000
0000
0100
0000
0001
0000
0100
0000
1000
0000
0001
0000
,
0010
0000
0000
0000
0000
0000
1000
0000
0000
0010
0000
0000
0001
0000
0000
0000
0000
0000
1000
0000
0001
1000
0000
0001
,
0200
0000
0010
0000
0000
0000
0302
0000
0010
0000
0000
0000
2003
0000
0010
0000
0000
0000
3001
0000
1000
0001
0000
1000
,
0200
0000
0010
0000
0000
0000
2300
0000
0010
0000
0000
0000
3002
0000
0010
0000
0000
0000
1003
0000
0001
1000
0000
0001
,
0100
0000
0010
0000
0000
0000
1000
0000
0100
0000
0000
0100
0010
0000
0100
0000
0000
0000
1000
0000
0010
0000
0000
0000
,
0001
0000
0010
0000
0000
0000
0100
0000
0002
0000
0000
0000
2003
0000
0000
3000
0000
0000
0100
0000
1000
0100
0000
1000
,
0020
0000
0100
0000
0000
0000
2030
0000
0100
0000
0000
0000
3002
0000
0100
0000
0000
0000
1003
0000
0001
0010
0000
0001
,
0100
0000
0010
0000
0000
0000
1000
0000
0200
0000
0000
0000
0020
0000
0000
0000
0000
0000
0330
0000
0000
0001
0000
0000
,
1000
0000
0000
0010
0000
0000
0100
0000
0000
0001
0000
0000
0010
0000
0000
0100
0000
0000
1000
0000
0100
0000
0000
0000
,
0010
0000
0001
0000
0000
0000
0100
0000
0020
0000
0000
0000
0200
0000
0000
0000
0000
0000
0330
0000
0000
1000
0000
0000
,
0001
0000
0000
0010
0000
0000
0100
0000
0000
1000
0000
0000
0010
0000
0000
0100
0000
0000
0001
0000
0010
0000
0000
0000
,
1000
0010
0000
0001
1000
0000
2002
0000
0000
0000
0000
0000
,
0000
0000
3000
0000
,
0000
0000
0000
0000
,
0000
0000
0003
0000
,
0000
0000
0000
0000
;
#NOTES:
     dance-single:
     :
     Hard:
     12:
     :
0000
0000
0000
0000
,
0000
0000
0000
0000
,
0000
0000
0000
0000
0000
0000
0000
0000
0000
0000
0000
0000
0000
0000
0000
0000
0000
0000
0000
0000
0000
1000
0000
0100
,
0010
0000
0000
0000
0000
0000
0001
0000
0000
0010
0000
0001
0100
0000
0000
0000
0000
0000
0010
0000
0000
0100
0000
1000
,
0100
0000
0000
0000
0000
0001
0010
0000
0000
0100
0000
1000
0100
0000
0000
0001
0000
0000
0000
0000
0000
0100
0000
1000
,
0001
1000
0010
0001
1000
0100
0010
1000
,
1001
0001
0010
1000
0001
0100
1000
0001
,
0200
0000
0000
0000
0000
0000
0310
0000
0000
0100
0000
0010
2000
0000
0000
3200
0000
0000
0320
0000
0000
0032
0000
0000
,
0203
0000
0000
0300
0000
1000
0200
0000
0000
0300
0000
0001
2000
0000
0000
0000
0000
0000
0000
0000
0000
3000
0000
0000
,
0000
0000
0000
0000
0000
0000
0000
0000
0000
0000
0000
0000
0000
0000
0000
0000
0000
0000
0000
0000
0000
0100
0000
1000
,
0001
0000
0000
0100
0000
0001
0010
0000
0000
0001
0000
0000
1000
0000
0000
0100
0000
1000
0010
0000
0000
0100
0000
0000
,
1001
0000
0000
1000
0000
0001
0010
0000
0000
0001
0000
0000
0100
0000
0000
1000
0000
0100
0010
0000
0000
1000
0000
0001
,
0010
0000
0000
0001
0000
0000
0100
0000
0000
0010
0000
1000
0001
0000
0000
1000
0000
0000
0100
0000
0000
1000
0000
0010
,
1000
0000
0000
0001
0000
0000
0100
0000
0000
0001
0000
1000
0010
0000
0000
0001
0000
0010
0100
0000
0000
0001
0000
1000
,
0200
0000
0000
1300
0000
0001
0010
0000
0000
0001
0000
0000
2000
0000
0000
3001
0000
0100
0010
0000
0000
0100
0000
0000
,
1002
0000
0000
1003
0000
0100
0010
0000
0000
0001
0000
0000
0200
0000
0000
1000
0000
0000
0310
0000
0000
1000
0000
0100
,
0020
0000
0000
0100
0000
0000
0031
0000
0000
0100
0000
0001
2000
0000
0000
3020
0000
0000
0230
0000
0000
0302
0000
0000
,
0013
0000
0010
0000
0000
0000
0120
0000
0000
0030
0000
0001
0200
0000
0000
1000
0000
0000
0310
0000
0000
0000
0000
0000
,
1002
0000
0000
0103
0010
0000
0100
1000
0100
0000
0010
0000
0020
0000
0030
0000
,
2100
0000
0000
3001
0010
0000
1000
0010
0001
0000
1000
0000
0200
0000
0300
0000
,
2010
0000
0000
3001
0100
0000
0010
1000
0002
0000
0023
0000
0230
0000
2300
0000
,
3020
0000
0000
0030
0000
0000
0001
0000
0000
0010
0000
0000
1000
0000
0000
0000
0000
0000
0001
0000
0010
0001
0000
1000
,
0100
0000
0210
0000
0000
0000
1300
0000
2010
0000
0000
0000
3001
0000
0102
0000
0000
0000
1003
0000
0010
1000
0000
0001
,
0100
0000
0210
0000
0000
0000
0301
0000
0012
0000
0000
0000
1003
0000
2100
0000
0000
0000
3010
0000
0100
0010
0000
1000
,
0001
0000
1002
0000
0000
0000
0103
0000
0210
0000
0000
0301
1000
0000
2010
0000
0000
0000
3001
0000
0102
0000
0000
0000
,
0203
0000
2300
0000
0000
0000
3200
0000
0302
0000
0000
0000
2000
0000
0000
3003
0000
0000
0001
0000
0100
0001
0000
1000
,
0010
0000
0120
0000
0000
0000
1030
0000
2100
0000
0000
0000
3001
0000
0102
0000
0000
0000
1003
0000
0001
0010
0000
1000
,
0010
0000
0120
0000
0000
0000
0031
0000
1002
0000
0000
0000
0200
0000
0000
0000
0000
0000
0303
0000
0000
0100
0000
0010
,
2000
0000
0000
3200
0000
0000
0320
0000
0000
0032
0000
0000
0203
0000
0000
2300
0000
0000
3100
0000
0110
0000
0000
0000
,
0001
0000
0011
0000
0000
0000
1000
0000
1010
0000
0000
0000
0220
0000
0000
0000
0000
0000
0330
0000
0000
0001
0000
0010
,
0002
0000
0000
0203
0000
0000
0320
0000
0000
2030
0000
0000
3200
0000
0000
0302
0000
0000
0103
0000
0210
0000
0000
0000
,
1300
2010
0000
3001
0012
0000
2003
0000
0000
0000
0000
0000
,
0100
0000
0000
3100
0000
0000
0100
0010
0000
0100
0010
0000
,
0100
0010
0000
0100
0020
0000
0000
0000
0000
0000
0000
0000
,
0000
0000
0030
0000
,
0000
0000
0000
0000
;
#NOTES:
     dance-double:
     :
     Easy:
     3:
     :
00000000
00000000
00000000
00000000
,
00000000
00000000
00000000
00000000
,
00000000
00000000
00000000
00000000
,
00001000
00000000
00010000
00000000
,
00100000
00000000
10000000
00000000
,
01000000
00100000
01000000
00000000
,
00010000
00001000
00010000
00000000
,
00000100
00000100
00000010
00000010
,
00000002
00000003
00002000
00003000
,
00000000
00000000
00000000
00000000
,
00000010
00000000
00010000
00010000
,
00010000
00000000
00001000
00000000
,
01000000
00000000
00001000
00001000
,
00001000
00000000
00010000
00000000
,
00100000
00100000
10000000
00000000
,
01000000
01000000
00100000
00000000
,
00001000
00000000
00010000
00000010
,
00000100
00000000
00000001
00000000
,
00002000
00003000
00001000
00000000
,
00020000
00030000
00010000
00000000
,
20000000
30000000
10000000
00000000
,
01000000
01000000
00010000
00000000
,
00001000
00100000
01000000
00000000
,
00010000
00000010
00000100
00000000
,
00000001
00000001
00000010
00000010
,
00002000
00003000
00020000
00030000
,
00001000
00100000
01000000
10000000
,
00100000
10000000
00010000
00000000
,
01000000
01000000
00001000
00001000
,
00010000
00000010
00020000
00030000
,
00000100
00000100
00000010
00000010
,
00000001
00001000
00002002
00000000
,
00000000
00000000
00000000
00000000
,
00000000
00000000
00003003
00000000
,
00000000
00000000
00000000
00000000
;
#NOTES:
     dance-double:
     :
     Medium:
     9:
     :
00000000
00000000
00000000
00000000
,
00000000
00000000
00000000
00000000
,
00000000
00000000
00000000
00000000
,
00020000
00000010
00032000
01000000
,
00203000
00000000
10000000
00000000
02300000
03100000
00000000
00001000
,
00010000
00000100
00000010
00000001
00000100
00000001
00000010
00000100
,
00010000
00001000
00100000
01000000
20000000
00000000
30100000
01000000
,
00010000
10000000
00100000
10000000
01000000
00010000
00001000
00000100
,
00000001
00000000
00000000
00000000
00000000
00000010
00000100
00000000
00000000
00000000
00000000
00010000
00002000
00000000
00000000
00000000
00000000
00000000
00003000
00000000
00000000
00000000
00000000
00000000
,
00000000
00000000
00000000
00000000
00000000
00000000
00000000
00010000
,
00000010
00000000
00000000
00010000
00000000
00010000
00000000
00000000
00000000
00100000
00000000
00000000
10000000
00000000
00000000
01000000
00000000
01000000
00000000
00000000
00000000
00010000
00000000
00000000
,
00001000
00000000
00000000
00000100
00000000
00000100
00000000
00000000
00000000
00000010
00000000
00000000
00000200
00000000
00000000
00000000
00000000
00000000
00000300
00000000
00000000
00000001
00000000
00000000
,
00001000
00000000
00000000
00000000
00000000
00000000
00000100
00000000
00000000
00000010
00000000
00000100
00000010
00000000
00000000
00000000
00000000
00000000
00001000
00000000
00000000
00010000
00000000
00001000
,
00010000
00000000
00000000
00000000
00000000
00000000
00100000
00000000
00000000
01000000
00000000
00100000
02000000
00000000
00000000
00000000
00000000
00000000
03000000
00000000
00000000
00001000
00000000
00000000
,
00100000
00000000
00000000
00001000
00000000
00001000
00000000
00000000
00000000
00000010
00000000
00000000
00000001
00000000
00000000
00000100
00000000
00000100
00000000
00000000
00000000
00001000
00000000
00000000
,
00010000
00000000
00000000
01000000
00000000
01000000
00000000
00000000
00000000
00100000
00000000
00000000
02000000
00000000
00000000
00000000
00000000
00000000
03000000
00000000
00000000
10000000
00000000
00000000
,
00010000
00000000
00000000
00000000
00000000
00000000
00100000
00000000
00000000
01000000
00000000
00100000
01000000
00000000
00000000
00010000
00000000
00000000
00001000
00000000
00000000
00000010
00000000
00000000
,
00000100
00000000
00000100
00000000
00000000
00000000
00002000
00000000
00000000
00003000
00000000
00001000
00000002
00000000
00000000
00000000
00000000
00000000
00000003
00000000
00000000
00000000
00000000
00000000
,
00000200
00000000
00000000
00000300
00000000
00000001
00000010
00000000
00000000
00001000
00000000
00000000
00010000
00000000
00000000
00100000
00000000
00000000
10000000
00000000
00000000
00000000
00000000
00000000
,
00020000
00000000
00000000
00030000
00000000
10000000
00100000
00000000
00000000
00010000
00000000
00000000
00001000
00000000
00000000
00000010
00000000
00000000
00000001
00000000
00000000
00000000
00000000
00000000
,
00002000
00000000
00000000
00003000
00000000
00000001
00000100
00000000
00000000
00001000
00000000
00000000
00010000
00000000
00000000
01000000
00000000
00000000
10000000
00000000
00000000
00010000
00000000
00000000
,
00010000
00000000
00000000
00000000
00000000
00000000
00001000
00000000
00000000
00000001
00000000
00000000
00001000
00000000
00000000
00000000
00000000
00000000
00000010
00000000
00010000
00000010
00000000
00010000
,
00002000
00000000
00010000
00000000
00000000
00000000
02003000
00000000
00010000
00000000
00000000
00000000
03002000
00000000
00010000
00000000
00000000
00000000
00103000
00000000
00001000
00100000
00000000
00001000
,
00020000
00000000
00001000
00000000
00000000
00000000
00030200
00000000
00001000
00000000
00000000
00000000
00020300
00000000
00001000
00000000
00000000
00000000
00030010
00000000
00001000
00000010
00000000
00001000
,
00000001
00000000
00000010
00000000
00000000
00000000
00000100
00000000
00001000
00000000
00000000
00001000
00000010
00000000
00000100
00000000
00000000
00000000
00001000
00000000
00100000
00000000
00000000
00000000
,
01000000
00000000
00100000
00000000
00000000
00000000
00010000
00000000
20000000
00000000
00000000
00000000
30020000
00000000
00000000
00030000
00000000
00000000
01000000
00000000
00001000
01000000
00000000
00001000
,
00020000
00000000
00001000
00000000
00000000
00000000
00030020
00000000
00001000
00000000
00000000
00000000
00020030
00000000
00001000
00000000
00000000
00000000
00030100
00000000
00010000
00000010
00000000
00001000
,
00000001
00000000
00000100
00000000
00000000
00000000
00000010
00000000
00020000
00000000
00000000
00000000
00002000
00000000
00000000
00000000
00000000
00000000
00033000
00000000
00000000
00010000
00000000
00000000
,
00000100
00000000
00000000
00001000
00000000
00000000
00010000
00000000
00000000
00100000
00000000
00000000
01000000
00000000
00000000
10000000
00000000
00000000
00100000
00000000
10000000
00000000
00000000
00000000
,
01000000
00000000
00100000
00000000
00000000
00000000
00010000
00000000
20000000
00000000
00000000
00000000
00200000
00000000
00000000
00000000
00000000
00000000
30300000
00000000
00000000
00100000
00000000
00000000
,
01000000
00000000
00000000
00010000
00000000
00000000
00001000
00000000
00000000
00000010
00000000
00000000
00000100
00000000
00000000
00000001
00000000
00000000
00001000
00000000
00000010
00000000
00000000
00000000
,
00010000
00000100
00000000
00000010
00000001
00000000
00002002
00000000
00000000
00000000
00000000
00000000
,
00000000
00000000
00003000
00000000
,
00000000
00000000
00000000
00000000
,
00000000
00000000
00000003
00000000
,
00000000
00000000
00000000
00000000
;
#NOTES:
     dance-double:
     :
     Hard:
     13:
     :
00000000
00000000
00000000
00000000
,
00000000
00000000
00000000
00000000
,
00000000
00000000
00000000
00000000
00000000
00000000
00000000
00000000
00000000
00000000
00000000
00000000
00000000
00000000
00000000
00000000
00000000
00000000
00000000
00000000
00000000
00001000
00000000
00010000
,
00001000
00000000
00000000
00000000
00000000
00000000
00000010
00000000
00000000
00000100
00000000
00000010
00000001
00000000
00000000
00000000
00000000
00000000
00000100
00000000
00000000
00000010
00000000
00010000
,
00001000
00000000
00000000
00000000
00000000
00001000
00100000
00000000
00000000
01000000
00000000
10000000
01000000
00000000
00000000
00010000
00000000
00000000
00000000
00000000
00000000
01000000
00000000
10000000
,
00010000
01000000
00100000
00010000
00001000
00010000
00000010
00000100
,
00000001
00000010
00000100
00010000
00001000
00100000
01000000
10000000
,
00020000
00000000
00000000
00000000
00000000
00000000
01030000
00000000
00000000
00010000
00000000
10000000
02000000
00000000
00000000
03020000
00000000
00000000
00032000
00000000
00000000
00003020
00000000
00000000
,
00000230
00000000
00000000
00000300
00000000
00000001
00000200
00000000
00000000
00000300
00000000
00001000
00000002
00000000
00000000
00000000
00000000
00000000
00000000
00000000
00000000
00000003
00000000
00000000
,
00000000
00000000
00000000
00000000
00000000
00000000
00000000
00000000
00000000
00000000
00000000
00000000
00000000
00000000
00000000
00000000
00000000
00000000
00000000
00000000
00000000
00000100
00000000
00000001
,
00001000
00000000
00000000
00000010
00000000
00001000
00000100
00000000
00000000
00010000
00000000
00000000
00001000
00000000
00000000
00100000
00000000
00001000
01000000
00000000
00000000
00010000
00000000
00000000
,
10010000
00000000
00000000
10000000
00000000
00100000
01000000
00000000
00000000
00010000
00000000
00000000
00100000
00000000
00000000
10000000
00000000
00100000
01000000
00000000
00000000
10000000
00000000
00010000
,
01000000
00000000
00000000
00001000
00000000
00000000
00100000
00000000
00000000
00001000
00000000
00010000
00000100
00000000
00000000
00001000
00000000
00000000
00000010
00000000
00000000
00010000
00000000
00000100
,
00010000
00000000
00000000
00001000
00000000
00000000
00000010
00000000
00000000
00000001
00000000
00001000
00000100
00000000
00000000
00010000
00000000
00000100
00000010
00000000
00000000
00000001
00000000
00001000
,
00000020
00000000
00000000
00001030
00000000
00000001
00000100
00000000
00000000
00001000
00000000
00000000
00020000
00000000
00000000
00130000
00000000
10000000
01000000
00000000
00000000
00100000
00000000
00000000
,
10020000
00000000
00000000
10030000
00000000
00100000
01000000
00000000
00000000
00010000
00000000
00000000
00200000
00000000
00000000
10000000
00000000
00000000
01300000
00000000
00000000
00100000
00000000
00001000
,
00020000
00000000
00000000
00000100
00000000
00000000
00030010
00000000
00000000
00001000
00000000
00000010
00000200
00000000
00000000
00000302
00000000
00000000
00000023
00000000
00000000
00002030
00000000
00000000
,
00013000
00000000
00100000
00000000
00000000
00000000
20100000
00000000
00000000
30000000
00000000
00010000
02000000
00000000
00000000
10000000
00000000
00000000
03010000
00000000
00000000
00000000
00000000
00000000
,
20010000
00000000
00000000
31000000
00100000
00000000
01000000
00010000
00001000
00000000
00000010
00000000
00000020
00000000
00000030
00000000
,
00001002
00000000
00000000
00000103
00000010
00000000
00000100
00001000
00010000
00000000
00100000
00000000
02000000
00000000
03000000
00000000
,
20100000
00000000
00000000
30010000
01000000
00000000
00010000
00100000
00002000
00000000
00003020
00000000
00000032
00000000
00002003
00000000
,
00023000
00000000
00000000
00030000
00000000
00000000
00001000
00000000
00000000
00010000
00000000
00000000
10000000
00000000
00000000
00000000
00000000
00000000
00100000
00000000
10000000
00010000
00000000
10000000
,
01000000
00000000
12000000
00000000
00000000
00000000
03010000
00000000
00021000
00000000
00000000
00000000
00130000
00000000
10200000
00000000
00000000
00000000
01300000
00000000
00001000
00010000
00000000
00000010
,
00000100
00000000
00000201
00000000
00000000
00000000
00001300
00000000
00012000
00000000
00000000
00000000
00003010
00000000
00000021
00000000
00000000
00000000
00000031
00000000
00000100
00000010
00000000
00010000
,
00001000
00000000
00012000
00000000
00000000
00000000
01003000
00000000
00100000
00000000
00000000
10000000
01000000
00000000
02100000
00000000
00000000
00000000
03010000
00000000
00021000
00000000
00000000
00000000
,
00230000
00000000
20300000
00000000
00000000
00000000
32000000
00000000
03020000
00000000
00000000
00000000
00002000
00000000
00000000
00033000
00000000
00000000
00010000
00000000
00000100
00000010
00000000
00000100
,
00001000
00000000
00002001
00000000
00000000
00000000
00013000
00000000
00021000
00000000
00000000
00000000
10030000
00000000
20010000
00000000
00000000
00000000
31000000
00000000
00100000
00010000
00000000
00100000
,
00001000
00000000
00102000
00000000
00000000
00000000
00003010
00000000
00000120
00000000
00000000
00000000
00000002
00000000
00000000
00000000
00000000
00000000
00000033
00000000
00000000
00000001
00000000
00000100
,
00002000
00000000
00000000
00023000
00000000
00000000
00030200
00000000
00000000
00000302
00000000
00000000
00002003
00000000
00000000
00023000
00000000
00000000
00130000
00000000
01100000
00000000
00000000
00000000
,
10000000
00000000
11000000
00000000
00000000
00000000
00010000
00000000
01010000
00000000
00000000
00000000
02200000
00000000
00000000
00000000
00000000
00000000
03300000
00000000
00000000
10000000
00000000
01000000
,
00020000
00000000
00000000
00032000
00000000
00000000
02003000
00000000
00000000
23000000
00000000
00000000
30020000
00000000
00000000
00032000
00000000
00000000
00003010
00000000
00000021
00000000
00000000
00000000
,
00000130
00001200
00000000
00010300
00120000
00000000
00032000
00000000
00000000
00000000
00000000
00000000
,
01000000
00000000
00000000
01003000
00000000
00000000
01000000
00100000
00000000
01000000
00100000
00000000
,
01000000
00100000
00000000
01000000
00200000
00000000
00000000
00000000
00000000
00000000
00000000
00000000
,
00000000
00000000
00300000
00000000
,
00000000
00000000
00000000
00000000
;
