
//----- song ID: juju -----//
#TITLE:廻廻奇譚;
#TITLETRANSLIT:Kaikai kitan;
#BANNER:Kaikai kitan.png;
#BACKGROUND:Kaikai kitan-bg.png;
#CDTITLE:./CDTitles/DDR GRAND PRIX.png;
#MUSIC:Kaikai kitan.ogg;
#SAMPLESTART:49.785;
#SAMPLELENGTH:15;
#BPMS:0=185;
#NOTES:
     dance-single:
     :
     Beginner:
     2:
     :
0000
0000
0000
0000
,
0000
0000
0000
0000
,
0000
0000
0000
0000
,
1000
0000
0000
0000
,
0001
0000
0000
0000
,
0000
0000
1000
0000
,
0000
0000
0010
0000
,
0000
0000
1000
0000
,
0000
0000
0001
0000
,
0000
0000
0100
0000
,
0000
0000
0001
0000
,
0000
0000
1000
0000
,
0000
0000
0010
0000
,
0000
0000
0100
0000
,
0000
0000
0000
0000
,
0001
0000
0000
0000
,
0001
0000
0000
0000
,
1000
0000
0000
0000
,
1000
0000
0000
0000
,
0010
0000
0000
0000
,
0010
0000
0000
0000
,
0100
0000
0000
0000
,
0110
0000
0000
0000
,
1000
0000
0000
0000
,
1000
0000
0000
0000
,
0100
0000
0000
0000
,
0100
0000
0000
0000
,
0010
0000
0000
0000
,
0010
0000
0000
0000
,
0001
0000
0000
0000
,
1000
0000
0000
0000
,
1001
0000
0000
0000
,
0001
0000
0000
0000
,
0100
0000
0000
0000
,
0001
0000
0000
0000
,
1000
0000
0000
0000
,
0000
0000
0000
0000
,
0010
0000
0000
0000
,
0110
0000
0000
0000
,
0001
0000
0000
0000
,
0001
0000
0000
0000
,
1000
0000
0000
0000
,
1000
0000
0000
0000
,
0010
0000
0000
0000
,
0100
0000
0000
0000
,
0001
0000
0000
0000
,
1000
0000
0000
0000
,
0010
0000
0000
0000
,
0010
0000
0000
0000
,
1000
0000
0000
0000
,
0001
0000
0000
0000
,
0100
0000
0000
0000
,
0100
0000
0000
0000
,
0010
0000
0000
0000
,
0010
0000
0000
0000
,
1000
0000
0000
0000
,
0001
0000
0000
0000
,
1000
0000
0000
0000
,
0010
0000
0000
0000
,
0100
0000
0000
0000
,
0000
0000
0000
0000
,
0001
0000
0000
0000
,
0000
0000
0000
0000
,
1000
0000
0000
0000
,
1000
0000
0000
0000
,
0010
0000
0000
0000
,
0100
0000
0000
0000
,
0001
0000
0000
0000
,
0000
0000
0000
0000
;
#NOTES:
     dance-single:
     :
     Easy:
     5:
     :
0000
0000
0000
0000
,
0000
0000
0000
0000
,
0000
0000
0000
0000
,
1001
0000
0000
0000
,
1001
0000
0110
0000
,
0000
0000
1000
0000
,
1000
0000
0001
0100
,
0001
0000
0100
0010
,
0100
0000
0010
1000
,
0010
0000
0100
0000
,
0100
0000
0001
0010
,
0001
0000
1000
0010
,
1000
0000
0010
0000
,
1000
0000
0002
0000
,
0000
0000
0000
0000
,
0103
0000
0100
0000
,
0001
0000
0001
0000
,
1000
0000
1000
0000
,
0001
0100
0001
0000
,
0100
0000
0100
0000
,
0010
0000
0010
0000
,
1000
0000
1000
0000
,
0001
0010
0001
0000
,
0100
0000
0010
0000
,
1000
0000
0010
0000
,
1000
0000
0001
0000
,
0100
0001
0100
0000
,
0001
0000
1000
0000
,
0010
0000
1000
0000
,
0001
0000
0100
0000
,
0001
1000
0001
1000
,
0010
0000
0000
0000
,
0100
0000
0010
0000
,
0110
0000
0000
0000
,
1000
0000
0001
0000
,
2000
0000
3000
0000
,
0020
0000
0030
0000
,
0100
0000
0001
0000
,
1000
0000
0000
0000
,
0001
0100
0001
0000
,
1000
0100
1000
0000
,
0010
0000
0010
0000
,
0100
0000
0001
0000
,
1000
0010
1000
0000
,
0001
0010
0001
0000
,
1000
0000
0010
0000
,
0100
0000
0000
0000
,
0001
0100
0001
0000
,
1000
0100
1000
0000
,
0001
0000
0010
0000
,
0001
0000
1000
0000
,
0010
0010
0010
0000
,
0100
0100
0100
0000
,
0001
0000
0010
0000
,
0100
0000
1000
0000
,
1001
0000
0000
0000
,
1001
0000
0000
0000
,
0110
0000
0000
0000
,
0110
0000
0000
0000
,
1001
0000
0000
0000
,
0010
0000
1000
0000
,
0001
0000
0000
0000
,
0000
1000
0000
0000
0001
0000
0000
0000
,
0100
0000
0100
0000
,
0010
1000
0010
0000
,
1000
0000
0001
0000
,
0010
0001
0010
0001
,
1000
0000
0000
0000
,
0000
0000
0000
0000
;
#NOTES:
     dance-single:
     :
     Medium:
     9:
     :
0000
0000
0000
0000
,
0000
0000
0000
0000
,
0000
0000
0000
0000
,
0001
0000
0100
0010
0000
1000
0010
0000
,
0100
0001
1001
0000
,
0000
0000
1000
0010
,
0100
0010
1000
0001
,
0010
0100
0010
0000
0001
0000
0100
0000
,
0010
1000
0100
0010
,
0001
0010
0001
0000
0100
0000
0010
0000
,
1000
0010
0100
0001
,
1000
0100
1000
0000
0010
0000
0100
0000
,
0001
0010
0001
1000
,
0100
0010
0100
0000
2000
0000
0000
0000
,
0000
0000
0000
0000
,
3001
0001
0001
0100
,
0001
1000
0010
0100
,
0010
1000
0100
0010
,
0001
0001
1000
1000
,
0010
0100
0010
1000
,
0001
0010
0100
1000
,
0001
0100
0001
1000
,
0100
0000
0100
0000
0010
0100
0000
0000
,
1000
0001
0100
0001
,
1000
0100
1000
0000
0010
0000
0100
0000
,
0001
0010
0001
0000
0100
0000
0001
0000
,
1000
0100
0001
0100
,
0010
0100
1000
0100
,
0010
0001
0010
0000
0001
0000
1000
0000
,
0010
0100
0010
0000
1000
0000
0100
0000
,
0010
0001
1000
0000
0010
0000
0100
0000
,
0110
0000
0001
0010
,
0100
0010
0100
0000
1000
0001
1000
0000
,
0010
1000
0010
0100
,
0001
0010
0100
0000
1000
0010
0100
0000
,
0002
0000
1003
0000
,
2000
0000
3100
0000
,
0010
0010
0001
1001
,
0000
0000
1000
0010
,
0100
0010
0100
0000
0001
0000
0010
0000
,
0100
0010
0100
0000
1000
0000
0010
0000
,
1000
0100
0010
0001
,
1000
0010
0100
0000
0001
0010
0001
0000
,
1000
0000
0010
0000
0100
0001
0100
0000
,
0001
0000
0010
0000
0100
1000
0100
0000
,
1000
0001
0100
0010
,
0110
0000
0001
0100
,
0010
1000
0010
0000
1000
0000
0100
0000
,
0010
0001
0010
0000
0001
0000
1000
0000
,
0010
0010
0100
0100
,
0001
0010
1000
0000
1000
0010
0001
0000
,
1000
0010
1000
0000
0001
0010
0001
0000
,
0100
0010
0100
0000
0001
0000
0001
0000
,
1000
0100
0001
0000
0001
0100
1000
0000
,
0001
0010
0001
0000
1000
0010
1000
0000
,
0010
0000
0000
0110
0000
0000
1010
0000
,
0000
1001
0000
0000
0101
0000
0001
0000
,
1001
0000
0000
1100
0000
0000
0100
0010
,
0000
0011
0000
0001
0100
0000
0000
0000
,
0010
0000
1000
0010
0000
1000
0100
0000
,
0010
0000
0001
0000
0100
0000
0001
2000
,
0000
0000
0000
3000
,
0000
0100
0100
0000
0010
0010
0000
0001
,
0000
1000
0010
1000
0000
0001
0000
0010
,
0000
1000
0000
0010
0001
0010
0000
0100
,
0000
1000
0010
0000
1000
0000
0100
0000
,
0010
0000
0001
0000
1000
0100
0001
0100
,
0000
0000
0000
0000
;
#NOTES:
     dance-single:
     :
     Hard:
     12:
     :
0000
0000
0000
0000
,
0000
0000
0000
0000
,
0000
0000
0000
0000
,
1000
0100
0010
0100
0000
1000
0001
0000
,
0100
0000
0000
0000
0010
0000
0000
0000
1000
0000
0000
0000
0100
0000
0000
0000
0010
0000
0000
0000
0000
0100
0000
0000
0000
0000
0100
0000
0000
0000
0000
0000
,
0000
0000
0000
0000
1000
0000
0001
0100
,
0000
0110
0000
1010
0000
1000
0100
0010
,
0001
0010
0000
0002
0000
0103
0001
0100
,
0010
1000
0001
0100
0000
0001
0010
0100
,
0010
0001
1000
0100
0010
0001
0100
0001
,
0000
1010
0000
1001
0000
0001
0010
0100
,
0010
0001
0000
2000
0000
3010
0100
0010
,
1000
0001
0100
0010
0000
1000
0100
1000
,
0001
0010
0100
1000
0002
0000
0000
0000
,
0000
0000
0000
0000
,
0103
0000
0100
0000
0100
0000
0010
1000
,
0000
0010
0100
0001
0100
1000
0000
0100
,
0001
0000
1000
0010
0000
0001
0010
1000
,
0000
0100
0010
0001
0010
0000
0001
0000
,
0000
1000
0100
0000
0001
0100
0000
1000
,
0100
0000
0010
0001
0000
0100
0010
0100
,
0001
0000
0000
0010
0000
0000
0100
0000
1000
0000
0000
0000
0010
0000
1000
0000
,
0000
0001
0100
0010
0100
0100
0000
0000
,
0001
0010
0100
0000
1000
0001
0000
0100
,
0001
0000
0000
1000
0000
0000
0010
0000
1000
0000
0100
0000
0000
0000
1000
0000
,
0000
0010
0000
0100
0001
0100
0000
0001
,
0000
0010
0100
1000
0100
0000
1000
0010
,
1000
0100
0001
0000
0100
1000
0000
0010
,
0001
0000
0010
1000
0000
0001
0010
0000
,
1000
0010
0000
0001
0100
0000
0010
0100
,
0000
0010
1000
0001
0100
0000
0001
0010
,
0000
0100
1000
0000
0010
0100
0010
0000
,
1000
0100
0010
0000
0001
0010
0100
0010
,
0001
1000
0010
0000
1000
0100
0010
0100
,
1000
0010
0100
0001
0100
0001
0000
2000
,
0000
0000
3100
0020
0000
0000
0130
2000
,
0000
0000
3001
0200
0000
0310
1000
0010
,
1000
0001
0010
0001
0010
0100
1000
0200
,
0000
0310
0010
0100
0010
0001
0010
0100
,
0000
0110
0000
0001
1000
0010
1000
0100
,
0000
1001
0000
0001
0010
0100
0010
0001
,
0000
0010
0100
1000
0001
0010
0001
1000
,
0000
0000
0010
0000
0100
0000
0000
0000
1001
0000
0000
1001
0000
0000
1001
0000
,
0000
0000
0001
0000
1000
0000
0010
0000
0110
0000
0000
0110
0000
0000
0110
0000
,
0000
0100
0010
0100
0010
1000
0100
0010
,
0000
0001
0100
0010
1000
0000
0100
0020
,
0000
0031
0001
1000
0100
0010
0001
0100
,
0000
1001
0000
1000
0010
0100
0001
0010
,
0000
1001
0000
0001
0010
0001
1000
0010
,
0000
1000
0100
0000
0001
0100
0001
0100
,
0010
0100
1000
0100
0001
0100
0010
0001
,
0000
1000
0010
0100
0001
0010
0100
0100
,
0010
0001
0000
1000
0100
1000
0001
0001
,
1000
0100
0001
1000
0010
0001
1000
0010
,
0000
1010
0000
0101
0000
1000
0010
0100
,
0010
0000
1000
0100
0000
0100
0010
0000
,
0010
0001
0000
1000
0010
1000
0010
1000
,
0100
0000
1000
0001
0100
0001
1000
1010
,
0000
0101
0000
1000
0100
0000
0010
0001
,
0011
0000
1000
1001
0000
0100
0110
0000
,
1000
0100
1000
0001
0010
0100
0010
0200
,
0000
0000
0000
0300
,
0000
0110
0110
0000
0011
0011
0000
1001
,
0000
0001
0100
0010
1000
0100
0000
0110
,
0000
0011
0000
1000
0010
0100
0000
0001
,
0000
0010
0100
0010
0001
0100
1000
0100
,
0000
0001
1000
0100
1000
0010
1000
0100
,
0000
0000
0000
0000
;
#NOTES:
     dance-double:
     :
     Easy:
     5:
     :
00000000
00000000
00000000
00000000
,
00000000
00000000
00000000
00000000
,
00000000
00000000
00000000
00000000
,
00001001
00000000
00000000
00000000
,
00011000
00000000
01100000
00000000
,
00000000
00000000
10000000
00000000
,
10000000
00000000
00010000
00000000
,
00010000
00000000
00100000
00001000
,
00010000
00000000
00000100
00001000
,
00000001
00000000
00000010
00000000
,
00000010
00000000
00000100
00000000
,
00000100
00000000
00010000
00001000
,
01000000
00000000
00010000
00000000
,
10000000
00000000
00200000
00000000
,
00000000
00000000
00000000
00000000
,
01300000
00000000
01000000
00000000
,
00010000
00000000
00010000
00000000
,
00100000
00000000
00100000
00000000
,
00001000
00010000
00001000
00000000
,
00010000
00000000
00010000
00000000
,
00000100
00000000
00000100
00000000
,
00001000
00000000
00001000
00000000
,
00000001
00000010
00000001
00000000
,
00001000
00000000
00000100
00000000
,
00010000
00000000
00001000
00000000
,
01000000
00000000
00010000
00000000
,
10000000
01000000
10000000
00000000
,
00100000
00000000
01000000
00000000
,
00010000
00000000
00100000
00000000
,
00001000
00000000
00010000
00000000
,
00000010
00001000
00000010
00001000
,
00000001
00000000
00000000
00000000
,
00001000
00000000
00000100
00000000
,
00011000
00000000
00000000
00000000
,
00010000
00000000
00100000
00000000
,
20000000
00000000
30000000
00000000
,
00020000
00000000
00030000
00000000
,
00100000
00000000
00001000
00000000
,
00010000
00000000
00000000
00000000
,
00000100
00001000
00000100
00000000
,
00000010
00000001
00000010
00000000
,
00000100
00000000
00000100
00000000
,
00010000
00000000
00001000
00000000
,
00010000
00001000
00100000
00000000
,
00010000
01000000
00010000
00000000
,
01000000
00000000
00010000
00000000
,
01000000
00000000
00000000
00000000
,
01000000
00001000
01000000
00000000
,
00001000
00010000
00001000
00000000
,
00010000
00000000
00001000
00000000
,
00000010
00000000
00000001
00000000
,
00001000
00001000
00001000
00000000
,
00000100
00000100
00000100
00000000
,
00010000
00000000
00001000
00000000
,
01000000
00000000
00010000
00000000
,
10010000
00000000
00000000
00000000
,
00011000
00000000
00000000
00000000
,
00000110
00000000
00000000
00000000
,
00001001
00000000
00000000
00000000
,
00001000
00000000
00000000
00000000
,
00000100
00000000
00010000
00000000
,
00001000
00000000
00000000
00000000
,
00000000
00010000
00000000
00000000
00001000
00000000
00000000
00000000
,
00100000
00000000
00100000
00000000
,
00010000
10000000
01000000
00000000
,
00100000
00000000
00000000
00000000
,
00100000
00001000
00010000
00000100
,
00011000
00000000
00000000
00000000
,
00000000
00000000
00000000
00000000
;
#NOTES:
     dance-double:
     :
     Medium:
     9:
     :
00000000
00000000
00000000
00000000
,
00000000
00000000
00000000
00000000
,
00000000
00000000
00000000
00000000
,
01000000
00000000
00010000
00100000
00000000
00001000
00010000
00000000
,
00000100
00001000
00001001
00000000
,
00000000
00000000
00000001
00000100
,
00000010
00001000
00000100
00010000
,
00001000
00001000
01000000
00010000
,
10000000
00100000
01000000
00010000
,
00100000
00100000
00001000
00010000
,
00000010
00001000
00000100
00000010
,
00000001
00000001
00001000
00000100
,
00010000
00001000
00100000
00010000
,
10000000
00100000
10000000
00000000
00020000
00000000
00000000
00000000
,
00000000
00000000
00000000
00000000
,
00130000
00100000
00100000
00001000
,
00010000
00000010
00001000
00000001
,
00001000
00000100
00010000
00001000
,
01000000
01000000
00010000
00010000
,
10000000
00100000
10000000
00010000
,
01000000
00001000
00010000
00001000
,
00010000
00000100
00010000
00000010
,
00001000
00000000
00001000
00000000
00000001
00000010
00000000
00000000
,
00000001
00001000
00000100
00010000
,
00001000
00001000
00100000
00010000
,
10000000
10000000
00010000
10000000
,
01000000
00010000
00001000
00000010
,
00000001
00000100
00000010
00001000
,
00000100
00000100
00010000
00001000
,
01000000
01000000
00100000
10000000
,
00010000
00100000
00001000
00000000
00010000
00000000
00001000
00000000
,
00001100
00000000
00000010
00001000
,
00000001
00000100
00000001
00000000
00001000
00000100
00001000
00000000
,
00000100
00010000
00001000
00100000
,
00010000
00100000
01000000
00000000
10000000
00010000
00100000
00000000
,
00002000
00000000
00013000
00000000
,
00020000
00000000
00030010
00000000
,
00001000
00001000
00000001
00001001
,
00000000
00000000
00000001
00000100
,
00000010
00001000
00000010
00000000
00001000
00000000
00000100
00000000
,
00010000
00001000
00010000
00000000
00001000
00000000
00010000
00000000
,
00100000
10000000
01000000
00100000
,
00010000
00100000
00001000
00000000
00010000
00000010
00001000
00000000
,
00000001
00000000
00000010
00000000
00000100
00001000
00000100
00000000
,
00010000
00000000
00001000
00000000
00100000
00010000
00100000
00000000
,
00010000
10000000
01000000
00100000
,
01100000
00000000
00010000
00100000
,
00001000
00010000
00001000
00000000
00010000
00000000
00000100
00000000
,
00001000
00000100
00001000
00000000
00000001
00000000
00000100
00000000
,
00000001
00000001
00001000
00001000
,
00000100
00010000
00001000
00000000
00100000
00010000
10000000
00000000
,
00010000
01000000
00010000
00000000
00100000
00001000
00100000
00000000
,
00001000
00010000
00001000
00000000
00010000
00000000
00010000
00000000
,
00001000
00010000
00000100
00000000
00001000
00000001
00000010
00000000
,
00000100
00010000
00001000
00000000
00100000
00010000
10000000
00000000
,
01000000
00000000
00000000
01100000
00000000
00000000
00110000
00000000
,
00000000
00011000
00000000
00000000
00001010
00000000
00000001
00000000
,
00000101
00000000
00000000
00001100
00000000
00000000
00010000
00001000
,
00000000
00011000
00000000
00001000
00100000
00000000
00000000
00000000
,
00010000
00000000
10000000
01000000
00000000
00100000
00010000
00000000
,
00001000
00000000
00000100
00000000
00000010
00000000
00000001
00000020
,
00000000
00000000
00000000
00000030
,
00000000
00000001
00000001
00000000
00001000
00001000
00000000
00000100
,
00000000
00010000
00001000
00010000
00000000
00001000
00000000
00100000
,
00000000
00010000
00000000
10000000
00100000
10000000
00000000
00010000
,
00000000
00100000
00001000
00000000
00010000
00000000
00000010
00000000
,
00001000
00000000
00000001
00000000
00000010
00000100
00001000
00000100
,
00000000
00000000
00000000
00000000
;
#NOTES:
     dance-double:
     :
     Hard:
     12:
     :
00000000
00000000
00000000
00000000
,
00000000
00000000
00000000
00000000
,
00000000
00000000
00000000
00000000
,
00000001
00000100
00000010
00000100
00000000
00000010
00001000
00000000
,
00000100
00000000
00000000
00000000
00010000
00000000
00000000
00000000
00001000
00000000
00000000
00000000
00100000
00000000
00000000
00000000
00010000
00000000
00000000
00000000
00000000
10000000
00000000
00000000
00000000
00000000
10000000
00000000
00000000
00000000
00000000
00000000
,
00000000
00000000
00000000
00000000
00010000
00000000
01000000
00001000
,
00000000
00011000
00000000
00010100
00000000
00000100
00001000
00000010
,
00000100
00000001
00000000
00000002
00000000
00001003
00000100
00001000
,
00000010
00010000
00001000
00010000
00000000
00001000
00100000
00010000
,
00100000
00001000
01000000
00010000
10000000
01000000
00100000
00010000
,
00000000
01010000
00000000
00011000
00000000
00010000
00000100
00001000
,
00000100
00010000
00000000
00020000
00000000
00030010
00001000
00000100
,
00001000
00000001
00000010
00000100
00000000
00001000
00000100
00010000
,
00001000
01000000
00010000
10000000
02000000
00000000
00000000
00000000
,
00000000
00000000
00000000
00000000
,
03100000
00000000
00100000
00000000
00100000
00000000
00010000
01000000
,
00000000
00001000
00010000
00001000
00000100
00000001
00000000
00000010
,
00000100
00000000
00001000
00000100
00000000
00010000
00001000
00010000
,
00000000
00001000
00010000
01000000
10000000
00000000
00010000
00000000
,
00000000
10000000
00100000
00000000
00010000
00001000
00000000
00000100
,
00000001
00000000
00000010
00001000
00000000
00010000
00001000
00010000
,
00001000
00000000
00000000
00100000
00000000
00000000
00010000
00000000
10000000
00000000
00000000
00000000
00010000
00000000
00100000
00000000
,
00000000
00001000
00010000
00001000
00010000
00010000
00000000
00000000
,
00000010
00001000
00000100
00000000
00000010
00000001
00000000
00001000
,
00000100
00000000
00000000
00010000
00000000
00000000
00001000
00000000
00010000
00000000
00001000
00000000
00000000
00000000
01000000
00000000
,
00000000
00010000
00000000
10000000
00100000
10000000
00000000
00010000
,
00000000
10000000
01000000
00010000
00001000
00000000
00010000
00001000
,
00010000
00001000
00000010
00000000
00000001
00001000
00000000
00000010
,
00010000
00000000
00001000
00100000
00000000
00010000
10000000
00000000
,
01000000
00100000
00000000
00010000
00100000
00000000
00001000
00010000
,
00000000
00001000
00000100
00000001
00000100
00000000
00001000
00010000
,
00000000
00001000
01000000
00000000
00010000
01000000
00010000
00000000
,
10000000
00100000
01000000
00000000
00010000
00100000
00001000
00010000
,
00001000
00000000
00010000
00000000
00000010
00001000
00000100
00001000
,
00000010
00000000
00000100
00000001
00000010
00000001
00000000
00000200
,
00000000
00000000
00001300
00020000
00000000
00000000
00130000
20000000
,
00000000
00000000
30010000
02000000
00000000
03010000
00100000
00010000
,
00100000
00001000
00010000
00001000
00010000
00000100
00001000
00000020
,
00000000
00000130
00000100
00000001
00000010
00000100
00001000
00000100
,
00000000
00011000
00000000
00100000
00010000
00100000
01000000
10000000
,
00000000
10010000
00000000
00100000
00001000
00010000
00000100
00001000
,
00000000
00000001
00000010
00000100
00000010
00000001
00001000
00000100
,
00000000
00000000
00010000
00000000
00001000
00000000
00000000
00000000
00100000
00000000
00000000
00010000
00000000
00000000
10010000
00000000
,
00000000
00000000
10000000
00000000
00010000
00000000
01000000
00000000
00001000
00000000
00000000
00010000
00000000
00000000
00010100
00000000
,
00000000
00000100
00001000
00000100
00001000
00000010
00000100
00000001
,
00000000
00001000
00000010
00000100
00000001
00000000
00001000
00000200
,
00000000
00010300
00010000
00001000
00100000
00010000
01000000
00010000
,
00000000
10010000
00000000
10000000
00010000
00100000
00001000
00100000
,
00000000
00011000
00000000
00010000
00000100
00001000
00000100
00000010
,
00000000
00000001
00000100
00000000
00000010
00001000
00000010
00010000
,
00001000
00010000
00001000
00100000
00010000
10000000
01000000
00100000
,
00000000
00010000
00100000
00001000
00010000
00000010
00001000
00001000
,
00000100
00000010
00000000
00000001
00000010
00000001
00001000
00001000
,
00000001
00000100
00001000
00010000
00100000
10000000
00010000
00100000
,
00000000
00011000
00000000
00001100
00000000
00000001
00000100
00000001
,
00001000
00000000
00000100
00010000
00000000
00010000
00001000
00000000
,
00001000
01000000
00000000
01000000
00010000
01000000
00100000
10000000
,
00010000
00000000
10000000
00010000
00100000
00001000
00010000
00000100
,
00000000
00001001
00000000
00001000
00000010
00000000
00000100
00000001
,
00000010
00000000
00000100
00001000
00000000
00000100
00010000
00000000
,
00001000
00100000
00010000
00100000
01000000
10000000
00010000
00200000
,
00000000
00000000
00000000
00300000
,
00000000
00001000
00001000
00000000
00010000
00010000
00000000
00000100
,
00000000
00001000
00000001
00000100
00000010
00001000
00000000
00011000
,
00000000
00110000
00000000
10000000
00100000
01000000
00000000
00010000
,
00000000
00100000
00001000
00010000
00000100
00000010
00001000
00000010
,
00000000
00000001
00000100
00001000
00010000
00001000
00010000
00100000
,
00000000
00000000
00000000
00000000
;
