
//----- song ID: kaib -----//
#TITLE:怪物;
#TITLETRANSLIT:Kaibutsu;
#BANNER:Kaibutsu.png;
#BACKGROUND:Kaibutsu-bg.png;
#CDTITLE:./CDTitles/jubeat (2021).png;
#MUSIC:Kaibutsu.ogg;
#SAMPLESTART:36.393;
#SAMPLELENGTH:15;
#BPMS:0=170;
#NOTES:
     dance-single:
     :
     Beginner:
     1:
     :
0000
0000
0000
0000
,
0000
0000
0000
0000
,
0000
0000
0000
0000
,
0000
0000
0000
0000
,
0000
0000
0000
0000
,
0000
0000
0000
0000
,
1000
0000
0000
0000
,
0000
0000
0000
0000
,
1000
0000
0000
0000
,
0000
0000
0000
0000
,
0010
0000
0000
0000
,
0000
0000
0000
0000
,
0010
0000
0000
0000
,
0000
0000
0000
0000
,
0100
0000
0000
0000
,
0000
0000
0000
0000
,
0100
0000
0000
0000
,
0000
0000
0000
0000
,
0001
0000
0000
0000
,
0001
0000
0000
0000
,
0001
0000
0000
0000
,
0000
0000
0000
0000
,
0010
0000
0000
0000
,
0010
0000
0000
0000
,
0010
0000
0000
0000
,
0000
0000
0000
0000
,
0200
0000
0000
0000
,
0300
0000
0000
0000
,
0100
0000
0000
0000
,
0100
0000
0000
0000
,
0100
0000
1000
0000
,
0010
0000
0000
0000
,
0000
0000
0000
0000
,
0000
0000
0000
0000
,
0020
0000
0000
0000
,
0030
0000
0000
0000
,
0010
0000
0000
0000
,
0010
0000
0000
0000
,
0000
0000
0000
0000
,
0000
0000
0000
0000
,
1000
0000
0010
0000
,
0010
0000
0000
0000
,
0000
0000
0000
0000
,
0000
0000
0000
0000
,
0001
0000
0010
0000
,
0010
0000
0000
0000
,
0001
0000
0000
0000
,
0000
0000
0000
0000
,
0010
0000
0000
0000
,
0000
0000
0000
0000
,
0001
0000
0000
0000
,
0000
0000
0000
0000
,
0100
0000
0000
0000
,
0000
0000
0000
0000
,
0010
0000
0000
0000
,
0000
0000
0000
0000
,
1000
0000
0000
0000
,
0000
0000
0000
0000
,
0100
0000
0000
0000
,
0000
0000
0000
0000
,
0010
0000
0000
0000
,
0000
0000
0000
0000
,
0002
0000
0000
0000
,
0003
0000
0000
0000
,
0002
0000
0000
0000
,
0003
0000
0000
0000
,
2000
0000
0000
0000
,
3000
0000
0000
0000
,
2000
0000
0000
0000
,
3000
0000
0000
0000
,
1000
0000
0000
0000
,
0000
0000
0000
0000
;
#NOTES:
     dance-single:
     :
     Easy:
     3:
     :
0000
0000
0000
0000
,
0000
0000
0000
0000
,
0000
0000
0000
0000
,
0000
0000
0000
0000
,
0000
0000
0000
0000
,
0000
0000
0000
0000
,
1000
0000
0000
0000
,
0010
0000
0000
0000
,
1000
0000
0000
0000
,
0000
0000
0000
0000
,
0001
0000
0000
0000
,
0100
0000
0000
0000
,
0001
0000
0000
0000
,
0000
0000
0000
0000
,
0010
0000
0000
0000
,
0001
0000
0000
0000
,
0010
0000
0000
0000
,
0000
0000
0000
0000
,
0100
0000
0100
0000
,
1000
0000
0000
0000
,
1000
0000
1000
0000
,
0010
0000
0000
0000
,
0001
0000
0000
0000
,
0000
0000
0000
0000
,
1000
0000
0000
0000
,
0000
0000
0000
0000
,
1000
0000
0000
0000
,
1000
0000
0000
0000
,
0001
0000
0000
0000
,
0001
0000
0000
0000
,
1001
0000
0000
0000
,
0000
0000
0000
0000
,
1001
0000
0000
0000
,
0000
0000
0000
0000
,
0010
0000
0000
0000
,
0010
0000
0000
0000
,
0100
0000
0000
0000
,
0100
0000
0000
0000
,
0110
0000
0000
0000
,
0000
0000
0000
0000
,
0001
0000
0001
0000
,
0001
0000
0000
0000
,
0010
0000
0010
0000
,
0010
0000
0000
0000
,
0000
0000
0000
0000
,
0000
0000
0000
0000
,
1000
0000
0000
0000
,
0100
0000
0000
0000
,
1000
0000
0000
0000
,
0000
0000
0000
0000
,
0010
0000
0000
0000
,
0001
0000
0000
0000
,
0010
0000
0000
0000
,
0000
0000
0000
0000
,
0100
0100
0100
0000
,
0000
0000
0000
0000
,
1000
0000
0000
0000
,
0010
0000
0000
0000
,
0010
0010
0001
0000
,
0000
0000
0000
0000
,
0010
0000
0000
0000
,
0100
0000
0000
0000
,
2000
0000
0000
0000
,
3000
0000
0000
0000
,
0200
0000
0000
0000
,
0300
0000
0000
0000
,
0020
0000
0000
0000
,
0030
0000
0000
0000
,
0002
0000
0000
0000
,
0003
0000
0000
0000
,
1001
0000
0000
0000
,
0000
0000
0000
0000
;
#NOTES:
     dance-single:
     :
     Medium:
     7:
     :
0000
0000
0000
0000
,
0000
0000
0000
0000
,
0000
0000
0000
0000
,
0000
0000
0000
0000
,
0000
0000
0000
0000
,
0000
0000
0000
0000
,
0001
1000
0001
0000
,
1000
0001
1000
0000
,
0010
0100
0010
0000
,
0100
0010
0100
0000
,
0001
0010
0001
0010
,
0001
0100
0001
0001
,
1000
0010
1000
0010
,
1000
0100
1000
1000
,
0010
1000
0100
1000
,
0010
1000
0100
0100
,
0010
0001
0100
0001
,
0010
0001
0100
0000
,
0001
0000
0000
0001
0100
0000
0010
0000
,
1000
0001
1000
0001
,
1000
0000
1000
0000
0100
0010
0000
0000
,
0001
1000
0001
1000
,
0100
0001
0100
1000
,
0010
1000
0001
0100
,
0001
0010
0100
1000
,
0001
0001
0001
0000
,
0100
0010
1000
0001
,
0010
0100
1000
0001
,
0010
1000
0010
0001
,
1000
0100
0010
0000
,
0001
0001
0100
0100
,
0010
0010
1000
1000
,
0010
0100
0010
0000
0100
0000
0001
1000
,
0000
0001
1000
0000
0002
0000
0003
0000
,
1000
0100
0001
0100
,
1000
0010
0001
0010
,
1000
0010
0100
0001
,
1000
0000
0010
0000
0100
0010
0100
0000
,
0001
0010
1000
0010
,
0001
0100
1000
0100
,
0001
0010
0100
0100
,
1000
0010
0100
0100
,
0001
0100
0010
0010
,
1000
0100
0010
0010
,
0001
1000
0001
1000
,
0100
0010
0200
0300
,
1000
0100
1000
0000
,
0001
0100
0001
0000
,
1000
0010
1000
0000
,
0001
0010
0001
0000
,
1000
0001
1000
0001
,
0100
0010
0100
0010
,
1000
0100
0010
0001
,
1000
0001
0010
0100
,
1000
1000
1000
0000
,
0010
0010
0010
0000
,
0100
0100
0100
0000
,
0001
0001
0001
0000
,
1000
0010
1000
0010
,
0001
0010
0001
0010
,
1000
0001
1000
0001
,
0100
0010
1000
0000
,
0100
1000
1100
0000
,
1000
0010
1010
0000
,
0001
0100
0101
0000
,
0010
0001
0011
0000
,
0001
0000
0100
0000
0010
1000
0010
0000
,
1000
0001
0010
0100
,
1000
0000
0100
0000
0010
0001
0010
0000
,
0001
0100
0010
1000
,
1001
0000
0000
0000
,
0000
0000
0000
0000
;
#NOTES:
     dance-single:
     :
     Hard:
     11:
     :
0000
0000
0000
0000
,
0000
0000
0000
0000
,
0000
0000
0000
0000
,
0000
0000
0000
0000
,
0000
0000
0000
0000
,
0000
0000
0000
0000
,
1000
0000
0100
0000
0010
0001
0010
0000
,
0001
0100
1000
0100
,
0001
0000
0100
0000
0010
1000
0010
0000
,
1000
0100
1000
0000
,
1000
0000
0001
0000
0100
0010
0100
0000
,
0001
0010
0100
1000
,
0001
0000
1000
0000
0010
0100
0010
0000
,
1000
0100
0010
0001
,
1000
0000
0010
0000
0100
0001
0100
0000
,
0001
0000
0010
0000
0100
1000
0100
0000
,
1000
0001
1000
0001
,
0100
0010
0100
0010
,
0110
0000
0000
1000
0010
1000
0000
0001
,
0100
0001
0100
0001
0000
1000
0001
0000
,
0010
0000
0001
0000
0100
0010
0000
0100
,
0010
1000
0001
1000
0000
0001
1000
0000
,
0020
0000
2030
0000
3100
0010
0000
0001
,
0000
0010
0100
1000
0000
0010
0100
0010
,
0200
0000
0302
0000
1003
0010
0000
0100
,
0000
0001
1000
0001
2000
0000
3000
0000
,
0001
0010
0000
0001
1000
0000
0010
1000
,
0000
0100
1000
0010
0100
0000
1001
0000
,
0001
0100
0000
0001
1000
0000
0100
1000
,
0000
0010
1000
0100
0010
0001
1000
0000
,
1001
0002
0203
0320
,
2030
3020
0230
0302
,
2003
0000
3200
0000
0302
0000
0103
0010
,
0000
0100
0010
0001
0000
1000
0001
0000
,
1001
0000
0000
0100
0010
1000
0000
0100
,
0010
0001
0010
0001
0000
0100
0001
1000
,
0000
0100
1000
0001
0000
0010
0001
1000
,
0000
0001
1000
0000
0010
0100
0010
0000
,
1010
1010
1100
1100
,
0101
0101
0011
0011
,
0010
0000
0000
0000
0001
0000
0000
0000
1000
0000
0000
0001
0000
0000
1000
0000
,
0010
0000
0100
0000
0001
1000
0001
0000
,
0010
0000
0000
0000
0100
0000
0000
0000
1000
0000
0000
0001
0000
0000
1000
0000
,
0100
0000
0010
0000
0001
1000
0001
0000
,
0100
0000
0000
0010
0000
0000
1000
0000
0010
0000
0000
0000
1010
0000
0000
0000
,
0001
0000
0000
0100
0000
0000
0001
0000
0010
0000
0000
0000
0011
0000
0000
0000
,
0001
0000
1000
0000
0010
1000
0100
0000
,
0010
0100
1000
0001
,
0100
0000
0001
0000
0010
0001
0100
0000
,
0010
1000
0001
0100
,
0001
1000
0010
0000
1000
0001
0010
0000
,
0001
1000
0100
0000
1000
0001
0100
0000
,
0010
0010
1000
1000
,
0001
0000
0001
0000
0100
0100
0100
0000
,
0110
0010
1000
0100
,
0001
0000
0100
0000
1000
0001
1000
0000
,
1001
0001
0100
1000
,
0100
0000
0001
0000
1000
0001
1000
0000
,
0100
1000
0001
0000
0100
0001
1000
0000
,
0010
1000
0001
0000
0010
0001
1000
0000
,
0001
0100
0010
1000
,
0100
0010
0001
1000
,
0002
0100
0000
0100
,
0000
0100
0000
0103
,
2000
0100
0000
0100
,
0000
3100
0220
0330
,
0001
0000
0100
0000
0001
0010
0100
0000
,
1000
0000
0010
0000
1000
0100
0010
0000
,
0001
0000
1000
0000
0010
0100
0001
0000
,
1000
0100
0010
0001
0010
0100
1000
0010
,
0100
0000
0000
0000
,
0000
0000
0000
0000
;
#NOTES:
     dance-double:
     :
     Easy:
     2:
     :
00000000
00000000
00000000
00000000
,
00000000
00000000
00000000
00000000
,
00000000
00000000
00000000
00000000
,
00000000
00000000
00000000
00000000
,
00000000
00000000
00000000
00000000
,
00000000
00000000
00000000
00000000
,
00001000
00000000
00000000
00000000
,
00010000
00000000
00000000
00000000
,
00001000
00000000
00000000
00000000
,
00000000
00000000
00000000
00000000
,
00010000
00000000
00000000
00000000
,
00001000
00000000
00000000
00000000
,
00010000
00000000
00000000
00000000
,
00000000
00000000
00000000
00000000
,
00001000
00000000
00000000
00000000
,
00000010
00000000
00000000
00000000
,
00000100
00000000
00000000
00000000
,
00000000
00000000
00000000
00000000
,
00010000
00000000
00000000
00000000
,
00001000
00000000
00000000
00000000
,
00010000
00000000
00000000
00000000
,
00001000
00000000
00000000
00000000
,
01000000
00000000
00000000
00000000
,
00010000
00000000
00000000
00000000
,
01000000
00000000
00000000
00000000
,
00000000
00000000
00000000
00000000
,
00010000
00000000
00000000
00000000
,
00010000
00000000
00000000
00000000
,
00100000
00000000
00000000
00000000
,
00100000
00000000
00000000
00000000
,
00001000
00000000
00000000
00000000
,
00010000
00000000
00000000
00000000
,
00011000
00000000
00000000
00000000
,
00000000
00000000
00000000
00000000
,
00010000
00000000
00000000
00000000
,
00000010
00000000
00000000
00000000
,
00010000
00000000
00000000
00000000
,
00000010
00000000
00000000
00000000
,
00001000
00000000
00000000
00000000
,
00000100
00000000
00000000
00000000
,
00010000
00000000
00010000
00000000
,
00010000
00000000
00000000
00000000
,
00001000
00000000
00001000
00000000
,
00001000
00000000
00000000
00000000
,
00100000
00000000
00100000
00000000
,
00100000
00000000
00000000
00000000
,
00010000
00000000
00000000
00000000
,
01000000
00000000
00000000
00000000
,
00001000
00000000
00000000
00000000
,
00010000
00000000
00000000
00000000
,
00001000
00000000
00000000
00000000
,
00010000
00000000
00000000
00000000
,
00001000
00000000
00000000
00000000
,
00000010
00000000
00000000
00000000
,
00000001
00000000
00000001
00000000
,
00000001
00000000
00000000
00000000
,
00001000
00000000
00001000
00000000
,
00001000
00000000
00000000
00000000
,
00000001
00000000
00000100
00000000
,
00001000
00000000
00000000
00000000
,
00001000
00000000
00010000
00000000
,
00100000
00000000
00000000
00000000
,
20000000
00000000
00000000
00000000
,
30000000
00000000
00000000
00000000
,
02000000
00000000
00000000
00000000
,
03000000
00000000
00000000
00000000
,
00020000
00000000
00000000
00000000
,
00030000
00000000
00000000
00000000
,
00002000
00000000
00000000
00000000
,
00003000
00000000
00000000
00000000
,
00011000
00000000
00000000
00000000
,
00000000
00000000
00000000
00000000
;
#NOTES:
     dance-double:
     :
     Medium:
     8:
     :
00000000
00000000
00000000
00000000
,
00000000
00000000
00000000
00000000
,
00000000
00000000
00000000
00000000
,
00000000
00000000
00000000
00000000
,
00000000
00000000
00000000
00000000
,
00000000
00000000
00000000
00000000
,
00001000
00010000
00001000
00000000
,
00010000
00001000
00010000
00000000
,
00000100
00001000
00000010
00000000
,
00000100
00000001
00000010
00000000
,
00000100
00001000
00000100
00001000
,
00000100
00010000
00001000
00001000
,
00100000
00010000
00100000
00010000
,
10000000
01000000
10000000
10000000
,
01000000
00010000
01000000
00010000
,
00001000
00010000
00001000
00001000
,
00000010
00000001
00000100
00000001
,
00000010
00000001
00001000
00000000
,
00000001
00000000
00000000
00000001
00000100
00000000
00000010
00000000
,
00001000
00001000
00001000
00000000
,
00000100
00000000
00000000
00000100
00010000
00000000
00001000
00000000
,
00010000
00010000
00010000
00000000
,
00001000
01000000
00010000
00100000
,
01000000
10000000
01000000
00010000
,
00001000
00010000
00001000
00000010
,
00000001
00000001
00000001
00000000
,
00001000
00000010
00000001
00000010
,
00001000
00000010
00000100
00001000
,
00010000
00100000
10000000
00100000
,
01000000
00010000
10000000
00000000
,
01000000
00100000
00010000
00100000
,
00001000
00010000
00001000
00000010
,
00000100
00000000
00001000
00000000
00000010
00000000
00000100
00000010
,
00000000
00000100
00000010
00000000
00002000
00000000
00003000
00000000
,
00000001
00000100
00000010
00001000
,
00010000
01000000
00100000
10000000
,
00100000
01000000
00010000
00100000
,
01000000
00000000
10000000
00000000
01000000
00100000
01000000
00000000
,
00010000
00001000
00000010
00000001
,
00001000
00000100
00000010
00000001
,
00000100
00000010
00001000
00000100
,
00010000
00001000
00100000
00010000
,
01000000
00100000
10000000
01000000
,
00100000
00010000
00100000
00000000
01000000
00000000
00000000
00000000
,
10000000
00100000
01000000
00010000
,
00100000
00001000
00010000
00010000
,
00001000
00000010
00001000
00000010
,
00000100
00001000
00000100
00000000
,
00010000
00001000
00010000
00001000
,
00010000
01000000
00010000
00000000
,
01000000
10000000
00100000
10000000
,
01000000
00010000
00001000
00000000
,
00010000
00001000
00000010
00000001
,
00001000
00000001
00001000
00000000
,
00000001
00000001
00000001
00000000
,
00000100
00000100
00000100
00000000
,
00001000
00001000
00001000
00000000
,
00010000
00010000
00010000
00000000
,
00100000
10000000
01000000
00000000
,
00100000
00010000
01000000
00000000
,
00100000
00010000
00001000
00000000
,
00010000
00001000
00000100
00000000
,
00000001
00000000
00000101
00000000
,
00001000
00000010
00001010
00000000
,
00000100
00000000
00010100
00000000
,
00010000
00001000
00011000
00000000
,
00001000
00000000
01000000
00000000
00010000
00100000
00010000
00000000
,
10000000
00100000
00010000
00001000
,
00010000
00000000
00000100
00000000
00001000
00000010
00001000
00000000
,
00000001
00000010
00001000
00010000
,
00011000
00000000
00000000
00000000
,
00000000
00000000
00000000
00000000
;
#NOTES:
     dance-double:
     :
     Hard:
     10:
     :
00000000
00000000
00000000
00000000
,
00000000
00000000
00000000
00000000
,
00000000
00000000
00000000
00000000
,
00000000
00000000
00000000
00000000
,
00000000
00000000
00000000
00000000
,
00000000
00000000
00000000
00000000
,
00001000
00000000
01000000
00000000
00010000
00100000
00010000
00000000
,
10000000
01000000
00100000
00010000
,
00100000
01000000
00010000
00001000
,
00000010
00000010
00000010
00000000
,
00000001
00000000
00001000
00000000
00000010
00000100
00000010
00000000
,
00001000
00000001
00000100
00001000
,
00010000
00000000
00100000
00000000
10000000
00010000
10000000
00000000
,
00100000
01000000
00010000
00100000
,
01000000
00000000
10000000
00000000
00010000
00100000
00010000
00000000
,
00100000
00000000
00001000
00000000
00010000
00000100
00010000
00000000
,
00000100
00001000
00000010
00001000
,
00000100
00000010
00000001
00000000
,
00001001
00000000
00000000
00001000
00000100
00001000
00000000
00000010
,
00010000
00000010
00010000
00001000
00000000
00010000
00001000
00000000
,
01000000
00000000
00010000
00000000
00100000
00010000
00000000
00100000
,
00010000
00000000
10000000
01000000
00000000
10000000
01000000
00000000
,
00200000
00000000
00320000
00000000
01030000
00100000
00000000
00010000
,
00000000
00001000
00000000
00000100
00000000
00000001
00001000
00000000
,
00000002
00000000
00000023
00000000
00000130
00010000
00000000
00001000
,
00000000
00010000
00001000
00000000
00022000
00000000
00033000
00000000
,
00010000
00001000
00000000
00010000
00001000
00000000
01000000
00010000
,
00000000
01000000
00010000
00000000
00100000
00000000
01000000
00000000
,
10000000
00100000
00000000
10000000
00100000
00000000
01000000
00010000
,
00000000
01000000
00010000
00000000
00100000
00001000
00010000
00000000
,
00011000
00020000
00032000
00003020
,
00000032
00000203
00002300
00023000
,
00230000
00000000
20300000
00000000
32000000
00000000
13000000
00010000
,
00000000
10000000
00010000
10000000
00000000
00010000
00100000
00000000
,
01100000
00000000
00000000
01000000
00100000
00010000
00000000
00100000
,
00001000
00000000
00010000
00001000
00000000
00010000
00000100
00001000
,
00000000
00000100
00001000
00000010
00000000
00001000
00000100
00000010
,
00000000
00000001
00001000
00000000
00000010
00000100
00000010
00000000
,
00001001
00000002
00000023
00002030
,
00023000
02030000
23000000
30010000
,
10010000
00000000
00000000
00000000
10000000
00000000
00000000
00000000
01000000
00000000
00000000
00100000
00000000
00000000
00010000
00000000
,
00000000
00100000
00001000
00000000
00010000
00000000
00000100
00000000
,
00001000
00000000
00000000
00000000
00000100
00000000
00000000
00000000
00000010
00000000
00000000
00000001
00000000
00000000
00000010
00000000
,
00000000
00000100
00001000
00000000
00000010
00000000
00000100
00000000
,
00001000
00000000
00000000
00010000
00000000
00000000
00001000
00000000
00010000
00000000
00000000
00000000
00001000
00000000
00000000
00000000
,
01000000
00000000
00000000
00010000
00000000
00000000
00100000
00000000
01000000
00000000
00000000
00000000
10000000
00000000
00000000
00000000
,
00100000
00000000
01000000
00000000
00010000
00100000
00010000
00000000
,
00100000
01000000
00010000
00001000
,
00000010
00000000
00000001
00000000
00001000
00000100
00001000
00000000
,
00000010
00000100
00000001
00000100
,
00001000
00010000
00001000
00000000
00010000
00001000
00010000
00000000
,
00001000
00010000
00001000
00000000
00010000
00001000
00010000
00000000
,
00001000
01000000
00010000
10000000
,
01000000
00000000
01000000
00000000
00100000
00010000
00100000
00000000
,
01100000
01000000
10000000
01000000
,
00010000
00000000
00001000
00000000
00010000
00001000
00010000
00000000
,
00100000
00010000
00001000
00000100
,
00000001
00000000
00001000
00000000
00000100
00000010
00000100
00000000
,
00001000
00000010
00001000
00000000
00000001
00000010
00000001
00000000
,
00000100
00000000
00001000
00010000
00001000
00000000
00010000
00000000
,
00001000
00000010
00001000
00010000
,
01000000
10000000
00010000
00100000
,
00020000
01000000
00000000
01030000
,
00001000
00010000
00000100
00001000
,
00000020
00000100
00000000
00000130
,
00000001
00001000
00002002
00003003
,
00000001
00000000
00000100
00000000
00001000
00010000
00001000
00000000
,
00010000
00000000
00100000
00000000
10000000
00010000
10000000
00000000
,
01000000
00000000
00010000
00000000
00001000
00010000
00001000
00000000
,
00000010
00000000
00000001
00000100
00000010
00010000
00001000
00000000
,
00011000
00000000
00000000
00000000
,
00000000
00000000
00000000
00000000
;
