
//----- song ID: joyf -----//
#TITLE:じょいふる;
#TITLETRANSLIT:Joyful;
#BANNER:Joyful.png;
#BACKGROUND:Joyful-bg.png;
#CDTITLE:./CDTitles/DDR GRAND PRIX.png;
#MUSIC:Joyful.ogg;
#SAMPLESTART:37.129;
#SAMPLELENGTH:15;
#BPMS:0=159;
#NOTES:
     dance-single:
     :
     Beginner:
     3:
     :
0000
0000
0000
0000
,
0000
0000
0000
0000
,
0000
0000
0000
0000
,
0000
0000
0000
0000
,
0000
0000
0000
0000
,
1000
0000
0000
0000
,
0000
0000
0000
0000
,
0001
0000
0000
0000
,
0000
0000
0000
0000
,
1000
0000
0000
0000
,
0100
0000
0000
0000
,
1000
0000
0000
0000
,
0000
0000
0000
0000
,
1000
0000
0000
0000
,
0010
0000
0000
0000
,
1000
0000
0000
0000
,
0000
0000
0000
0000
,
0001
0000
0000
0000
,
0010
0000
0000
0000
,
0001
0000
0000
0000
,
0000
0000
0000
0000
,
0001
0000
0000
0000
,
0100
0000
0000
0000
,
0001
0000
0000
0000
,
0000
0000
0000
0000
,
0001
0000
0010
0000
,
0001
0001
0010
0000
,
0100
0000
0000
0000
,
0000
0000
0000
0000
,
1000
0000
0010
0000
,
1000
1000
0010
0000
,
0100
0000
0000
0000
,
0000
0000
0000
0000
,
0010
0000
0010
0000
,
1000
0000
0000
0000
,
1000
0000
0100
0000
,
0010
0000
0000
0000
,
0010
0000
0010
0000
,
0001
0000
0000
0000
,
0001
0000
0001
0000
,
0001
0000
0000
0000
,
0010
0000
0001
0000
,
0100
0100
0100
0000
,
0010
0000
0000
0000
,
0000
0000
0000
0000
,
0010
0000
1000
0000
,
0100
0100
0100
0000
,
0010
0000
0000
0000
,
0000
0000
0000
0000
,
0010
0000
1000
0000
,
1000
0000
0000
0000
,
1000
0000
0010
0000
,
0001
0000
0000
0000
,
0010
0000
0001
0000
,
0001
0000
0000
0000
,
0001
0000
0010
0000
,
1000
0000
0000
0000
,
1001
0000
0000
0000
,
0010
0000
0010
0000
,
1000
0000
0000
0000
,
0100
0000
0000
0000
,
0110
0000
0000
0000
,
0100
0000
0100
0000
,
0001
0000
0000
0000
,
0010
0000
0000
0000
,
1001
0000
0000
0000
,
0000
0000
0000
0000
;
#NOTES:
     dance-single:
     :
     Easy:
     5:
     :
0000
0000
0000
0000
,
0000
0000
0000
0000
,
0000
0000
0000
0000
,
0000
0000
0000
0000
,
0000
0000
0000
0000
,
1001
0000
0000
0000
,
0000
0000
0000
0000
,
0110
0000
0000
0000
,
0000
0000
0000
0000
,
1000
0000
1000
0000
,
0010
1000
0010
0000
,
0100
0000
0100
0000
,
0001
0010
0001
0000
,
1000
0000
1000
0000
,
0001
0100
0001
0000
,
0010
0000
0010
0000
,
0100
1000
0100
0000
,
1000
0010
1000
0001
,
0200
0000
0300
0000
,
0001
0100
0001
0010
,
0200
0000
0300
0000
,
1000
0100
0001
0000
,
0001
0100
1000
0000
,
1001
0000
0110
0000
,
0001
1000
0001
0000
,
1000
0001
1000
0001
,
1000
0001
0100
0100
,
0020
0000
0000
0030
,
0100
0001
1000
0000
,
0001
1000
0001
1000
,
0001
1000
0100
0100
,
0020
0000
0000
0030
,
0100
0010
0001
0000
,
0100
0010
0100
0010
,
2000
0000
3000
0000
,
0001
1000
0001
1000
,
0200
0000
0300
0000
,
0010
0001
0100
0000
,
0010
1000
0100
0000
,
1001
0000
0110
0000
,
0001
1000
0001
0000
,
0010
0001
0100
0010
,
1000
0100
1000
1000
,
0020
0000
0000
0030
,
1000
0001
1000
0000
,
0100
0010
0001
0100
,
0010
1000
0001
0001
,
0020
0000
0000
0030
,
0001
1000
0001
0000
,
0010
0010
0001
0000
,
2000
0000
3000
0000
,
0010
0010
1000
0000
,
0002
0000
0003
0000
,
0100
0100
0010
0000
,
2000
0000
3000
0000
,
1001
0000
0110
0000
,
2002
0000
0000
3003
,
0001
0100
1000
0100
,
0001
0000
1001
0000
,
1000
0100
0001
0100
,
1000
0000
1001
0000
,
0001
0010
1000
0010
,
0001
0000
1001
0000
,
1000
0010
0001
0010
,
1000
0000
1001
0000
,
0110
0000
0000
0000
,
0000
0000
0000
0000
;
#NOTES:
     dance-single:
     :
     Medium:
     9:
     :
0000
0000
0000
0000
,
0000
0000
0000
0000
,
0000
0000
0000
0000
,
0000
0000
0000
0000
,
0000
0000
0000
0000
,
0001
1000
0000
0000
0000
0000
0000
0000
,
0000
0000
0000
0000
0000
0001
1000
0000
,
0100
0010
0000
0000
0000
0000
0000
0000
,
0000
0000
0000
0000
,
0001
0100
0001
0100
,
0010
0000
1000
0001
0000
1000
0001
0000
,
1000
0100
1000
0100
,
0010
0000
0001
1000
0000
0001
1000
0000
,
0001
0010
0001
0010
,
0100
0000
1000
0010
0000
0100
0010
0000
,
1000
0010
1000
0010
,
0100
0000
0001
0010
0000
0100
0010
0000
,
0002
1000
0100
0103
,
0010
1000
0010
2000
0000
0000
3000
0000
,
2000
0001
0100
3100
,
0010
0001
0010
0200
0000
0000
0300
0000
,
0100
0000
1000
0010
1000
0000
0001
0010
,
0001
0000
0100
0010
0000
0100
0010
0000
,
0110
0000
0110
0000
,
1001
1001
1001
0000
,
0010
0001
0100
0001
,
0010
0000
0100
0000
1000
0010
1000
0001
,
0010
0000
0001
0000
0100
0010
0000
0100
,
0001
1000
0001
2000
0000
0000
3000
0000
,
0010
1000
0100
1000
,
0010
0000
0100
0000
0001
0010
0001
1000
,
0010
0000
1000
0000
0100
0010
0000
0100
,
1000
0001
1000
0002
0000
0000
0003
0000
,
0020
0001
0100
0031
,
1000
0001
1000
0002
0000
0000
0003
0000
,
0200
0001
0010
0301
,
1000
0001
1000
0002
0000
0000
0003
0000
,
0010
0001
0100
0000
0010
1000
0100
0000
,
1000
0001
1000
0001
0000
1000
0001
0000
,
1001
0000
1001
0000
,
0110
0110
0110
0000
,
1000
0010
0100
0010
,
1000
0000
0100
0000
0010
0001
1000
0001
,
0010
0000
0001
0000
0100
0010
0000
1000
,
0010
1000
0001
2000
0000
0000
3000
0000
,
0001
0100
0010
0100
,
0001
0000
0010
0000
0100
1000
0001
1000
,
0100
0000
1000
0000
0010
0100
0000
0001
,
0100
0001
1000
0002
0000
0000
0003
0000
,
0010
0010
0011
0011
,
0001
0100
0001
0100
0010
0000
0100
0000
,
0010
0010
1010
1010
,
1000
0100
1000
0100
0010
0000
0100
0000
,
1000
1000
1010
1010
,
0100
0001
0100
0001
0010
0000
0001
0000
,
2000
3100
0002
0103
,
2002
0000
0000
3003
,
1000
0000
0100
0000
0010
0001
0010
0000
,
0001
0000
1000
0001
0000
0001
1000
0000
,
0001
0000
0100
0000
0010
1000
0010
0000
,
1000
0000
0001
1000
0000
1000
0001
0000
,
0100
0000
0010
0000
1000
0001
1000
0000
,
0001
0000
0010
0100
0000
0100
1000
0000
,
0010
0000
0100
0000
0001
1000
0001
0000
,
1000
0000
0010
0100
0000
0100
0001
0000
,
1001
0000
0000
0000
,
0000
0000
0000
0000
;
#NOTES:
     dance-single:
     :
     Hard:
     12:
     :
0000
0000
0000
0000
,
0000
0000
0000
0000
,
0000
0000
0000
0000
,
0000
0000
0000
0000
,
0000
0000
0000
0000
,
0001
1001
0000
0000
0000
0000
0000
0000
,
0000
0000
0000
0000
0000
0100
0010
0001
,
1000
1001
0000
0000
0000
0000
0000
0000
,
0000
0000
0000
0000
0000
0010
0100
0000
,
0001
0010
0001
0010
0100
1000
0100
1000
,
0001
0010
0100
1100
0000
1010
0000
0000
,
1000
0010
1000
0010
0100
0001
0100
0001
,
1000
0010
0100
0101
0000
0011
0000
0000
,
0010
0001
0010
0001
0100
0010
0100
0010
,
1000
0100
0010
0011
0000
1001
0000
0000
,
0010
1000
0010
1000
0100
0010
0100
0010
,
0001
0100
0010
1010
0000
1001
0000
0000
,
1001
0000
0010
1000
0100
1000
0100
1000
,
0100
0001
0100
2000
0000
0010
3010
0000
,
1001
0000
0010
0001
0100
0010
1000
0100
,
0010
1000
0010
0002
0000
0100
0103
0000
,
1001
0000
0001
0100
0010
0000
1000
0100
,
0010
0001
0010
0001
0000
0001
1000
0000
,
1001
0000
0110
0000
,
1001
0000
0110
0000
1001
0010
0100
0000
,
0001
0010
0100
1000
0001
0010
0100
1000
,
0001
0010
0100
1000
0100
0001
0100
1000
,
0010
0100
0001
0100
0010
1000
0100
0010
,
0001
0100
0010
1000
0010
0100
0001
0000
,
1000
0100
0010
0001
1000
0100
0010
0001
,
1000
0100
0010
0001
0010
1000
0010
0001
,
0100
0010
1000
0010
0100
0001
0010
0100
,
1000
0010
0100
0001
0100
0010
1000
0000
,
0200
0001
0010
1300
,
0010
0100
0001
1000
0000
0001
1000
0000
,
0200
0001
0010
1300
,
0100
0010
0001
1000
0000
0010
0100
0000
,
0010
1000
0100
0000
0010
0001
0100
0000
,
0010
0100
0010
0100
0000
0100
0010
0000
,
1001
0000
0110
0000
,
1001
0000
0110
0000
1001
0100
0010
0000
,
0001
0100
0010
1000
0001
0100
0010
1000
,
0001
0100
0010
1000
0010
0001
0010
1000
,
0100
0010
0001
0010
0100
1000
0010
0100
,
0001
0010
0100
1000
0100
0010
0001
0000
,
1000
0010
0100
0001
1000
0010
0100
0001
,
1000
0010
0100
0001
0100
1000
0100
0001
,
0010
0100
1000
0100
0010
0001
0100
0010
,
1000
0100
0010
0001
0010
0100
1000
0000
,
1010
1010
1100
1100
,
0010
0001
0100
1000
0100
0001
0010
0000
,
0011
0011
0101
0101
,
0010
1000
0100
0001
0100
1000
0010
0000
,
0110
0110
1001
1001
,
0100
1000
0010
0100
0001
0010
0100
0000
,
1000
0000
0000
0010
0000
0000
0010
0000
0001
0000
0000
0100
0000
0000
0100
0000
,
2000
0000
0002
3003
,
1000
0010
0001
0010
1000
0100
0010
0001
,
0010
1000
0010
0001
1000
0100
0110
0000
,
0001
0010
1000
0010
0001
0100
0010
1000
,
0010
0001
0010
1000
0001
0100
0110
0000
,
0001
0100
1000
0001
0010
1000
0001
0100
,
0001
0010
0100
1000
0010
0100
0101
0000
,
1000
0100
0001
1000
0010
0001
1000
0100
,
1000
0010
0100
0001
0010
0100
1100
0000
,
1001
0000
0000
0000
,
0000
0000
0000
0000
;
#NOTES:
     dance-double:
     :
     Easy:
     5:
     :
00000000
00000000
00000000
00000000
,
00000000
00000000
00000000
00000000
,
00000000
00000000
00000000
00000000
,
00000000
00000000
00000000
00000000
,
00000000
00000000
00000000
00000000
,
00011000
00000000
00000000
00000000
,
00000000
00000000
00000000
00000000
,
00001001
00000000
00000000
00000000
,
00000000
00000000
00000000
00000000
,
00000010
00001000
00000010
00000000
,
00000100
00000001
00000100
00000000
,
00000001
00000010
00000001
00000000
,
00001000
00000100
00001000
00000000
,
00000100
00010000
00000100
00000000
,
00010000
00001000
00010000
00000000
,
00001000
00100000
00001000
00000000
,
01000000
00010000
01000000
00000000
,
00100000
10000000
00100000
10000000
,
02000000
00000000
03000000
00000000
,
00100000
00010000
00100000
00001000
,
00020000
00000000
00030000
00000000
,
00000100
00001000
00000100
00001000
,
00000020
00000000
00000030
00000000
,
00001000
00000000
00000001
00000000
,
00001000
00000001
00001001
00000000
,
00000001
00000100
00000001
00000100
,
00001000
00010000
00001000
00000000
,
00010000
00100000
00010000
00100000
,
10000000
00010000
10000000
00000000
,
10000000
01000000
10000000
01000000
,
00010000
00001000
00010000
00000000
,
00001000
00000010
00001000
00000010
,
00000001
00001000
00000001
00000000
,
00000010
00000001
00000100
00000010
,
00001000
00000100
00010000
00000000
,
00001000
00010000
00001000
00100000
,
00010000
01000000
00100000
00000000
,
10000000
01000000
00010000
00000000
,
00010000
00001000
00000010
00000000
,
00000110
00000000
00000110
00000000
,
00001000
00000001
00001001
00000000
,
00000001
00000010
00000001
00000010
,
00001000
00010000
00001000
00000000
,
00010000
01000000
00010000
01000000
,
10000000
00010000
10000000
00000000
,
10000000
00100000
10000000
00100000
,
00010000
00001000
00010000
00000000
,
00001000
00000100
00001000
00000100
,
00000001
00001000
00000001
00000000
,
00000100
00000100
00000010
00000010
,
00000200
00000000
00000300
00000000
,
00001000
00001000
00010000
00010000
,
00002000
00000000
00003000
00000000
,
00100000
00100000
01000000
01000000
,
00200000
00000000
00300000
00000000
,
10010000
00000000
01100000
00000000
,
20020000
00000000
00000000
30030000
,
10000000
01000000
00010000
00000000
,
00010000
00001000
00000010
00000000
,
00000001
00000100
00001000
00000000
,
00001000
00010000
00100000
00000000
,
10000000
00100000
00010000
00000000
,
00010000
00001000
00000100
00000000
,
00000001
00000010
00001000
00000000
,
00001000
00010000
01000000
00000000
,
01100000
00000000
00000000
00000000
,
00000000
00000000
00000000
00000000
;
#NOTES:
     dance-double:
     :
     Medium:
     9:
     :
00000000
00000000
00000000
00000000
,
00000000
00000000
00000000
00000000
,
00000000
00000000
00000000
00000000
,
00000000
00000000
00000000
00000000
,
00000000
00000000
00000000
00000000
,
00001000
00010000
00000000
00000000
00000000
00000000
00000000
00000000
,
00000000
00000000
00000000
00000000
,
00010000
00001000
00000000
00000000
00000000
00000000
00000000
00000000
,
00000000
00000000
00000000
00000000
,
00001000
00010000
00100000
10000000
,
00010000
00000000
10000000
00010000
00000000
10000000
00010000
00000000
,
10000000
01000000
00100000
00010000
,
00100000
00000000
00001000
00010000
00000000
00001000
00010000
00000000
,
00000100
00001000
00000010
00000100
,
00000001
00000000
00001000
00000001
00000000
00001000
00000001
00000000
,
00000100
00000010
00001000
00000100
,
00010000
00000000
00001000
00010000
00000000
00001000
00010000
00000000
,
00002000
00010000
00100000
00103000
,
00010000
00000000
00100000
00000000
01000000
00010000
00001000
00000000
,
00020000
00001000
00000010
00030010
,
00001000
00000000
00000010
00000000
00000100
00001000
00010000
00000000
,
00100000
00000000
10000000
01000000
00100000
00000000
01000000
00100000
,
00010000
00000000
00100000
00001000
00000000
00010000
00001000
00000000
,
00011000
00000000
00011000
00000000
,
00011000
00011000
00011000
00000000
,
00001000
00000010
00000001
00000100
,
00001000
00000000
00000100
00000000
00000001
00000010
00000100
00001000
,
00000100
00000100
00010000
00010000
,
00001000
00010000
00001000
00020000
00000000
00000000
00030000
00000000
,
00010000
00100000
10000000
01000000
,
00010000
00000000
01000000
00000000
10000000
00100000
01000000
00010000
,
01000000
01000000
00001000
00001000
,
00010000
00001000
00010000
00002000
00000000
00000000
00003000
00000000
,
00002000
00003020
00000032
00002003
,
00003100
00000010
00000100
00002000
00000000
00000000
00003000
00000000
,
00000020
00000230
00002300
00023000
,
00130000
01000000
00100000
20000000
00000000
00000000
30000000
00000000
,
02000000
03200000
00302000
00023000
,
00031000
00010000
00000010
00001000
00000000
00000100
00001000
00000000
,
00001001
00000000
00001001
00000000
,
00000110
00000110
00000110
00000000
,
00000001
00000010
00001000
00010000
,
00001000
00000000
00010000
00000000
00100000
10000000
00010000
00000000
,
10000000
01000000
00010000
00001000
,
00010000
00000000
00001000
00000000
00000100
00000001
00001000
00000000
,
00000001
00000100
00001000
00010000
,
00001000
00000000
00010000
00000000
01000000
10000000
00010000
00000000
,
10000000
00100000
00010000
00001000
,
00010000
00000000
00001000
00000000
00000010
00000001
00001000
00000000
,
00000001
00000100
00000001
00000000
00001000
00000100
00001000
00000000
,
00000100
00010000
00001000
00010000
00002000
00000000
00003000
00000000
,
01000000
00010000
01000000
00000000
00010000
00100000
00010000
00000000
,
10000000
01000000
00100000
01000000
00200000
00000000
00300000
00000000
,
00010000
01000000
00100000
00000000
01000000
00001000
00010000
00000000
,
00000100
00010000
00000100
00001000
00000010
00000000
00000000
00000000
,
00000101
00000000
00001100
00000000
,
00022000
00000000
00000000
00033000
,
00001000
00100000
00000000
00000000
00010000
01000000
00000000
00000000
,
00100000
01000000
00000000
00010000
00000000
10000000
00000000
00000000
,
01000000
00100000
00000000
00000000
00010000
00100000
00000000
00000000
,
00001000
00010000
00000000
00000100
00000000
00001000
00000000
00000000
,
00000010
00000100
00000000
00000000
00000001
00001000
00000000
00000000
,
00000100
00000010
00000000
00000001
00000000
00000100
00000000
00000000
,
00001000
00010000
00000000
00000000
00100000
10000000
00000000
00000000
,
01000000
00100000
00000000
00001000
00000000
00010000
00000000
00000000
,
00011000
00000000
00000000
00000000
,
00000000
00000000
00000000
00000000
;
#NOTES:
     dance-double:
     :
     Hard:
     12:
     :
00000000
00000000
00000000
00000000
,
00000000
00000000
00000000
00000000
,
00000000
00000000
00000000
00000000
,
00000000
00000000
00000000
00000000
,
00000000
00000000
00000000
00000000
,
00000001
00001001
00000000
00000000
00000000
00000000
00000000
00000000
,
00000000
00000000
00000000
00000000
00000000
00000001
00000100
00001000
,
00010000
00011000
00000000
00000000
00000000
00000000
00000000
00000000
,
00000000
00000000
00000000
00000000
00000000
00010000
10000000
00000000
,
00010000
00100000
00010000
00100000
01000000
10000000
01000000
10000000
,
00100000
00010000
00100000
00010000
00000000
00010000
00001000
00000000
,
00000010
00000001
00000010
00000001
00001000
00000100
00001000
00000100
,
00001000
00000010
00000100
00001000
00000000
00001000
00010000
00000000
,
00100000
10000000
00100000
10000000
00010000
00100000
00010000
00100000
,
01000000
00010000
00001000
00000010
00000000
00000010
00000100
00000000
,
00001000
00000001
00001000
00000001
00000100
00000010
00000100
00000010
,
00000100
00001000
00010000
00001000
00000000
00001000
00010000
00000000
,
00011000
00000000
01000000
00010000
00100000
00000000
01000000
10000000
,
00100000
01000000
00100000
02000000
00000000
00100000
03100000
00000000
,
01100000
00000000
10000000
01000000
00010000
00000000
00001000
00000010
,
00000001
00000000
00000010
00000002
00000000
00000100
00000103
00000000
,
00001001
00000000
00000001
00000100
00001000
00000000
00010000
00100000
,
00010000
00100000
10000000
00100000
00000000
10000000
00010000
00000000
,
10010000
00000000
01100000
00000000
,
00010000
00000000
00001000
00000000
00011000
00000000
00001000
00010000
,
00001000
00000010
00000100
00010000
00001000
00000010
00000100
00010000
,
00001000
00000010
00000100
00010000
00001000
00000100
00000001
00000100
,
00000010
00010000
00000010
00010000
00001000
00100000
00010000
01000000
,
00010000
00100000
01000000
10000000
00000000
10000000
00010000
00000000
,
00100000
00001000
00010000
01000000
00100000
00001000
00010000
01000000
,
00100000
00001000
00010000
01000000
10000000
01000000
00010000
01000000
,
00100000
00001000
00010000
00000100
00001000
00000010
00000100
00000001
,
00000010
00000100
00001000
00000001
00000000
00000001
00000100
00000000
,
00000002
00000010
00000100
00001003
,
00000001
00000100
00001000
00020000
00000000
00000000
00030000
00000000
,
00200000
10000000
01000000
10300000
,
00010000
00100000
01000000
10000000
00000000
00010000
10000000
00000000
,
01000000
00100000
00010000
00000000
01000000
00100000
00010000
00000000
,
00001000
00010000
00000010
00001000
00000000
00000100
00000010
00000000
,
00001001
00000000
00000110
00000000
,
00001000
00000000
00010000
00000000
00011000
00000000
00010000
00001000
,
00010000
00100000
01000000
00001000
00010000
00100000
01000000
00001000
,
00010000
00100000
01000000
00001000
00010000
01000000
10000000
01000000
,
00100000
00001000
00100000
00001000
00010000
00000010
00001000
00000100
,
00001000
00000010
00000100
00000001
00000000
00000001
00001000
00000000
,
00000010
00010000
00001000
00000100
00000010
00010000
00001000
00000100
,
00000010
00010000
00001000
00000100
00000001
00000100
00001000
00000100
,
00000010
00010000
00001000
01000000
00010000
00100000
01000000
10000000
,
00100000
01000000
00010000
10000000
00000000
10000000
01000000
00000000
,
00100000
00100000
00110000
00110000
,
10000000
01000000
00010000
00001000
00000010
00000001
00001000
00000000
,
00000010
00000010
00001010
00001010
,
00000001
00000100
00001000
00010000
00100000
10000000
00010000
00000000
,
01000000
01000000
01100000
01100000
,
10000000
00100000
00010000
00001000
00000100
00000001
00001000
00000000
,
00000001
00000000
00000000
00000100
00000000
00000000
00000010
00000000
00001000
00000000
00000000
00000100
00000000
00000000
00010000
00000000
,
00002000
00000000
00020000
00033000
,
00001000
00010000
01000000
00100000
00001000
00010000
00100000
01000000
,
00010000
10000000
01000000
00100000
00010000
00100000
01000000
00000000
,
10000000
01000000
00010000
00001000
01000000
00100000
00010000
00001000
,
00000100
00000010
00010000
00000100
00001000
00000010
00000100
00000000
,
00000001
00000010
00001000
00010000
00000100
00001000
00000001
00000100
,
00001000
00010000
00100000
01000000
00010000
00100000
01000000
00000000
,
10000000
01000000
00100000
01000000
00010000
00001000
00000010
00000100
,
00000010
00000001
00000100
00000010
00001000
00000100
00010000
00000000
,
00011000
00000000
00000000
00000000
,
00000000
00000000
00000000
00000000
;
