
//----- song ID: jokr -----//
#TITLE:JOK3R;
#ARTIST:Yuta Imai;
#BANNER:JOK3R.png;
#BACKGROUND:JOK3R-bg.png;
#CDTITLE:./CDTitles/DANCERUSH STARDOM.png;
#MUSIC:JOK3R.ogg;
#SAMPLESTART:26.4;
#SAMPLELENGTH:15;
#BPMS:0=150;
#BGSTAGE:17;
#NOTES:
     dance-single:
     :
     Beginner:
     3:
     :
0000
0000
0000
0000
,
0000
0000
0000
0000
,
0000
0000
0000
0000
,
0000
0000
0000
0000
,
0000
0000
0000
0000
,
0001
0000
0001
0000
,
0000
0000
0000
0000
,
1000
0000
1000
0000
,
0000
0000
0000
0000
,
0001
0000
0001
0000
,
0010
0000
0000
0000
,
0010
0000
0010
0000
,
1000
0000
0000
0000
,
1000
0000
1000
0000
,
0010
0000
0000
0000
,
0010
0000
0010
0000
,
0001
0000
0000
0000
,
1001
0000
0000
0000
,
1001
0000
0000
0000
,
1001
0000
0000
0000
,
1001
0000
0000
0000
,
0001
0000
0010
0000
,
0001
0000
0000
0000
,
0010
0000
0010
0000
,
1000
0000
0000
0000
,
1000
0000
1000
0000
,
0010
0000
0000
0000
,
1000
0000
0010
0000
,
0001
0000
0000
0000
,
0001
0000
0001
0000
,
0010
0000
0000
0000
,
0001
0000
0010
0000
,
1000
0000
0000
0000
,
1001
0000
0000
0000
,
0000
0000
0000
0000
,
1001
0000
0000
0000
,
0000
0000
0000
0000
,
1000
0000
1000
0000
,
0100
0000
0000
0000
,
0001
0000
0001
0000
,
0100
0000
0000
0000
,
1001
0000
0000
0000
,
0000
0000
0000
0000
,
0002
0000
0000
0000
,
0003
0000
0000
0000
,
0020
0000
0000
0000
,
0030
0000
0000
0000
,
1000
0000
1000
0000
,
1000
0000
0000
0000
,
0010
0000
0010
0000
,
0010
0000
0000
0000
,
1001
0000
0000
0000
,
0000
0000
0000
0000
,
0001
0000
0010
0000
,
0001
0000
0000
0000
,
0001
0000
0010
0000
,
1000
0000
0000
0000
,
1000
0000
0010
0000
,
1000
0000
0000
0000
,
1000
0000
0010
0000
,
0001
0000
0000
0000
,
1001
0000
0000
0000
,
0000
0000
0000
0000
,
0001
0000
0001
0000
,
1000
0000
0000
0000
,
1000
0000
1000
0000
,
0001
0000
0000
0000
,
0001
0000
0100
0000
,
0010
0000
0000
0000
,
1001
0000
0000
0000
,
0000
0000
0000
0000
;
#NOTES:
     dance-single:
     :
     Easy:
     6:
     :
0000
0000
0000
0000
,
0000
0000
0000
0000
,
0000
0000
0000
0000
,
0000
0000
0000
0000
,
0000
0000
0000
0000
,
1001
0000
1001
0000
,
0000
0001
0100
0010
,
1001
0000
1001
0000
,
0000
1000
0100
0010
,
0001
0001
0001
0000
,
0100
0100
0100
0000
,
0010
0010
0010
0000
,
1000
1000
1000
0000
,
1000
0001
1000
0001
,
1000
0001
1000
0000
,
0001
0001
1000
1000
,
0002
0000
0000
0003
,
1001
0000
0110
0000
,
1001
0000
0110
0000
,
1001
0000
0110
0000
,
1001
0000
0110
0000
,
1000
0010
1000
0000
,
0001
0100
0001
0000
,
1000
0100
1000
0000
,
0002
0000
0000
0003
,
0001
0010
0001
0010
,
0001
1000
0001
0000
,
1000
0010
1000
0010
,
1000
0001
1000
0000
,
0001
0100
0010
0000
,
1000
0100
0010
0000
,
0001
1000
0001
1000
,
0002
0000
0000
0003
,
1001
0000
0110
0000
,
0001
1000
0010
0000
,
1000
0001
1000
0000
,
0001
1000
0001
0000
,
1000
0001
0100
0010
,
1000
0001
1000
0000
,
0001
1000
0100
0010
,
0002
0000
0000
0003
,
1001
0000
0000
0000
,
0000
0000
0000
0000
,
0110
0000
1001
0000
,
0001
0100
0010
0000
,
0110
0000
1001
0000
,
1000
0100
0010
0000
,
0001
0100
1000
0100
,
0001
0000
1001
0000
,
1000
0100
0001
0100
,
1000
0000
0000
0000
,
1001
0000
0000
0000
,
0000
0000
0000
0000
,
1000
0010
0100
0010
,
1000
0001
0010
0000
,
0001
0100
0010
0100
,
0001
1000
0001
0000
,
0001
0100
0010
0100
,
0001
1000
0100
0000
,
1000
0010
0100
0010
,
1000
0001
1000
0000
,
0002
0000
0000
0003
,
2000
0000
0000
3000
,
0001
0010
0100
1000
,
0010
0100
0001
0001
,
1000
0100
0010
0001
,
0100
0010
1000
1000
,
0001
0000
1001
0000
,
1000
0001
1000
0000
,
1001
0000
0000
0000
,
0000
0000
0000
0000
;
#NOTES:
     dance-single:
     :
     Medium:
     12:
     :
0000
0000
0000
0000
,
0000
0000
0000
0000
,
0000
0000
0000
0000
,
0000
0000
0000
0000
,
0000
0000
0000
0000
,
1001
0000
0000
0001
2000
0000
0000
0000
,
3000
0001
0100
0010
1000
0001
1000
0000
,
1001
0000
0000
1000
0002
0000
0000
0000
,
0003
1000
0100
0010
0001
1000
0001
0000
,
1000
0100
0010
0000
0001
1000
0001
1000
,
0000
0001
0100
0000
0010
1000
0001
1000
,
0000
0001
0010
0001
0000
1000
0100
1000
,
0001
0100
0010
0000
1010
0000
1001
0000
,
0001
0100
1000
0100
0001
0100
1000
0100
,
0001
0010
1000
0010
0001
0010
1000
0010
,
0001
0000
0001
1000
0000
1000
0010
0000
0010
0100
0000
0100
,
0002
0000
0000
0003
,
0011
1100
0011
1100
,
0011
1100
0011
1100
,
1010
0101
1010
0101
,
1010
0101
1010
0101
,
0001
0100
0010
1000
0100
0001
0100
1000
,
0010
0100
0001
0010
0001
1000
0010
1000
,
0100
0001
0100
1000
0100
0001
0100
1000
,
0002
0000
0000
0003
,
1000
0010
0100
0001
1000
0100
0010
0001
,
1000
0010
0100
0010
1000
0001
0100
0000
,
0001
0010
0001
0100
0010
1000
0100
0010
,
0001
0010
1000
0010
0001
0000
1001
0000
,
1000
1010
1000
1010
,
0001
0011
0001
0011
,
1000
0001
0100
0010
1000
0001
0010
0100
,
2000
0000
0000
3000
,
1001
0000
0110
0000
0001
0010
1000
0010
,
0001
0100
1000
0100
0002
0000
1003
0000
,
1000
0100
1000
0010
0100
0001
0010
0100
,
1000
0001
0100
0001
1000
0000
1001
0000
,
0001
0100
0010
0000
1000
0100
0001
0000
,
0100
1000
0010
0001
0020
0000
1030
0000
,
0001
0010
0001
0100
0010
1000
0100
0010
,
0002
0000
0000
0003
,
1001
0000
0000
0000
,
0000
0000
0000
0000
,
2000
0000
0000
3100
0200
0000
0000
0000
,
0300
0110
0011
1001
,
0002
0000
0000
0103
0200
0000
0000
0000
,
0300
0110
1010
1001
,
1000
0010
0100
0010
1000
0100
0010
0100
,
1000
0010
0100
0001
1000
0100
0010
0001
,
0100
0010
0100
0001
0010
0001
0100
0010
,
2000
0000
0000
3000
,
1001
0000
0000
0000
,
0000
0000
1000
1000
0001
0001
1000
0000
,
0001
0100
0010
1000
0100
0010
0001
1000
,
0001
0010
1000
0010
0001
1000
0100
0000
,
1000
0100
0010
0001
0100
0010
1000
0001
,
1000
0010
0001
0010
1000
0001
0100
0000
,
0001
0100
0010
0001
0010
1000
0001
0100
,
0010
1000
0010
0100
1000
0100
0001
0000
,
1000
0100
0010
1000
0010
0001
1000
0100
,
0010
0001
0010
0100
0001
0100
1000
0000
,
0002
0023
0230
2300
,
3200
0320
0032
1003
,
0001
0100
0001
0100
0001
0010
0001
0010
,
0100
1000
0010
1000
0100
0000
1001
0000
,
1000
0100
1000
0100
1000
0010
1000
0010
,
0100
0001
0010
0001
0100
0000
1001
0000
,
0001
0100
1000
0100
0001
0010
1000
0010
,
0001
1000
0001
0000
2000
0000
3001
0000
,
1001
0000
0000
0000
,
0000
0000
0000
0000
;
#NOTES:
     dance-single:
     :
     Hard:
     15:
     :
0000
0000
0000
0000
,
0000
0000
0000
0000
,
0000
0000
0000
0000
,
0000
0000
0000
0000
,
0000
0000
0000
0000
,
1001
0000
0000
0000
0000
0000
0001
0010
0200
0000
0000
0000
0000
0000
0000
0000
,
0300
1000
0100
0001
0100
1000
0001
0000
,
1001
0000
0000
0000
0000
0000
1000
0100
0020
0000
0000
0000
0000
0000
0000
0000
,
0030
0000
0001
1000
0001
0000
0100
0000
0020
0000
0000
0000
1030
0000
1000
0001
,
1000
0000
0100
0000
0001
0000
0100
0000
0010
0001
1000
0000
0001
0000
1001
0000
,
0000
0000
0001
0000
0100
0000
1000
0000
0100
0010
1000
0000
0001
0000
1001
0000
,
0000
0000
1000
0010
0100
0000
0001
0000
0000
0000
0001
0010
0100
0000
1000
0000
,
0001
0000
0101
0000
0100
0000
0110
0000
0010
1000
0010
0100
0010
0000
0000
0000
,
1000
0100
1000
0000
0100
0010
0100
0000
0010
0001
0010
0000
0001
1000
0001
0000
,
1000
0010
1000
0000
0010
0100
0010
0000
0100
0001
0100
0000
0001
1000
0001
0000
,
1000
0010
0100
0001
0010
0100
1000
0010
0100
0001
0010
0100
,
1000
0000
0010
0100
0010
0000
0100
0000
0010
0000
0010
0000
0110
0000
1000
0001
,
1000
0100
0010
0000
0100
0010
0001
0000
1000
0100
0010
0000
0100
0010
0001
0000
,
1000
0100
0010
0000
0100
0010
0001
0000
1000
0000
0010
0000
1010
0000
0101
0000
,
0001
0100
0010
0000
0100
0010
1000
0000
0001
0100
0010
0000
0100
0010
1000
0000
,
0001
0100
0010
0000
0100
0010
1000
0000
0001
0100
0010
0000
1000
0000
0000
0000
,
0001
0010
0100
0000
1000
0010
0100
0000
0001
0010
0100
0000
1000
0010
0100
0000
,
0001
0100
0010
0000
1000
0100
0010
0000
0001
0100
0010
0000
1000
0100
0000
0010
,
0001
0000
0100
0010
0000
0100
0010
0000
1000
0000
0100
0000
0001
0000
0100
0000
,
1000
0000
0001
1000
0001
0000
1000
0000
0100
0000
0010
0000
0110
0000
0001
1000
,
0001
0000
1000
0010
0000
0100
0001
0000
1000
0000
0100
0000
0010
0001
0000
0001
,
1000
0000
0001
0100
0000
0010
1000
0000
0001
0000
0010
0001
1000
0001
0000
0001
,
1000
0000
0001
0010
0000
0100
1000
0000
0001
0000
0100
0000
0010
1000
0000
1000
,
0001
0000
1000
0100
0010
0000
0001
1000
0001
0000
0100
0000
1010
0000
1001
0000
,
0001
0000
0000
0001
0010
0000
0001
0000
0100
0000
0001
0000
0010
0001
0000
0000
,
1000
0000
0000
1000
0010
0000
1000
0000
0100
0000
1000
0010
1000
0000
0100
1000
,
0100
0000
0010
0001
0100
0000
0010
0000
1000
0000
0010
0100
0001
0000
0010
0000
,
0100
0000
0000
1100
0000
0000
0011
0000
1001
0000
1000
0001
1000
0000
0001
0000
,
1000
0000
0100
0010
0001
0000
0000
0000
0011
0000
1100
0000
0001
1000
0001
1000
,
0001
1000
1010
1000
1001
1000
1100
0000
,
1001
0000
0001
1000
0000
0010
0100
0000
1001
0000
1000
0000
0001
0010
0000
0100
,
1000
0000
0001
0000
0101
0000
0100
0000
0110
0000
0010
0000
1010
0000
1000
0001
,
1000
0000
0001
0000
0011
0000
0010
0000
1100
0000
0100
0000
1000
0001
1000
0001
,
1000
0001
0101
0100
1010
0010
1001
0000
,
1000
0000
0010
0000
0100
0000
0001
0000
1000
0100
0010
0001
1000
0010
0100
0001
,
2000
0000
0000
3001
,
1001
0000
0000
0000
,
0000
0000
0000
0000
,
0002
0000
0000
0000
0003
0000
0010
0100
2000
0000
0000
0000
0000
0000
0000
0000
,
3000
1100
0011
1001
,
2000
0000
0000
0000
3000
0000
0100
0010
0002
0000
0000
0000
0000
0000
0000
0000
,
0003
0000
0000
0000
0011
0000
0000
0000
1100
0000
0000
0000
1001
0000
0001
1000
,
0001
0000
0000
0001
0100
0000
0010
0000
1010
0000
0000
1000
0100
0000
0010
0000
,
0011
0000
0000
0001
1000
0000
0100
0000
0110
0000
0000
0010
0001
0000
0100
0000
,
0010
1000
0100
0000
0010
0001
0100
0000
0010
1000
0100
0000
0010
0001
0100
0000
,
0010
0000
1000
0001
1000
0000
0001
0000
1000
0000
0010
0000
0001
0000
0010
0000
,
1000
0000
0100
1000
0000
0100
1000
0000
0001
0000
0010
0001
0010
0000
0001
0010
,
0001
0000
0100
0010
1000
0000
0100
0000
0110
0000
0011
0000
1001
0000
1000
0000
,
0001
0000
0100
0010
0000
1000
0010
0000
1000
0000
0100
0010
0100
0000
1000
0001
,
1000
0000
0010
0100
0010
0000
1000
0000
1100
0000
0100
0000
0110
0000
0010
0000
,
0001
0000
0101
0000
0100
0000
0010
0000
1010
0000
1000
0000
1001
0000
0001
1000
,
0001
0000
0010
0000
0100
0000
1000
0000
1100
0000
0001
0000
0101
0000
1000
0001
,
1000
0000
0100
0000
0010
0000
0001
0000
1001
0000
1000
0000
1010
0000
0010
0100
,
0001
0000
1000
0000
1100
0000
0100
0000
0110
0000
0010
0001
0010
0000
1001
0000
,
0001
0100
0001
0000
1000
0100
1000
0000
0001
0000
0000
0010
0100
0000
0000
1000
,
0001
0000
0100
0000
0010
1000
0010
0000
1000
0000
0001
1000
0001
0000
0000
0000
,
2000
3200
0302
0203
,
2300
0000
0000
0000
3020
0000
0000
0000
0031
0000
0010
0000
1000
0000
0001
1000
,
0001
0000
1000
0000
1010
0000
0001
0000
0101
0000
1000
0000
1010
0000
0001
0100
,
0001
1000
1010
1001
0001
0010
0011
1001
,
1000
0000
0100
0000
0001
0000
0100
0000
1000
0000
0001
0000
0011
0000
0010
0100
,
1000
0000
0001
0000
0011
0000
0010
0000
0110
0000
0100
0000
1100
0000
1000
0001
,
1000
0000
0010
0100
0010
0000
1000
0000
0100
0000
0010
0000
0001
0000
0000
0001
,
1000
0010
0001
0010
2000
0000
3001
1000
,
1001
0000
0000
0000
,
0000
0000
0000
0000
;
#NOTES:
     dance-double:
     :
     Easy:
     6:
     :
00000000
00000000
00000000
00000000
,
00000000
00000000
00000000
00000000
,
00000000
00000000
00000000
00000000
,
00000000
00000000
00000000
00000000
,
00000000
00000000
00000000
00000000
,
00011000
00000000
00011000
00000000
,
00000000
00001000
00100000
00010000
,
00100000
00000000
01100000
00000000
,
00000000
00000000
00000000
00000000
,
10000000
10000000
10000000
00000000
,
01000000
01000000
01000000
00000000
,
00100000
00100000
00100000
00000000
,
00001000
00001000
00001000
00000000
,
00010000
00001000
00010000
00001000
,
00010000
00001000
00010000
00000000
,
00000100
00000100
00001000
00001000
,
00000002
00000000
00000000
00000003
,
00001001
00000000
00001001
00000000
,
00000001
00000100
00001000
00000000
,
00011000
00000000
00011000
00000000
,
00010000
00100000
10000000
00000000
,
10000000
00010000
10000000
00000000
,
00010000
10000000
00010000
00000000
,
10000000
00100000
01000000
00001000
,
00020000
00000000
00000000
00030000
,
00010000
00001000
00010000
00000010
,
00001000
00000010
00001000
00000000
,
00000001
00000100
00000001
00001000
,
00000100
00001000
00000100
00000000
,
00001000
00000100
00010000
00000000
,
00001000
01000000
00010000
00000000
,
01000000
00100000
01000000
00100000
,
02000000
00000000
00000000
03000000
,
01100000
00000000
10010000
00000000
,
10000000
01000000
00010000
00000000
,
00011000
00000000
00011000
00000000
,
00001000
00000010
00000001
00000000
,
00000001
00000100
00000010
00001000
,
00000010
00010000
00001000
00000000
,
00010000
00001000
01000000
00010000
,
02000000
00000000
00000000
03000000
,
01100000
00000000
00000000
00000000
,
00000000
00000000
00000000
00000000
,
10000000
00100000
01000000
00000000
,
00010000
00100000
00001000
00000000
,
00010000
00000100
00001000
00000000
,
00000100
00000010
00000001
00000000
,
00000001
00000100
00000001
00000100
,
00001000
00000100
00001000
00000000
,
00001000
00010000
00100000
10000000
,
00010000
00000000
00000000
00000000
,
10010000
00000000
00000000
00000000
,
00000000
00000000
00000000
00000000
,
10000000
00100000
01000000
00100000
,
10000000
01000000
00100000
00000000
,
00010000
00100000
00001000
00010000
,
00000100
00001000
00000100
00000000
,
00001000
00000001
00000100
00000010
,
00000100
00000001
00001000
00000000
,
00000001
00000100
00000010
00001000
,
00000010
00010000
00001000
00000000
,
00020000
00000000
00000000
00030000
,
00002000
00000000
00000000
00003000
,
00001000
00010000
00100000
01000000
,
00010000
00100000
01000000
01000000
,
10000000
01000000
00100000
00010000
,
01000000
00001000
00010000
00010000
,
00001000
00010000
00000010
00001000
,
00000001
00000100
00000010
00000000
,
00001001
00000000
00000000
00000000
,
00000000
00000000
00000000
00000000
;
#NOTES:
     dance-double:
     :
     Medium:
     12:
     :
00000000
00000000
00000000
00000000
,
00000000
00000000
00000000
00000000
,
00000000
00000000
00000000
00000000
,
00000000
00000000
00000000
00000000
,
00000000
00000000
00000000
00000000
,
00011000
00000000
00000000
00001000
00020000
00000000
00000000
00000000
,
00030000
00001000
01000000
00001000
01000000
00010000
01000000
00000000
,
01100000
00000000
00000000
00100000
20000000
00000000
00000000
00000000
,
30000000
00010000
10000000
00000000
01000000
00100000
00010000
00000000
,
00100000
00001000
00100000
00000000
00001000
00010000
00001000
00010000
,
00000000
00000100
00010000
00000000
00000100
00001000
00000100
00000010
,
00000000
00000001
00001000
00000001
00000000
00001000
00000001
00001000
,
00000001
00000100
00000010
00000000
00000110
00000000
00001001
00000000
,
00001000
00000100
00001000
00000100
00010000
00001000
00010000
00001000
,
00100000
00010000
00100000
00010000
10000000
00100000
10000000
00000000
,
00010000
00000000
00010000
01000000
00000000
01000000
00001000
00000000
00001000
00010000
00000000
00000000
,
00022000
00000000
00000000
00033000
,
00010100
00001010
00010100
00001010
,
00010100
00011000
00101000
00011000
,
01001000
00110000
01001000
00110000
,
01001000
00101000
00022000
00033000
,
00001000
00010000
00000100
00001000
00000010
00000100
00000010
00001000
,
00000100
00010000
00001000
00100000
00010000
01000000
00100000
01000000
,
00010000
00100000
00001000
00010000
00000100
00001000
00000010
00000100
,
00000002
00000000
00000000
00000003
,
00000001
00000010
00000100
00001000
00000010
00000100
00001000
00000100
,
00000001
00000010
00000100
00001000
00000100
00010000
00001000
00100000
,
00010000
00100000
01000000
10000000
00100000
01000000
10000000
01000000
,
00010000
00100000
01000000
10000000
00010000
00000000
10010000
00000000
,
10000000
11000000
01000000
01100000
,
00100000
00101000
00001000
00011000
,
00010000
00000100
00001000
00000010
00000100
00000010
00001000
00000100
,
00020000
00000000
00000000
00030000
,
00010000
00001000
00000010
00000001
00001000
00000100
00000010
00000001
,
00000100
00001000
00000100
00000001
00001000
00000100
00010000
00000000
,
00001000
00010000
00100000
10000000
00010000
01000000
00100000
10000000
,
01000000
00010000
01000000
10000000
00010000
01000000
00001000
00000000
,
00010000
00100000
01000000
00000000
00100000
00010000
00001000
00000000
,
00001000
00000010
00000100
00000000
00000010
00001000
00010000
00000000
,
00001000
00100000
01000000
00100000
00001000
00010000
00000010
00000100
,
00000002
00000000
00000000
00000003
,
00001001
00000000
00000000
00000000
,
00000000
00000000
00000000
00000000
,
00000002
00000000
00000000
00001003
00000020
00000000
00000000
00000000
,
00000030
00001010
00010010
00011000
,
00002000
00000000
00000000
00103000
00020000
00000000
00000000
00000000
,
00030000
00110000
01100000
11000000
,
01000000
10000000
00100000
01000000
00010000
00100000
00001000
00010000
,
00000100
00001000
00000010
00000100
00000001
00000010
00000100
00000010
,
00000001
00000100
00000010
00001000
00000100
00010000
00001000
00100000
,
00020000
00000000
00000000
00030000
,
10010000
00000000
00000000
00000000
,
00000000
00000000
10000000
10000000
00010000
00010000
10000000
00000000
,
00010000
00100000
01000000
10000000
00100000
01000000
00001000
00010000
,
00001000
00100000
00001000
00010000
00001000
00000010
00000100
00000000
,
00001000
00000100
00000001
00000100
00001000
00000010
00000001
00000010
,
00001000
00000010
00010000
00001000
00000100
00000001
00001000
00000000
,
00001000
00000010
00000100
00000001
00000010
00000100
00010000
00001000
,
00010000
00000010
00010000
00001000
00010000
00100000
01000000
00000000
,
00010000
01000000
10000000
01000000
00010000
00100000
10000000
00100000
,
00010000
00100000
00001000
00010000
01000000
10000000
00010000
00000000
,
20000000
32000000
03200000
00320000
,
00032000
00003200
00000320
00000031
,
00000001
00000010
00000001
00000010
00001000
00000010
00001000
00000010
,
00001000
00010000
00001000
00010000
01000000
00010000
01000000
00010000
,
01000000
10000000
01000000
10000000
00010000
10000000
00010000
10000000
,
01000000
00100000
00001000
00010000
00001000
00000000
00011000
00000000
,
00010000
00001000
00000100
00000010
00001000
00000100
00000010
00000001
,
00000100
00001000
00010000
00001000
00020000
00000000
00031000
00000000
,
00011000
00000000
00000000
00000000
,
00000000
00000000
00000000
00000000
;
#NOTES:
     dance-double:
     :
     Hard:
     15:
     :
00000000
00000000
00000000
00000000
,
00000000
00000000
00000000
00000000
,
00000000
00000000
00000000
00000000
,
00000000
00000000
00000000
00000000
,
00000000
00000000
00000000
00000000
,
00011000
00000000
00000000
00000000
00000000
00000000
00001000
00010000
00002000
00000000
00000000
00000000
00000000
00000000
00000000
00000000
,
00003000
00001000
00010000
01000000
10000000
00010000
10000000
00000000
,
10010000
00000000
00000000
00000000
00000000
00000000
00010000
01000000
00200000
00000000
00000000
00000000
00000000
00000000
00000000
00000000
,
00300000
00000000
10000000
00000000
00100000
00000000
00010000
00000000
00001000
00000000
00000100
00000000
00000001
00000000
00001000
00000001
,
00001000
00000001
00000010
00000100
00001000
00000010
00000100
00001000
,
00010000
00100000
01000000
00010000
00100000
01000000
10000000
10010000
,
00000000
00000000
10000000
01000000
00100000
00000000
00010000
00000000
00000000
00000000
00001000
00000100
00000010
00000000
00000001
00000000
,
00001000
00000000
00000100
00000000
00010000
00000000
00001000
00000000
01000000
00000000
00010000
00000000
10000000
00000000
10000000
00100000
,
10000000
10000000
01000000
01000000
00010000
00010000
00001000
00001000
,
00000010
00000010
00000001
00000001
00000100
00000100
00001000
00001000
,
00010000
00100000
01000000
00010000
00100000
01000000
00010000
00001000
00000010
00000100
00001000
00000001
,
00000100
00000000
00000010
00000100
00000010
00000000
00000100
00000000
00000010
00000000
00000010
00000000
00000110
00000000
00000001
00001000
,
00000001
00000100
00000010
00000000
00000100
00000010
00001000
00000000
00000010
00010000
00001000
00000000
00010000
00001000
00010000
00000000
,
00001000
01000000
00010000
00000000
01000000
00010000
01000000
00000000
00100000
00000000
10000000
00000000
10100000
00000000
10010000
00000000
,
10000000
01000000
00100000
00000000
01000000
00100000
00010000
00000000
00100000
00001000
00010000
00000000
00001000
00010000
00001000
00000000
,
00010000
00000100
00001000
00000000
00000100
00001000
00000100
00000000
00000010
00000001
00001000
00000000
00000001
00000000
00000000
00000000
,
00000010
00000100
00001000
00000000
00000010
00000100
00000001
00000000
00000010
00000100
00001000
00000000
00000100
00010000
00001000
00000000
,
00100000
00001000
00010000
00000000
00001000
00100000
00010000
00000000
00100000
01000000
10000000
00000000
00100000
01000000
00000000
00010000
,
10000000
00000000
01000000
00100000
00000000
01000000
00100000
00000000
00001000
00000000
00010000
00000000
00001000
00000000
00010000
00000000
,
00000100
00000000
00000010
00000100
00000010
00000000
00000001
00000000
00001000
00000000
00001000
00000000
00001001
00000000
00000001
00000100
,
00000010
00000000
00001000
00000010
00000000
00001000
00000010
00000000
00010000
00000000
00001000
00000000
00010000
00001000
00000000
00001000
,
00010000
00000000
00001000
01000000
00000000
00001000
01000000
00000000
00010000
00000000
01000000
00100000
01000000
00100000
00000000
00100000
,
10000000
00000000
01000000
00100000
00000000
01000000
00100000
00000000
00010000
00000000
00100000
00000000
00001000
00100000
00000000
00100000
,
00001000
00000000
00010000
00001000
00010000
00000000
00001000
00010000
00000010
00000000
00001000
00000000
00000100
00000000
00000010
00000000
,
00000001
00000000
00000000
00000001
00000100
00000000
00001000
00000000
00000100
00000000
00001000
00000000
00010000
00001000
00000000
00000000
,
00010000
00000000
00000000
00001000
00010000
00000000
00100000
00000000
00010000
00000000
00100000
10000000
00100000
00000000
10000000
00000000
,
00010000
00000000
10000000
01000000
00100000
00000000
00010000
00000000
01000000
00000000
00100000
01000000
00100000
00000000
00010000
00000000
,
00001000
00000000
00000000
00001000
00000000
00000000
00010000
00000000
00011000
00000000
00001000
00010000
00001000
00000000
00010000
00000000
,
00001000
00000010
00000001
00000010
00001000
00010000
01000000
10000000
,
00100000
00010000
00001000
01000000
00100000
00010000
00001000
01000000
,
00100000
00000000
00010000
00001000
00000000
00001000
00010000
00000000
00000100
00000000
00000010
00000000
00000001
00001000
00000000
00001000
,
00000001
00000000
00000100
00000000
00001000
00000000
00010000
00000000
00100000
00000000
10000000
00000000
10010000
00000000
00010000
10000000
,
00010000
00000000
10000000
00000000
10100000
00000000
00100000
00000000
01000000
00000000
00001000
00000000
00010000
00001000
00010000
00001000
,
00010000
00000100
00001100
00001000
00001010
00000010
00000110
00000000
,
00000001
00000000
00000100
00000000
00000010
00000000
00001000
00000000
00000100
00010000
00000100
00000000
00010000
00001000
00010000
00001000
,
00020000
00000000
00000000
00031000
,
00011000
00000000
00000000
00000000
,
00000000
00000000
00000000
00000000
,
00002000
00000000
00000000
00000000
00003000
00000000
00010000
00100000
00020000
00000000
00000000
00000000
00000000
00000000
00000000
00000000
,
00030000
00001000
00010000
01000000
00010000
00001000
00010000
00100000
,
00020000
00000000
00000000
00000000
00030000
00000000
00001000
00000010
00002000
00000000
00000000
00000000
00000000
00000000
00000000
00000000
,
00003000
00010000
00001000
00000100
00001000
00010000
00001000
00000010
,
00001000
00000000
00000000
00001000
00010000
00000000
01000000
00000000
00100000
00000000
00000000
00100000
00001000
00000000
00010000
00000000
,
00000010
00000000
00000000
00000010
00000100
00000000
00001000
00000000
00010000
00000000
00000000
00010000
00100000
00000000
01000000
00000000
,
00001000
00010000
01000000
00100000
00001000
00010000
00000010
00000100
,
00001000
00000000
00010000
00001000
00010000
00000000
00010000
00000000
00001000
00000000
00001000
00000000
00011000
00000000
00000000
00000000
,
00001000
00000000
01000000
00010000
00000000
00100000
01000000
00000000
00010000
00000000
00001000
00010000
00001000
00000000
00010000
00000100
,
00010000
00000000
00000010
00001000
00000010
00000000
00010000
00000100
00010000
00000000
00001000
00100000
00001000
00000000
01000000
00010000
,
01000000
00000000
00100000
10000000
00000000
00100000
10000000
00000000
01000000
00000000
00010000
00000000
00001000
00000000
00000010
00000100
,
00001000
00000000
00000010
00000100
00001000
00000000
00000100
00000010
00001000
00000000
00000100
00000010
00001000
00000000
00000010
00000000
,
00000001
00000000
00000100
00000000
00000010
00000000
00001000
00000000
00000100
00000000
00010000
00001000
00100000
00000000
00010000
00100000
,
00001000
00000000
00010000
00000000
00011000
00000000
00001000
00000000
01001000
00000000
01000000
00000000
01010000
00000000
00010000
10000000
,
00010000
00000000
00100000
00000000
01000000
00000000
00010000
00000000
00001000
00000000
00100000
01000000
00010000
00000000
01000000
00100000
,
00010000
00000000
00100000
00001000
00010000
00000000
00001000
01000000
00010000
00000000
01000000
00100000
00010000
00000000
00001000
00000000
,
00010000
00000000
00000100
00000000
00001000
00000000
00000010
00000000
00000100
00000000
00000000
00000001
00001000
00000000
00000000
00000100
,
00000010
00000001
00000100
00001000
00020000
00000000
00031000
00000000
,
00002000
00023000
02030000
23000000
,
30200000
00000000
00000000
00000000
00320000
00000000
00000000
00000000
00031000
00000000
00000100
00000000
00000001
00000000
00001000
00000001
,
00001000
00000000
00000001
00000000
00000011
00000000
00000010
00000000
00000100
00000000
00010000
00000000
00011000
00000000
00001000
00010000
,
00001000
00000000
00100000
00000000
00010000
00000000
01000000
00000000
00100000
10000000
00100000
00000000
01000000
00010000
01000000
00000000
,
00100000
00000000
10000000
00000000
01000000
00000000
00010000
00000000
00001000
00000000
00000010
00000000
00000100
00000000
00001000
00000001
,
00000100
00000000
00000001
00001000
00000100
00000000
00001000
00000100
00010000
00000000
00001000
00010000
00000100
00000000
00010000
00001000
,
00010000
00000000
00100000
10000000
00100000
00000000
01000000
00010000
01000000
00000000
00010000
00000000
00100000
00000000
00000000
00100000
,
00001000
00010000
00000010
00001000
00000002
00000000
00001003
00000001
,
00001001
00000000
00000000
00000000
,
00000000
00000000
00000000
00000000
;
