
//----- song ID: harm -----//
#TITLE:Harmonia;
#ARTIST:ATSUMI UEDA;
#BANNER:Harmonia.png;
#BACKGROUND:Harmonia-bg.png;
#CDTITLE:./CDTitles/pnm Lapistoria.png;
#MUSIC:Harmonia.ogg;
#SAMPLESTART:46.606;
#SAMPLELENGTH:15;
#BPMS:0=177;
#NOTES:
     dance-single:
     :
     Beginner:
     4:
     :
0000
0000
0000
0000
,
0000
0000
0000
0000
,
0000
0000
0000
0000
,
1000
0000
1000
0000
,
0001
0000
0001
0000
,
0100
0000
0000
0000
,
0010
0000
0000
0000
,
0100
0000
0100
0000
,
0010
0000
0010
0000
,
1000
0000
0000
0000
,
0001
0000
0000
0000
,
1000
0000
0010
0000
,
0100
0000
0000
0000
,
0002
0000
0003
0000
,
2000
0000
3000
0000
,
1001
0000
0000
0000
,
0000
0000
0000
0000
,
0001
0000
0001
0000
,
0010
0000
0010
0000
,
0100
0000
0000
0000
,
0010
0000
0000
0000
,
0100
0000
0100
0000
,
1000
0000
1000
0000
,
0001
0000
0000
0000
,
1000
0000
0000
0000
,
1001
0000
0000
0000
,
0000
0000
0000
0000
,
0001
0000
0100
0000
,
0001
0000
0000
0000
,
1000
0000
0100
0000
,
1000
0000
0000
0000
,
0100
0000
0000
0000
,
0010
0000
0001
0000
,
1000
0000
0000
0000
,
0000
0000
0000
0000
,
0001
0000
0100
0000
,
0001
0000
0100
0000
,
0010
0000
0000
0000
,
1000
0000
0000
0000
,
0100
0000
0010
0000
,
0100
0000
0010
0000
,
0001
0000
0000
0000
,
1000
0000
0000
0000
,
0010
0000
0100
0000
,
0010
0000
0100
0000
,
0001
0000
0000
0000
,
1000
0000
0000
0000
,
0001
0000
0010
0000
,
0001
0000
0010
0000
,
0100
0000
0000
0000
,
1000
0000
0000
0000
,
0001
0000
0000
0000
,
0100
0000
0010
0000
,
0100
0000
0010
0000
,
1000
0000
1000
0000
,
0001
0000
0001
0000
,
0010
0000
0100
0000
,
0010
0000
0100
0000
,
1000
0000
0000
0000
,
0001
0000
0000
0000
,
1000
0000
0100
0000
,
1000
0000
0000
0000
,
0001
0000
0000
0000
,
1000
0000
0000
0000
,
0001
0000
0100
0000
,
0010
0000
0000
0000
,
1000
0000
0001
0000
,
0100
0000
0000
0000
,
0000
0000
0000
0000
;
#NOTES:
     dance-single:
     :
     Easy:
     7:
     :
0000
0000
0000
0000
,
0000
0000
0000
0000
,
0000
0000
0000
0000
,
0001
0100
0001
0000
,
0100
0010
1000
0001
,
0010
0000
0100
0000
,
0010
0000
0100
0000
,
1000
0010
1000
0000
,
0001
0010
0100
1000
,
0010
0000
0100
0000
,
0010
0000
0110
0000
,
0100
0001
1000
0000
,
0100
0010
0001
0000
,
2000
0000
3001
0000
,
0002
0000
0013
0000
,
0001
0000
0000
0001
0000
0000
1000
0000
,
0000
1000
0000
0000
0000
0000
0000
0000
,
0010
0100
0010
0000
,
1000
0001
0100
0000
,
0010
1000
0100
0000
,
0010
0001
0010
0000
,
0001
1000
0001
0000
,
0100
0010
1000
0000
,
0100
0010
0001
1000
,
0001
1000
1001
0000
,
0100
0000
1001
0000
,
1000
0100
1000
0010
,
0100
0001
0100
0001
,
1000
0010
1000
0000
,
0001
0010
0001
0010
,
0100
1000
0001
0000
,
1000
0000
0000
0001
0000
0000
1000
0000
,
0000
0001
0100
0010
,
1000
0000
0000
1000
0000
0000
0001
0000
,
0000
0001
0000
0000
0000
0000
0000
0000
,
1000
0010
1000
0000
,
0010
0100
0001
1000
,
0100
0000
0010
0000
,
0100
0000
0010
0000
,
0001
0100
0001
0000
,
1000
0100
0010
0001
,
0100
0000
0010
0000
,
0100
0000
0110
0000
,
0010
1000
0010
0000
,
1000
0100
0010
0001
,
1000
0000
0010
0000
,
0100
0000
0001
0000
,
0010
0100
0010
0000
,
0001
0100
0010
1000
,
0001
0000
1000
0000
,
0001
0000
1001
0000
,
1000
0100
0010
0000
,
0100
0010
0100
1000
,
0001
0100
0001
0100
,
0010
1000
0100
1000
,
0001
0010
0100
1000
,
0001
0100
0001
0100
,
0010
1000
0001
0010
,
0100
0000
0010
0000
,
0100
0000
1000
0000
,
0001
0100
0010
0000
,
1000
0001
0010
0000
,
0100
0000
0010
0000
,
0001
1000
0010
0100
,
0010
0000
0000
0010
0000
0000
0100
0000
,
0000
0100
0000
0000
0000
0000
0000
0000
,
0001
0000
0000
0010
0000
0000
0100
0000
,
0000
1000
0000
0001
0000
0000
0000
0000
,
0000
0000
0000
0000
;
#NOTES:
     dance-single:
     :
     Medium:
     11:
     :
0000
0000
0000
0000
,
0000
0000
0000
0000
,
0000
0000
0000
0000
,
1000
0100
1000
0000
0100
0000
1000
0000
,
0001
0000
0100
0000
0010
0100
0010
0000
,
0100
0000
0001
0010
0001
0010
0000
0001
,
0000
1000
0000
0100
0010
0000
0100
0000
,
0010
0001
0010
0000
0001
0000
0010
0000
,
0100
0000
1000
0000
0010
0100
0010
0000
,
1000
0000
0001
0010
0000
0100
0000
0010
,
0000
0001
0000
1000
0000
0010
0100
0001
,
1000
0000
0000
0000
0100
0000
0000
0000
1000
0000
0000
0001
0000
0000
0010
0000
,
0001
0000
0100
0000
0010
0100
0010
0000
,
2000
0000
0000
0000
0000
0000
0000
0000
3001
0000
0000
0010
0000
0000
0100
0000
,
2000
0000
0000
0000
3010
0100
0010
0000
,
0100
0000
0000
1001
0000
0000
0010
0000
,
0000
0011
0000
1100
0000
0000
0000
0000
,
1000
0010
0100
0001
,
0010
0100
0010
0100
,
1000
0001
1000
0000
0001
0000
0100
0000
,
0010
0000
1000
0001
0000
1000
0000
0000
,
0001
0010
0100
1000
,
0001
0100
0010
1000
,
0001
1000
0001
0000
0100
0000
0010
0000
,
0100
0000
0001
0000
0010
0100
0000
1000
,
0000
0010
0100
0001
0000
1001
0000
0000
,
1000
0100
1000
0100
0010
0001
0010
0000
,
0001
0000
0100
0000
0010
1000
0010
0000
,
1000
0000
0001
0000
0010
0100
0010
0000
,
0001
0000
0100
0000
0010
1000
0001
0000
,
0010
0000
0100
1000
0100
1000
0100
0000
,
1000
0000
0010
0100
0000
0001
1000
0000
,
0000
0100
0010
0100
0000
0010
0001
1000
,
0100
0000
0000
1001
0000
0000
0010
0000
,
0000
1001
0000
1000
0010
0000
0100
0000
,
0001
0010
0001
0000
0010
0000
0001
0000
,
1000
0000
0010
0000
0100
0010
0100
0000
,
0010
0000
1000
0100
1000
0100
0000
1000
,
0000
0001
0000
0010
0100
0000
0010
0000
,
0100
1000
0100
0000
1000
0000
0100
0000
,
0010
0000
0001
0000
0100
0010
0100
0000
,
0001
0000
1000
0100
0000
0010
0000
0100
,
0000
1000
0000
0001
0100
0000
0010
0000
,
1000
0100
1000
0000
0001
0000
0010
0000
,
0100
0000
1000
0000
0010
0100
0010
0000
,
1000
0000
0001
0100
0001
0100
0000
0010
,
0000
1000
0100
1000
0000
0000
0000
0000
,
0001
0100
0001
0000
1000
0000
0010
0000
,
0100
0000
0001
0000
0010
0100
0010
0000
,
0001
0000
1000
0100
0000
0010
0000
0001
,
0000
1000
0000
0010
0000
0100
0010
0100
,
0010
0000
0000
0000
1000
0000
0000
0000
0001
0000
0000
0100
0000
0000
0010
0000
,
1000
0000
0100
0010
0000
0100
1000
0100
,
0000
1000
0010
1000
0001
0000
1000
0000
,
0001
0010
0001
0000
1000
0100
1000
0000
,
0001
0000
0000
0100
0000
0000
0010
0000
0000
1000
0000
0000
0001
0000
0000
0000
,
1000
0000
1000
0000
0100
0000
0100
0000
0010
0000
0000
0001
0000
0000
1000
0000
,
0001
0100
0001
0100
0010
1000
0010
0000
,
1000
0000
0001
0100
0000
0010
0000
1000
,
0000
0001
0010
0000
0100
0010
0100
0000
,
1000
0000
0000
0000
0001
0000
0000
0000
0100
0000
0000
0010
0000
0000
1000
0000
,
0001
0000
0100
0000
0010
1000
0010
0000
,
1000
0000
0000
0000
0001
0000
0000
0000
0100
0000
0000
0010
0000
0000
1000
0000
,
0001
0000
0010
0000
0001
1000
0001
0000
,
1000
0000
0000
1010
0000
0000
0001
0000
,
0000
0011
0000
1001
0000
0000
0000
0000
,
0001
0100
0001
1000
0010
1000
0001
0010
,
0001
1000
0100
0010
0000
0000
0000
0000
,
0000
0000
0000
0000
;
#NOTES:
     dance-single:
     :
     Hard:
     14:
     :
0000
0000
0000
0000
,
0000
0000
0000
0000
,
0000
0000
0000
0000
,
0001
0100
0001
0100
0000
0001
1000
0100
,
0000
1000
0000
0010
0000
0100
0001
0100
,
0001
0000
1000
0010
0100
0001
0000
1000
,
0000
0100
0000
0010
0100
0000
1100
0000
,
1000
0100
1000
0100
0000
1000
0001
0100
,
0000
0010
0000
0100
0000
0001
0010
0001
,
0010
0000
0001
1000
0000
0010
0000
0100
,
0000
0000
0001
0000
1000
0000
0100
0000
0010
0000
0001
0010
0001
0000
1000
0000
,
0010
0000
0100
0000
0001
0000
0010
0000
0001
0000
1000
0010
0000
0100
0010
0000
,
1000
0100
0010
0001
1000
0010
0100
0000
,
0002
0000
0000
0000
1003
0000
0000
0000
0001
0000
0010
0100
0000
0010
0001
0000
,
2000
0000
0000
0000
3001
0000
0000
0000
1000
0000
0010
1000
0010
0000
0100
0000
,
0001
1000
0010
1000
0100
0010
0100
0010
,
0001
0100
0010
1000
0000
0000
0000
0000
,
0001
0000
1000
0000
0100
0010
0100
0010
,
0000
0100
1000
0001
0100
0001
0100
0010
,
1000
0000
0001
0010
0001
0010
0100
1000
,
0000
0001
0100
0101
0000
1001
0000
0000
,
1000
0000
0001
0100
0010
0100
0010
1000
,
0000
0001
1000
0010
0100
0010
1000
0100
,
0010
0001
0010
0001
1000
0001
1000
0001
,
0100
0000
0010
0000
1000
0000
0001
0100
0001
0000
1000
0000
0000
0000
1001
0000
,
0000
1000
0100
0010
0000
0110
0000
0100
,
1000
0001
1000
0001
1000
0000
0001
0100
0001
0000
0100
0000
0010
0000
0000
0000
,
1000
0000
0001
0000
1000
0100
0010
0001
,
1000
0010
1000
0200
0000
0310
0001
0100
,
0001
1000
0100
0010
0100
0010
0001
0200
,
0000
0000
0000
0000
0310
0000
1000
0000
0001
0000
0100
0010
0100
0010
0100
0000
,
0010
1000
0010
1000
0000
0001
0100
0000
,
0000
0001
0010
0001
0010
0100
1000
0001
,
1000
0001
0100
0001
0010
0100
0010
0100
,
1000
0010
0100
0001
1000
0000
1001
0000
,
1000
0010
1000
0010
0000
1000
0001
0010
,
0000
0001
0000
0100
0000
0010
1000
0010
,
1000
0000
0001
0100
0010
1000
0000
0001
,
0000
0010
0000
0100
0010
0000
0011
0000
,
0001
0010
0001
0010
0000
0001
1000
0010
,
0000
0100
0000
0010
0000
1000
0100
1000
,
0100
0000
1000
0001
0000
0100
0000
0010
,
0000
0000
1000
0000
0001
0000
0010
0000
0100
0000
1000
0100
1000
0000
0001
0000
,
0100
0010
0100
0010
0000
1000
0100
0001
,
0000
0100
0000
0010
0000
0001
0100
0010
,
1000
0000
0100
0010
0100
0010
0000
0001
,
0000
0000
1000
0000
0100
0000
0010
0000
0001
0000
0100
0010
0100
0000
0010
0000
,
1000
0001
1000
0001
0000
1000
0010
0001
,
0000
0010
0000
0100
0000
0010
1000
0100
,
0010
0000
0001
0100
0000
0010
0000
1000
,
0000
0000
0001
0000
1000
0000
0100
0000
0010
0000
0001
1000
0001
0000
0100
0000
,
0010
0000
1000
0000
0100
0000
0000
0000
1100
0000
0000
1001
0000
0000
0011
0000
,
0010
0100
0010
0001
0000
1000
0010
0001
,
0000
1000
0100
0001
1000
0001
0010
0100
,
0010
0000
0001
0010
0000
0010
0000
0100
0000
0010
0100
0000
1000
0000
0010
0000
,
0100
0001
0000
0001
0010
0000
0010
0100
0000
0100
1000
0000
0001
0000
0100
0000
,
0010
1000
0010
0000
1000
0001
1000
0000
0001
0010
0000
0100
1000
0000
0001
0100
,
0001
0000
1000
0000
0010
0000
0100
0000
0001
0100
0001
0000
0010
0000
0100
0000
,
1000
0000
0001
1000
0001
0000
0100
0000
0000
0000
0010
0000
0000
0000
1000
0000
,
0000
0000
0100
0000
0010
0000
0001
0000
0100
0000
0010
1000
0010
0000
1000
0000
,
0001
0000
0100
0000
0010
0000
1000
0000
0001
0000
0100
0010
0000
1000
0001
0000
,
1000
0100
0010
0001
1000
0100
0001
0000
,
0100
0000
0010
0000
0001
0000
1000
0000
0010
0000
0100
0001
0000
1000
0010
0000
,
1000
0000
0100
0000
0010
0000
0001
0000
1000
0000
0001
0000
0100
0010
0100
0000
,
0010
1000
0100
1000
0010
0001
0010
0000
,
1000
0001
0000
1001
0000
0001
0010
0100
,
1000
0000
0010
0100
0010
0000
1000
0000
0100
0010
0100
0000
0010
0000
0001
1000
,
0001
1000
0100
0001
0000
0000
0000
0000
,
0000
0000
0000
0000
;
#NOTES:
     dance-double:
     :
     Easy:
     7:
     :
00000000
00000000
00000000
00000000
,
00000000
00000000
00000000
00000000
,
00000000
00000000
00000000
00000000
,
00000001
00001000
00000001
00000000
,
00001000
00000100
00010000
00000000
,
00001000
00000000
01000000
00000000
,
00010000
00000000
10000000
00000000
,
00010000
01000000
00010000
00000000
,
01000000
00001000
00010000
00000000
,
00000100
00000000
00001000
00000000
,
00000001
00000000
00001001
00000000
,
00000001
00000100
00001000
00000000
,
00010000
00100000
10000000
00000000
,
20000000
00000000
30010000
00000000
,
00020000
00000000
00130000
00000000
,
00010000
00000000
00000000
00100000
00000000
00000000
00001000
00000000
,
00000000
00010000
00000000
00000000
00000000
00000000
00000000
00000000
,
00001000
00010000
00000010
00000000
,
00001000
00000001
00000100
00000000
,
00000010
00001000
00000100
00000000
,
00010000
00001000
00010000
00000000
,
00001000
00100000
00010000
00000000
,
10000000
00100000
01000000
00000000
,
00010000
00100000
00001000
00010000
,
00000100
00001000
00001001
00000000
,
00000010
00000000
00000011
00000000
,
00000001
00000100
00000010
00001000
,
00000001
00000010
00001000
00010000
,
00001000
01000000
00010000
00000000
,
10000000
00100000
00010000
00001000
,
00010000
00000100
00001000
00000000
,
00000001
00000000
00000000
00000100
00000000
00000000
00001000
00000000
,
00000000
00010000
00100000
10000000
,
00010000
00000000
00000000
01000000
00000000
00000000
00001000
00000000
,
00000000
00010000
00000000
00000000
00000000
00000000
00000000
00000000
,
00000010
00001000
00000010
00000000
,
00001000
00000100
00010000
00000000
,
00001000
00000000
00010000
00000000
,
00100000
00000000
10000000
00000000
,
00010000
01000000
00010000
00000000
,
01000000
00001000
00010000
00000000
,
00001000
00000000
00000100
00000000
,
00000010
00000000
00000110
00000000
,
00000100
00000001
00000100
00000000
,
00000001
00000100
00001000
00000000
,
00010000
00000000
00100000
00000000
,
10000000
00000000
00010000
00000000
,
00100000
01000000
00100000
00000000
,
01000000
00010000
00001000
00000000
,
00010000
00000000
00001000
00000000
,
00000100
00000000
00000110
00000000
,
00000010
00001000
00000100
00000000
,
00010000
00001000
00010000
00001000
,
01000000
00010000
01000000
00010000
,
00100000
01000000
10000000
00010000
,
01000000
00001000
00010000
00000010
,
00001000
00000001
00001000
00000001
,
00000010
00001000
00010000
01000000
,
10000000
00000000
00010000
00000000
,
00100000
00000000
00001000
00000000
,
00010000
00001000
00000100
00000000
,
00000001
00001000
00000100
00000000
,
00010000
00000000
00001000
00000000
,
00100000
00000000
00010000
00000000
,
10000000
00000000
00000000
01000000
00000000
00000000
00010000
00000000
,
00000000
00001000
00000000
00000000
00000000
00000000
00000000
00000000
,
00000010
00000000
00000000
00000001
00000000
00000000
00001000
00000000
,
00000000
00000100
00000000
00010000
00000000
00000000
00000000
00000000
,
00000000
00000000
00000000
00000000
;
#NOTES:
     dance-double:
     :
     Medium:
     11:
     :
00000000
00000000
00000000
00000000
,
00000000
00000000
00000000
00000000
,
00000000
00000000
00000000
00000000
,
10000000
00010000
10000000
00000000
00010000
00000000
01000000
00000000
,
00001000
00000000
00010000
00000000
00000100
00001000
00000100
00000000
,
00000010
00000000
00000001
00000100
00000001
00000100
00000000
00001000
,
00000000
00010000
00000000
00100000
01000000
00000000
00010000
00000000
,
00100000
00001000
00100000
00000000
00001000
00000000
00010000
00000000
,
00000100
00000000
00001000
00000000
00000100
00000010
00000100
00000000
,
00001000
00000000
00000001
00000010
00000000
00001000
00000000
00010000
,
00000000
01000000
00000000
10000000
00000000
01000000
00100000
00010000
,
01000000
00000000
00000000
00000000
00001000
00000000
00000000
00000000
00010000
00000000
00000000
00000010
00000000
00000000
00001000
00000000
,
00000001
00000000
00001000
00000000
00000100
00010000
00001000
00000000
,
02000000
00000000
00000000
00000000
00000000
00000000
00000000
00000000
03010000
00000000
00000000
10000000
00000000
00000000
01000000
00000000
,
00200000
00000000
00000000
00000000
00301000
00010000
00001000
00000000
,
00000100
00000000
00000000
00000110
00000000
00000000
00000010
00000000
,
00000000
00000011
00000000
00001001
00000000
00000000
00000000
00000000
,
00001000
00000100
00010000
00001000
,
01000000
00010000
00100000
01000000
,
10000000
01000000
10000000
00000000
01000000
00000000
00100000
00000000
,
00010000
00000000
01000000
00001000
00000000
00010000
00000000
00000000
,
00000010
00001000
00000001
00000010
,
00000100
00001000
00000010
00010000
,
00001000
00100000
00010000
00000000
10000000
00000000
00100000
00000000
,
01000000
00000000
00010000
00000000
00100000
00001000
00000000
00010000
,
00000000
00000010
00001000
00000100
00000000
00000110
00000000
00000000
,
00000010
00000001
00000010
00000100
00001000
00000100
00010000
00000000
,
00001000
00000000
00100000
00000000
00010000
01000000
00010000
00000000
,
10000000
00000000
01000000
00000000
00100000
00010000
00100000
00000000
,
00001000
00000000
00010000
00000000
00000010
00001000
00000010
00000000
,
00000100
00000000
00000001
00000010
00000001
00000010
00000100
00000000
,
00001000
00000000
00000100
00010000
00000000
00001000
01000000
00000000
,
00000000
00010000
10000000
00100000
00000000
01000000
00010000
00100000
,
00001000
00000000
00000000
00011000
00000000
00000000
00000010
00000000
,
00000000
00000110
00000000
00000001
00001000
00000000
00000100
00000000
,
00010000
00001000
00010000
00000000
00001000
00000000
01000000
00000000
,
00010000
00000000
10000000
00000000
01000000
00100000
01000000
00000000
,
10000000
00000000
00100000
01000000
00100000
01000000
00000000
00100000
,
00000000
00010000
00000000
00001000
00010000
00000000
00000010
00000000
,
00001000
00000100
00001000
00000000
00000100
00000000
00000010
00000000
,
00000001
00000000
00000100
00000000
00000010
00001000
00000010
00000000
,
00001000
00000000
00000001
00000010
00000000
00001000
00000000
00010000
,
00000000
01000000
00000000
10000000
00010000
00000000
01000000
00000000
,
00001000
00010000
00001000
00000000
00010000
00000000
00000010
00000000
,
00001000
00000000
00000001
00000000
00000010
00000100
00000010
00000000
,
00000001
00000000
00000100
00000010
00000100
00000010
00000000
00000100
,
00000000
00001000
00010000
00001000
00000000
00000000
00000000
00000000
,
00100000
00010000
00100000
00000000
01000000
00000000
10000000
00000000
,
00010000
00000000
00100000
00000000
00001000
00010000
00001000
00000000
,
00010000
00000000
00001000
00000100
00000000
00000001
00000000
00000010
,
00000000
00000001
00000000
00001000
00000000
00000100
00010000
00001000
,
00010000
00000000
00000000
00000000
00001000
00000000
00000000
00000000
00010000
00000000
00000000
01000000
00000000
00000000
10000000
00000000
,
00100000
00000000
01000000
00100000
00000000
01000000
00010000
00100000
,
00000000
00001000
00010000
00000100
00001000
00000000
00000001
00000000
,
00000010
00000100
00000010
00000000
00000100
00001000
00000100
00000000
,
00010000
00000000
00000000
00001000
00000000
00000000
00100000
00000000
00000000
00010000
00000000
00000000
10000000
00000000
00000000
00000000
,
00010000
01000000
00010000
00000000
01000000
00001000
01000000
00000000
,
00001000
00010000
00001000
00010000
00000100
00001000
00000100
00000000
,
00000010
00000000
00000001
00000100
00000000
00001000
00000000
00010000
,
00000000
00100000
01000000
00000000
00010000
10000000
01000000
00000000
,
10000000
00000000
00000000
00000000
00010000
00000000
00000000
00000000
00100000
00000000
00000000
00001000
00000000
00000000
00010000
00000000
,
00000010
00000000
00001000
00000000
00000100
00000010
00000100
00000000
,
00000010
00000000
00000000
00000000
00000001
00000000
00000000
00000000
00001000
00000000
00000000
00000100
00000000
00000000
00010000
00000000
,
00001000
00000000
01000000
00000000
00010000
10000000
00010000
00000000
,
00100000
00000000
00000000
00101000
00000000
00000000
00001000
00000000
,
00000000
00011000
00000000
00010100
00000000
00000000
00000000
00000000
,
00000100
00001000
00000100
00000010
00000001
00000010
00000001
00000100
,
00001000
00010000
00100000
10000000
00000000
00000000
00000000
00000000
,
00000000
00000000
00000000
00000000
;
#NOTES:
     dance-double:
     :
     Hard:
     14:
     :
00000000
00000000
00000000
00000000
,
00000000
00000000
00000000
00000000
,
00000000
00000000
00000000
00000000
,
10000000
01000000
00100000
00010000
00000000
00100000
00001000
00010000
,
00000000
00001000
00000000
00000100
00000000
00000001
00000010
00000001
,
00001000
00000000
00000001
00000010
00001000
00010000
00000000
01000000
,
00000000
10000000
00000000
00010000
01000000
00000000
00001000
00000000
,
00010000
00000010
00001000
00000001
00000000
00000010
00000100
00001000
,
00000000
00000010
00000000
00010000
00000000
00001000
00100000
00010000
,
01000000
00000000
00100000
10000000
00000000
01000000
00000000
00010000
,
00000000
00000000
00001000
00000000
00010000
00000000
00000100
00000000
00001000
00000000
00000001
00000010
00000001
00000000
00000010
00000000
,
00000100
00000000
00001000
00000000
00000010
00000000
00010000
00000000
00001000
00000000
01000000
00010000
00000000
01000000
00100000
00000000
,
10000000
00010000
01000000
00001000
00010000
00000010
00001000
00000000
,
00000002
00000000
00000000
00000000
00000013
00000000
00000000
00000000
00000001
00000000
00001000
00000100
00000000
00010000
00001000
00000000
,
02000000
00000000
00000000
00000000
03010000
00000000
00000000
00000000
01000000
00000000
00100000
10000000
00100000
00000000
10000000
00000000
,
01000000
00010000
00001000
00010000
00000100
00001000
00000010
00000100
,
00001000
00010000
00100000
01000000
00000000
00000000
00000000
00000000
,
00010000
00000000
10000000
00000000
01000000
00100000
00010000
00100000
,
00000000
00010000
10000000
00100000
01000000
00010000
00100000
00001000
,
00010000
00000000
00000100
00001000
00000001
00001000
00000001
00000010
,
00000000
00000100
00001000
00001100
00000000
00001001
00000000
00000000
,
00000001
00000000
00000100
00001000
00010000
00001000
00100000
00010000
,
00000000
10000000
01000000
00100000
00010000
00100000
00001000
00010000
,
00000010
00001000
00000010
00001000
00000001
00000010
00000100
00001000
,
00000010
00000000
00010000
00000000
00001000
00000000
00100000
00010000
00100000
00000000
00010000
00000000
00000000
00000000
10010000
00000000
,
00000000
10000000
01000000
00100000
00000000
01100000
00000000
00100000
,
00010000
00100000
00010000
00000000
01000000
00000000
00001000
00010000
00001000
00000000
00010000
00000000
00000100
00000000
00000000
00000000
,
00001000
00000000
00000001
00000000
00000010
00001000
00010000
01000000
,
10000000
00010000
10000000
00200000
00000000
01300000
00010000
10000000
,
01000000
00010000
00001000
00000010
00000001
00000100
00000010
00000200
,
00000000
00000000
00000000
00000000
00000310
00000000
00001000
00000000
00000100
00000000
00010000
00001000
00010000
00000000
00001000
00000000
,
01000000
00010000
01000000
00100000
00000000
10000000
00010000
00000000
,
00000000
10000000
01000000
00100000
00010000
00001000
00000100
00000010
,
00000001
00000100
00001000
00000100
00001000
00010000
00100000
01000000
,
00010000
10000000
01000000
00010000
00001000
00000000
00011000
00000000
,
00010000
00000010
00001000
00000100
00000000
00000010
00000001
00000100
,
00000000
00000001
00000000
00000100
00000000
00001000
00010000
00100000
,
10000000
00000000
01000000
00100000
00010000
01000000
00000000
00001000
,
00000000
00010000
00000000
00001000
00000010
00000000
00000110
00000000
,
00000010
00000001
00001000
00000100
00000000
00001000
00000010
00000100
,
00000000
00000001
00000000
00000010
00000000
00001000
00010000
00001000
,
00100000
00000000
00010000
01000000
00000000
00100000
00000000
10000000
,
00000000
00000000
01000000
00000000
00100000
00000000
00010000
00000000
00100000
00000000
00001000
00010000
00001000
00000000
00010000
00000000
,
00001000
01000000
00010000
00100000
00000000
01000000
10000000
00100000
,
00000000
10000000
00000000
00100000
00000000
00010000
00001000
00000100
,
00000001
00000000
00000010
00000100
00001000
00000010
00000000
00010000
,
00000000
00000000
00001000
00000000
00010000
00000000
00001000
00000000
01000000
00000000
00100000
10000000
00100000
00000000
01000000
00000000
,
00010000
00100000
01000000
10000000
00000000
00010000
00100000
00001000
,
00000000
00010000
00000000
00001000
00000000
00000010
00000100
00000010
,
00000001
00000000
00001000
00000010
00000000
00000100
00000000
00000001
,
00000000
00000000
00000010
00000000
00000100
00000000
00000010
00000000
00000001
00000000
00001000
00000001
00001000
00000000
00000010
00000000
,
00001000
00000000
00000100
00000000
00010000
00000000
00000000
00000000
00001000
00000000
00000000
01000000
00000000
00000000
01010000
00000000
,
00010000
10000000
00100000
01000000
00000000
00100000
00010000
00001000
,
00000000
00010000
00001000
00000010
00000100
00000010
00000001
00001000
,
00000001
00000000
00001000
00000100
00000000
00000100
00000000
00010000
00000000
00001000
00010000
00000000
01000000
00000000
00100000
00000000
,
00010000
01000000
00000000
01000000
00100000
00000000
00100000
10000000
00000000
10000000
01000000
00000000
10000000
00000000
00010000
00000000
,
00100000
00010000
00100000
00000000
00001000
00010000
00001000
00000000
00010000
00000100
00000000
00001000
00000100
00000000
00001000
00000000
,
00000001
00000010
00000100
00001000
00010000
00100000
01000000
10000000
,
00010000
00000000
10000000
00010000
10000000
00000000
01000000
00000000
00000000
00000000
00010000
00000000
00000000
00000000
00001000
00000000
,
00000000
00000000
00000010
00000000
00000001
00000000
00000100
00000000
00000010
00000000
00001000
00000001
00001000
00000000
00000100
00000000
,
00010000
00000000
00001000
00000000
00100000
00000000
00010000
00000000
10000000
00000000
01000000
00100000
00000000
00010000
01000000
00000000
,
00001000
00010000
00000010
00001000
00000100
00000010
00000001
00000000
,
00001000
00000000
00000001
00000000
00000100
00000000
00000010
00000000
00001000
00000000
00000100
00010000
00000000
00001000
00010000
00000000
,
00001000
00000000
01000000
00000000
00010000
00000000
00100000
00000000
01000000
00000000
10000000
00000000
00010000
10000000
00010000
00000000
,
10000000
01000000
00010000
00001000
00000010
00000001
00001000
00000000
,
00000100
00010000
00000000
00011000
00000000
00001000
00010000
01000000
,
10000000
00000000
00010000
01000000
00010000
00000000
00100000
00000000
00001000
00010000
00001000
00000000
00000100
00000000
00000001
00001000
,
00000001
00000010
00001000
00010000
00000000
00000000
00000000
00000000
,
00000000
00000000
00000000
00000000
;
