
//----- song ID: hlim -----//
#TITLE:HOT LIMIT;
#BANNER:HOT LIMIT.png;
#BACKGROUND:HOT LIMIT-bg.png;
#CDTITLE:./CDTitles/DDR GP.png;
#MUSIC:HOT LIMIT.ogg;
#SAMPLESTART:15.424;
#SAMPLELENGTH:15;
#DISPLAYBPM:140;
#BPMS:0=139.535,4=139.501;
#STAGE:1;
#NOTES:
     dance-single:
     :
     Beginner:
     1:
     :
0000
0000
0000
0000
,
0000
0000
0000
0000
,
0000
0000
0000
0000
,
0000
0000
0000
0000
,
0000
0000
0000
0000
,
0001
0000
0000
0000
,
0000
0000
0000
0000
,
0001
0000
0000
0000
,
0000
0000
0000
0000
,
0010
0000
0000
0000
,
0100
0000
0000
0000
,
0010
0000
0000
0000
,
0000
0000
0000
0000
,
0100
0000
0000
0000
,
0010
0000
0000
0000
,
0100
0000
0000
0000
,
0000
0000
0000
0000
,
1000
0000
0000
0000
,
0000
0000
0000
0000
,
1000
0000
0000
0000
,
0000
0000
0000
0000
,
1000
0000
0000
0000
,
0000
0000
0000
0000
,
0100
0000
0000
0000
,
0000
0000
0000
0000
,
0010
0000
0000
0000
,
0000
0000
0000
0000
,
0001
0000
0000
0000
,
0000
0000
0000
0000
,
0001
0000
0000
0000
,
0001
0000
0000
0000
,
0010
0000
0000
0000
,
0000
0000
0000
0000
,
0100
0000
0000
0000
,
0100
0000
0000
0000
,
1000
0000
0000
0000
,
0000
0000
0000
0000
,
0000
0000
0000
0000
,
0010
0000
0000
0000
,
0100
0000
0000
0000
,
0010
0000
0000
0000
,
0000
0000
0000
0000
,
0100
0000
0000
0000
,
0010
0000
0000
0000
,
0100
0000
0000
0000
,
0000
0000
0000
0000
,
0001
0000
0000
0000
,
0000
0000
0000
0000
,
0010
0000
0000
0000
,
0000
0000
0000
0000
,
0100
0000
0000
0000
,
0000
0000
0000
0000
,
1000
0000
0000
0000
,
0010
0000
0000
0000
,
0010
0000
0000
0000
,
0010
0000
0000
0000
,
0000
0000
0000
0000
;
#NOTES:
     dance-single:
     :
     Easy:
     5:
     :
0000
0000
0000
0000
,
0000
0000
0000
0000
,
0000
0000
0000
0000
,
0000
0000
0000
0000
,
0000
0000
0000
0000
,
0001
0000
0100
0000
,
0010
1000
0010
0000
,
1000
0000
0100
0000
,
0020
0000
0000
0030
,
0001
0100
0001
0010
,
0001
0000
1000
0000
,
0001
0001
0100
0000
,
0010
0000
0010
0000
,
1000
0100
1000
0010
,
1000
0000
0001
0000
,
1000
1000
0100
0000
,
0010
0000
1001
0000
,
0001
0010
0100
0010
,
0001
0000
1001
0000
,
1000
0010
0100
0010
,
1000
0000
1001
0000
,
1000
0100
1000
0100
,
0010
0001
1000
0000
,
0001
0100
0001
0100
,
0010
1000
0001
0000
,
1000
0010
0100
0001
,
0100
0010
1000
0000
,
0001
0010
0100
1000
,
0100
0010
0001
0000
,
2000
0000
0000
3000
,
0200
0000
0000
0300
,
0020
0000
0000
0030
,
0001
1000
0001
0000
,
0002
0000
0000
0003
,
0200
0000
0000
0300
,
0020
0000
0000
0030
,
1000
0001
1000
0000
,
2002
0000
0000
3003
,
1000
0010
1000
0100
,
1000
0000
0001
0000
,
1000
1000
0010
0000
,
0100
0000
0100
0000
,
0001
0010
0001
0100
,
0001
0000
1000
0000
,
0001
0001
0010
0000
,
0100
0000
1001
0000
,
1000
0000
0100
0000
,
1000
0010
1000
0000
,
0001
0000
0100
0000
,
0001
0010
0001
0000
,
1000
0010
0100
0000
,
0001
0010
0100
0000
,
1000
0100
0010
0000
,
0001
0100
0010
0000
,
1000
0100
0010
0000
,
1001
0000
0000
0000
,
0000
0000
0000
0000
;
#NOTES:
     dance-single:
     :
     Medium:
     8:
     :
0000
0000
0000
0000
,
0000
0000
0000
0000
,
0000
0000
0000
0000
,
0000
0000
0000
0000
,
0000
0000
0000
0000
,
1000
0010
1000
0000
0001
0100
0001
0000
,
2000
0000
3002
0003
,
0001
0010
0001
0000
1000
0100
1000
0000
,
2002
0000
0000
3003
,
0001
0000
0100
0000
0010
1000
0010
0000
,
1000
0100
0001
0100
,
1000
0100
0010
0000
0001
0100
0010
0000
,
1010
0011
1001
0000
,
0001
0000
0010
0000
0100
1000
0100
0000
,
1000
0010
0001
0010
,
1000
0001
0100
0000
0001
1000
0100
0000
,
0010
0100
0010
0000
2002
0000
3003
0000
,
0001
1000
0010
0000
1000
0001
0010
0000
,
0001
1000
0010
0000
0100
0010
0100
0010
,
1000
0001
0100
0000
0001
1000
0100
0000
,
1000
0001
0100
0000
0010
0100
0010
0100
,
0010
0000
1000
0000
0001
1000
0001
0000
,
0010
0000
0100
0000
1000
0001
1000
0000
,
0001
0000
0100
0000
0010
1000
0100
0000
,
0010
0010
0220
0330
,
1000
0000
0001
0000
0010
0100
0010
0000
,
0001
0000
1000
0000
0010
0100
0010
0000
,
1000
0000
0001
0000
0100
0001
0010
0000
,
0100
0100
0220
0330
,
1000
0000
0000
0010
0000
0000
0000
0000
0100
0000
0000
0010
0000
0000
0000
0000
,
0100
0000
0000
0001
0000
0000
1000
0000
0001
0000
0000
0000
0000
0000
0000
0000
,
0001
0000
0100
0000
1000
0100
0001
0000
,
1000
0001
1001
0000
,
0001
0000
0000
0010
0000
0000
0000
0000
0100
0000
0000
0010
0000
0000
0000
0000
,
0100
0000
0000
1000
0000
0000
0001
0000
1000
0000
0000
0000
0000
0000
0000
0000
,
2000
0000
3010
0000
,
1000
0000
0000
0100
0000
0000
0010
0000
0001
0000
0000
0000
0000
0000
0000
0000
,
0001
0000
0000
0100
0000
0000
0010
0000
1000
0000
0000
0000
0000
0000
0000
0000
,
1000
0000
0100
0000
0010
0001
0010
0000
,
0001
0100
1000
0100
,
0001
0100
0010
0000
1000
0100
0010
0000
,
0011
1010
1001
0000
,
1000
0000
0010
0000
0100
0001
0100
0000
,
0001
0010
1000
0010
,
0001
1000
0100
0000
1000
0001
0100
0000
,
0010
0100
0010
0000
2002
0000
3003
0000
,
0001
1000
0001
1000
,
0010
0000
0100
0000
0010
0100
0010
0000
,
1000
0001
0010
0100
,
1000
0010
2002
3003
,
0001
0100
0010
0000
1000
0100
0010
0000
,
0001
0100
0010
0000
0110
0000
0000
0000
,
1000
0010
0100
0000
0001
0010
0100
0000
,
1000
0100
1000
0100
0020
0000
0030
0000
,
0001
0100
0001
0100
0020
0000
0030
0000
,
1001
0000
0000
0000
,
0000
0000
0000
0000
;
#NOTES:
     dance-single:
     :
     Hard:
     11:
     :
0000
0000
0000
0000
,
0000
0000
0000
0000
,
0000
0000
0000
0000
,
0000
0000
0000
0000
,
0000
0000
0000
0000
,
1000
0100
0001
0100
0010
0100
1000
0000
,
0002
0000
0200
0303
,
0001
0100
1000
0100
0010
0100
0001
0000
,
2002
0000
0000
3003
,
1000
0010
0100
0001
1000
0100
0001
0000
,
1000
0010
0100
0001
1000
0100
0001
0000
,
1000
0010
0100
0000
0001
0010
0100
0000
,
1000
0001
0100
0010
1000
0000
0000
0000
,
0001
0010
0100
1000
0001
0100
1000
0000
,
0001
1000
0100
0001
0100
1000
0001
0000
,
0100
0010
1000
0000
0100
0010
0001
0000
,
1000
0100
0010
0001
1000
0000
0110
0000
,
1000
0000
0100
0000
0010
0001
0000
0000
1000
0000
0010
0000
0100
0001
0000
0000
,
1000
0000
0100
0000
0010
0001
0000
0000
1000
0000
0001
0000
1000
0000
0000
0000
,
0001
0000
0010
0000
0100
1000
0000
0000
0001
0000
0100
0000
0010
1000
0000
0000
,
0001
0000
0010
0000
0100
1000
0000
0000
0001
0000
1000
0000
0001
0000
0000
0000
,
1000
0000
0010
0000
1000
0000
0010
0000
0100
0000
0000
0010
0000
0000
0100
0000
,
0001
0000
0010
0000
0001
0000
0010
0000
0100
0000
0000
0010
0000
0000
0000
0000
,
0001
0000
0100
0000
0001
0000
0100
0000
0010
0000
0000
0100
0000
0000
0010
0000
,
2000
0000
0000
0100
0000
0000
3100
0000
0220
0000
0000
0000
0330
0000
0000
0000
,
0001
0000
0010
0000
0001
0000
0010
0000
0100
0000
0000
0010
0000
0000
0100
0000
,
1000
0000
0010
0000
1000
0000
0010
0000
0100
0000
0000
0010
0000
0000
0000
0000
,
1000
0000
0100
0000
1000
0000
0100
0000
0010
0000
0000
0100
0000
0000
0010
0000
,
0002
0000
0000
0100
0000
0000
0103
0000
0220
0000
0000
0000
0330
0000
0000
0000
,
0001
0000
0000
0010
0000
0000
0010
0000
1000
0000
0000
0010
0000
0000
0010
0000
,
0001
0000
0000
0100
0000
0000
0100
0000
1000
0000
0000
0000
0000
0000
0000
0000
,
0001
0000
0000
0001
0000
0000
1000
0000
1000
0000
0000
0000
0100
0000
0000
0000
,
1100
0101
1001
0000
,
1000
0000
0000
0100
0000
0000
0100
0000
0001
0000
0000
0100
0000
0000
0100
0000
,
1000
0000
0000
0010
0000
0000
0010
0000
0001
0000
0000
0000
0000
0000
0000
0000
,
2000
0000
0000
0001
3001
0000
0000
0001
,
0100
0000
0000
0010
0000
0000
1000
0000
1010
0000
0000
0000
0000
0000
0000
0000
,
1000
0000
0000
0100
0000
0000
0010
0000
0011
0000
0000
0000
0000
0000
0000
0000
,
1000
0001
0010
0100
1000
0010
0100
0000
,
0001
1000
0100
0010
0001
1000
0100
0000
,
0010
0001
0100
0000
0010
1000
0100
0000
,
0010
0001
1000
0100
0001
0000
0000
0000
,
1000
0010
0100
0001
1000
0100
0010
0000
,
0001
0100
0010
1000
0001
0010
0100
0000
,
1000
0001
0100
0000
1000
0100
0001
0000
,
1000
0010
0001
0010
1000
0000
0101
0000
,
0001
0100
0001
0100
0001
0010
0100
0010
,
0001
0000
1000
0000
0010
0000
0100
0000
1000
0000
0100
0001
0000
0000
0000
0000
,
1000
0100
1000
0100
1000
0010
0100
0010
,
1000
0000
0001
0010
0000
0000
0100
0000
2002
0000
0000
0000
3003
0000
0000
0000
,
0001
0000
1000
0000
0100
0010
0000
0100
0010
0000
0001
0000
1000
0000
0001
0000
,
0100
0010
1000
0100
0010
0000
0110
0000
,
1000
0000
0001
0000
0010
0100
0000
0010
0100
0000
1000
0000
0001
0000
1000
0000
,
0001
0000
0100
0000
0010
0000
1000
0000
0001
0100
0000
0010
0000
0000
1000
0000
,
0001
0000
0010
0000
0100
0000
1000
0000
0001
0010
0000
0100
0000
0000
1000
0000
,
1001
0000
0000
0000
;
#NOTES:
     dance-double:
     :
     Easy:
     5:
     :
00000000
00000000
00000000
00000000
,
00000000
00000000
00000000
00000000
,
00000000
00000000
00000000
00000000
,
00000000
00000000
00000000
00000000
,
00000000
00000000
00000000
00000000
,
10000000
00000000
00100000
00000000
,
10000000
01000000
00100000
00000000
,
00001000
00000000
00010000
00000000
,
00002000
00000000
00000000
00003000
,
00001000
00010000
00000100
00000000
,
00001000
00000010
00001000
00000000
,
00000100
00000000
00000010
00000000
,
00000110
00000000
00000000
00000000
,
00000001
00001000
00000100
00000000
,
00001000
00000010
00010000
00000000
,
00001000
00000000
00010000
00000000
,
00011000
00000000
00000000
00000000
,
00001000
00100000
00010000
00100000
,
00001000
00000000
00000000
00000000
,
01000000
00010000
00100000
00010000
,
01000000
00000000
00000000
00000000
,
00010000
10000000
01000000
00100000
,
01000000
00100000
01000000
00000000
,
10000000
00010000
01000000
00010000
,
00100000
00001000
00010000
00000000
,
00001000
00010000
00000010
00010000
,
00000100
00001000
00000010
00000000
,
00001000
00000100
00000010
00000001
,
00000100
00000010
00001000
00000000
,
00000200
00000000
00000000
00000300
,
00020000
00000000
00000000
00030000
,
00001000
00000000
00001000
00000000
,
00010000
00000000
00000000
00000000
,
00002000
00000000
00000000
00003000
,
02000000
00000000
00000000
03000000
,
00010000
00000000
00010000
00000000
,
00100000
00000000
00000000
00000000
,
10010000
00000000
00000000
00000000
,
10000000
00100000
01000000
00100000
,
00010000
00000000
00001000
00000000
,
00010000
00001000
00010000
00000000
,
00000010
00001000
00000010
00000000
,
00001000
00000100
00000001
00000100
,
00000010
00000000
00000001
00000000
,
00000100
00000010
00000100
00000000
,
00001001
00000000
00000000
00000000
,
00000001
00000000
00000100
00000000
,
00001000
00010000
00001000
00000000
,
00010000
00000000
00100000
00000000
,
10000000
00000000
00000000
00000000
,
10000000
00000000
01000000
00000000
,
00010000
00001000
00010000
00000000
,
00001000
00000000
00000010
00000000
,
00000002
00000000
00000000
00000003
,
00002000
00000000
00000000
00003000
,
00001001
00000000
00000000
00000000
,
00000000
00000000
00000000
00000000
;
#NOTES:
     dance-double:
     :
     Medium:
     8:
     :
00000000
00000000
00000000
00000000
,
00000000
00000000
00000000
00000000
,
00000000
00000000
00000000
00000000
,
00000000
00000000
00000000
00000000
,
00000000
00000000
00000000
00000000
,
00001000
00010000
00001000
00000000
00100000
00001000
00100000
00000000
,
00002000
00003000
00020000
00030000
,
00010000
00001000
00010000
00000000
00000010
00010000
00000010
00000000
,
00020000
00030000
00002000
00003000
,
00010000
00000000
00001000
00000000
01000000
00010000
01000000
00000000
,
00010000
00100000
01000000
00000000
,
10000000
01000000
00100000
00000000
01000000
00100000
00001000
00000000
,
00010000
00001000
00011000
00000000
,
00001000
00000000
00010000
00000000
00000100
00001000
00000100
00000000
,
00001000
00000010
00000100
00000000
,
00000001
00000100
00000010
00000000
00000100
00000010
00010000
00000000
,
00001000
00010000
00011000
00000000
,
00001000
01000000
00010000
00000000
00100000
00001000
00010000
00000000
,
00001000
01000000
00010000
00000000
01000000
00000000
01100000
00000000
,
10000000
00100000
01000000
00000000
00001000
00100000
00010000
00000000
,
10000000
00100000
01000000
00000000
00001000
00000000
00011000
00000000
,
00010000
00000000
00000100
00000000
00001000
00000010
00001000
00000000
,
00000100
00000000
00000010
00000000
00000001
00001000
00000001
00000000
,
00000100
00000000
00001000
00000000
00010000
00001000
00010000
00000000
,
00001000
00010000
00200000
00300000
,
10000000
00000000
00100000
00000000
01000000
00010000
01000000
00000000
,
00010000
00000000
00100000
00000000
00001000
00010000
00001000
00000000
,
00010000
00000000
00000100
00000000
00001000
00000010
00001000
00000000
,
00000100
00000010
00000002
00000003
,
00000001
00000000
00000000
00000100
00000000
00000000
00000000
00000000
00000100
00000000
00000000
00000010
00000000
00000000
00000000
00000000
,
00000010
00000000
00000000
00001000
00000000
00000000
00000010
00000000
00010000
00000000
00000000
00000000
00000000
00000000
00000000
00000000
,
00010000
00000000
00000000
00001000
00000000
00000000
01000000
00000000
00010000
00000000
00000000
00000000
00100000
00000000
00000000
00000000
,
01000000
01000000
01100000
00000000
,
10000000
00000000
00000000
01000000
00000000
00000000
00000000
00000000
01000000
00000000
00000000
00100000
00000000
00000000
00000000
00000000
,
00100000
00000000
00000000
00010000
00000000
00000000
00100000
00000000
00001000
00000000
00000000
00000000
00000000
00000000
00000000
00000000
,
00020000
00000000
00031000
00000000
,
00001000
00000000
00000000
00000010
00000000
00000000
00000001
00000000
00001000
00000000
00000000
00000000
00000000
00000000
00000000
00000000
,
00000001
00000000
00000000
00000100
00000000
00000000
00000010
00000000
00001000
00000000
00000000
00000000
00000000
00000000
00000000
00000000
,
00000001
00000000
00001000
00000000
00000100
00000010
00000100
00000000
,
00010000
00001000
01000000
00100000
,
10000000
00100000
10000000
00000000
00010000
01000000
00010000
00000000
,
10000000
01000000
00100000
00000000
,
00010000
00000000
10000000
00000000
00010000
00100000
00010000
00000000
,
00100000
00001000
00010000
00000010
,
00001000
00000100
00000010
00000000
00000001
00000100
00000010
00000000
,
00001000
00000001
00001001
00000000
,
00000001
00000100
00001000
00010000
,
00100000
00000000
00000000
00000000
10000000
00000000
00000000
00000000
00100000
00000000
00000000
01000000
00000000
00000000
00000000
00000000
,
00100000
10000000
00010000
00100000
,
01000000
00000000
00000000
10000000
00000000
00000000
00000000
00000000
10010000
00000000
00000000
00000000
00000000
00000000
00000000
00000000
,
10000000
00100000
01000000
00000000
00010000
00000000
00100000
00000000
,
01000000
00010000
00001000
00000000
00000010
00000000
00000000
00000000
,
00000001
00000010
00000100
00000000
00001000
00000000
00000010
00000000
,
00000100
00000010
00001000
00000000
00000100
00010000
00000100
00000000
,
00010000
00001000
00100000
00000000
00010000
01000000
00100000
00000000
,
01100000
00000000
00000000
00000000
,
00000000
00000000
00000000
00000000
;
#NOTES:
     dance-double:
     :
     Hard:
     11:
     :
00000000
00000000
00000000
00000000
,
00000000
00000000
00000000
00000000
,
00000000
00000000
00000000
00000000
,
00000000
00000000
00000000
00000000
,
00000000
00000000
00000000
00000000
,
10000000
01000000
00100000
00010000
01000000
00100000
00010000
00001000
,
00000200
00000000
00000002
00000303
,
00000001
00000010
00000100
00001000
00000010
00000100
00001000
00010000
,
00002000
00000000
00000000
00003000
,
00010000
00001000
00100000
00001000
00010000
00000100
00000001
00000000
,
00000100
00001000
00000010
00000100
00000001
00001000
00000100
00000000
,
00010000
00001000
00100000
00010000
10000000
01000000
00010000
01000000
,
00100000
00010000
01000000
00001000
00010000
00000000
00000000
00000000
,
00000100
00000001
00000100
00001000
00000010
00000100
00000001
00000000
,
00001000
00000100
00000010
00000001
00000100
00001000
00010000
00000000
,
00100000
10000000
01000000
00100000
00010000
01000000
00100000
10000000
,
01000000
00010000
00001000
00000100
00000001
00000000
00000000
00000000
,
00000001
00000000
00000100
00000000
00000010
00001000
00000000
00000000
00000001
00000000
00000010
00000000
00000100
00001000
00000000
00000000
,
00000010
00000000
00010000
00000000
00001000
00010000
00000000
00000000
00001000
00000000
00001000
00000000
00010000
00000000
00000000
00000000
,
00001000
00000000
00100000
00000000
00010000
01000000
00000000
00000000
00010000
00000000
00100000
00000000
01000000
10000000
00000000
00000000
,
00100000
00000000
01000000
00000000
00010000
10000000
00000000
00000000
00010000
00000000
00010000
00000000
10000000
00000000
00000000
00000000
,
10000000
01000000
10000000
01000000
00100000
00010000
00100000
00000000
,
00001000
00010000
00001000
00010000
00000010
00001000
00000010
00000000
,
00001000
00000100
00000010
00000001
00000100
00001000
00000100
00000001
,
00000010
00000000
00000000
00000100
00000000
00000000
00010000
00000000
00002000
00000000
00000000
00000000
00003000
00000000
00000000
00000000
,
00001000
00010000
00001000
01000000
00010000
01000000
00010000
00000000
,
00100000
00010000
00100000
01000000
10000000
00100000
01000000
00000000
,
00100000
10000000
01000000
00100000
00001000
00010000
00001000
00000000
,
00000010
00000000
00000000
00000001
00000000
00000000
00001000
00000000
00000200
00000000
00000000
00000000
00000300
00000000
00000000
00000000
,
00000010
00000000
00000000
00000001
00000000
00000000
00000010
00000000
00001000
00000000
00000000
00010000
00000000
00000000
00001000
00000000
,
00010000
00000000
00000000
00100000
00000000
00000000
10000000
00000000
00100000
00000000
00000000
00000000
00000000
00000000
00000000
00000000
,
10000000
00000000
00000000
01000000
00000000
00000000
00100000
00000000
00001000
00000000
00000000
00000000
00010000
00000000
00000000
00000000
,
00000100
00001000
00000001
00000000
00000100
00000010
00001000
00000000
,
00000001
00000000
00000000
00000100
00000000
00000000
00010000
00000000
00000100
00000000
00000000
00000010
00000000
00000000
00010000
00000000
,
00001000
00000000
00000000
00100000
00000000
00000000
01000000
00000000
00010000
00000000
00000000
00000000
00010000
00000000
01000000
00000000
,
20000000
00000000
00000000
00000000
30100000
00000000
00000000
00100000
,
10000000
00000000
00000000
01000000
00000000
00000000
00010000
00000000
00001000
00000000
00000000
00000000
00000000
00000000
00000000
00000000
,
00010000
00000000
00000000
00001000
00000000
00000000
00000010
00000000
00000001
00000000
00000000
00000000
00000000
00000000
00000000
00000000
,
00001000
00000100
00000001
00000100
00001000
00000010
00000100
00000000
,
00001000
00010000
01000000
00010000
00001000
00000100
00000001
00000000
,
00001000
00000010
00000100
00000001
00001000
00000100
00010000
00001000
,
00100000
00010000
10000000
00100000
01000000
00000000
00000000
00000000
,
00010000
10000000
01000000
00100000
00010000
01000000
00100000
00000000
,
10000000
01000000
00010000
00001000
00000100
00001000
00010000
00000000
,
00000010
00001000
00000100
00000010
00000001
00001000
00000010
00000100
,
00001000
00010000
01000000
10000000
00100000
00000000
00000000
00000000
,
10000000
01000000
00100000
00010000
01000000
00100000
00010000
00001000
,
00000010
00000001
00001000
00000100
00000010
00000000
00000000
00000000
,
00000001
00000100
00000010
00001000
00000100
00000010
00001000
00010000
,
01000000
10000000
00010000
00100000
01000000
00000000
00000000
00000000
,
10000000
00100000
01000000
00010000
00100000
01000000
00010000
00001000
,
00000010
00000001
00001000
00000100
00000010
00000001
00001000
00000010
,
00000100
00010000
00000100
00000010
00010000
00001000
00100000
00010000
,
01000000
00100000
10000000
01000000
00100000
00001000
00010000
00000100
,
00000010
00000001
00000100
00001000
00010000
00100000
01000000
00100000
,
10000000
00000000
00000000
00000000
,
00000000
00000000
00000000
00000000
;
