
//----- song ID: hooy -----//
#TITLE:星が泳ぐ;
#TITLETRANSLIT:HOSHI GA OYOGU;
#BANNER:HOSHI GA OYOGU.png;
#BACKGROUND:HOSHI GA OYOGU-bg.png;
#CDTITLE:./CDTitles/DDR GRAND PRIX.png;
#MUSIC:HOSHI GA OYOGU.ogg;
#SAMPLESTART:61.896;
#SAMPLELENGTH:15;
#BPMS:0=95;
#STAGE:1;
#NOTES:
     dance-single:
     :
     Beginner:
     1:
     :
0000
0000
0000
0000
,
0000
0000
0000
0000
,
0000
0000
0000
0000
,
1000
0000
0000
0000
,
0100
0000
0000
0000
,
0100
0000
0000
0000
,
0000
0000
0000
0000
,
0010
0000
0000
0000
,
0010
0000
0000
0000
,
0001
0000
0000
0000
,
0001
0000
0000
0000
,
0000
0000
0000
0000
,
0010
0000
0000
0000
,
0000
0000
0000
0000
,
0100
0000
0000
0000
,
0000
0000
0000
0000
,
1000
0000
0000
0000
,
0000
0000
0000
0000
,
1000
0000
0000
0000
,
0010
0000
0000
0000
,
0010
0000
0000
0000
,
0010
0000
0000
0000
,
0000
0000
0000
0000
,
0100
0000
0000
0000
,
0000
0000
0000
0000
,
0010
0000
0000
0000
,
0001
0000
0000
0000
,
0001
0000
0000
0000
,
0000
0000
0000
0000
,
0001
0000
0000
0000
,
0100
0000
0000
0000
,
0100
0000
0000
0000
,
0100
0000
0000
0000
,
0000
0000
0000
0000
,
0010
0000
0000
0000
,
1000
0000
0000
0000
,
0000
0000
0000
0000
;
#NOTES:
     dance-single:
     :
     Easy:
     3:
     :
0000
0000
0000
0000
,
0000
0000
0000
0000
,
0000
0000
0000
0000
,
0001
0000
0001
0000
,
0010
0000
0010
0000
,
0100
0000
0100
0000
,
1000
0000
1000
0000
,
0001
0100
0001
0000
,
0100
0000
0010
0000
,
1000
0010
1000
0000
,
1001
0000
0000
0000
,
0000
0000
0000
0000
,
1000
1000
0100
0000
,
0010
0000
0000
0000
,
0001
0100
0001
1000
,
0010
0000
0000
0000
,
1000
0100
1000
0001
,
0010
0000
0000
0000
,
0001
0100
0010
0000
,
1000
0100
0010
0000
,
0001
0010
0100
0000
,
1001
0000
0000
0000
,
0010
0010
0010
0000
,
1001
0000
0000
0000
,
0100
0100
0100
0000
,
2000
0000
0000
3000
,
0100
0010
0100
0000
,
0002
0000
0000
0003
,
0100
0010
0100
0000
,
0020
0000
0000
0030
,
1000
0001
1000
0000
,
0200
0000
0300
0000
,
0100
0000
1000
0000
,
0010
0000
0000
0000
,
0100
0000
0001
0000
,
0010
0000
0000
0000
,
0000
0000
0000
0000
;
#NOTES:
     dance-single:
     :
     Medium:
     7:
     :
0000
0000
0000
0000
,
0000
0000
0000
0000
,
0000
0000
0000
0000
,
0001
0010
0001
0010
0001
0100
0001
0000
,
1000
0010
1000
0010
1000
0100
1000
0000
,
0001
0100
0001
0100
0010
1000
0010
0000
,
1000
0100
1000
0100
0010
0000
1001
0000
,
0001
0100
0010
1000
0100
0010
0001
0000
,
1000
0100
0010
0001
0100
0010
1000
0000
,
0001
0100
0010
1000
0100
1000
0010
0000
,
1010
0000
0000
0000
0000
0000
0000
1100
0000
0000
0000
0000
0000
0000
0000
0000
,
0011
0000
0000
0000
0000
0000
0000
0001
0000
0100
0000
0000
0000
0000
0000
0000
,
0110
0000
0000
0000
0000
0000
0000
1001
0000
0000
0000
0000
0000
0000
0000
0000
,
1000
0100
0000
0100
,
1000
0000
0010
0000
0100
0001
0100
0000
,
0001
0000
1000
0000
0001
0010
0001
0000
,
1000
0000
0010
0000
0100
0001
0100
0000
,
0010
0000
0000
1000
0000
0000
0001
0000
0000
0000
0000
0000
0000
0000
0000
0000
,
0001
0000
0010
0000
0100
1000
0100
0000
,
0010
0000
0000
0001
0000
0000
1000
0000
0000
0000
0000
0000
0000
0000
0000
0000
,
0001
0000
0000
0100
0000
0000
0010
0000
0000
0000
0000
0000
0000
0000
0000
0000
,
1010
0000
0011
0000
,
1000
0100
0010
0000
,
0101
0000
1100
0000
,
0001
0100
0010
0000
,
1000
0100
1000
0100
0010
0000
0000
0000
,
0001
0100
0001
0100
0010
0000
0000
0000
,
1000
0000
0100
0000
0001
0100
1000
0000
,
0001
0000
0100
0000
1000
0100
0001
0000
,
1000
0010
0100
0001
0010
0000
0000
0000
,
0001
0100
0010
1000
0100
0000
0000
0000
,
1000
0010
0001
0010
1000
0000
0000
0000
,
0001
0000
0000
0000
0100
0000
0000
0110
0000
0000
0000
0000
0000
0000
0000
0000
,
1000
0000
0000
0000
0100
0000
0000
0010
0000
0100
0000
0000
0000
0000
0000
0000
,
0000
0000
0000
0000
0110
0000
0000
1001
0000
0000
0000
0000
0000
0000
0000
0000
,
0001
0010
0100
1000
0000
0000
0000
0000
,
0000
0000
0000
0000
;
#NOTES:
     dance-single:
     :
     Hard:
     10:
     :
0000
0000
0000
0000
,
0000
0000
0000
0000
,
0000
0000
0000
0000
,
0001
0000
0100
0001
0000
0010
0000
0100
0000
0000
1000
0001
1000
0000
0000
0000
,
1000
0000
0100
1000
0000
0010
0000
0200
0000
0000
0000
0000
0300
0000
0000
0000
,
1000
0000
0100
0010
0000
0001
0000
1000
0000
0000
0010
0100
0010
0000
0000
0000
,
0001
0000
0010
0100
0000
1000
0000
0001
0010
0000
0000
0000
0110
0000
0000
0000
,
1000
0000
0001
0100
0000
0001
0000
0010
0000
0000
0100
1000
0100
0000
0000
0000
,
0100
0000
0010
0001
0000
1000
0000
0020
0000
0000
0000
0000
0030
0000
0000
0000
,
0010
0000
0100
0001
0000
0010
0000
0001
2000
0000
0000
0000
3000
0000
0000
0000
,
1001
0000
0000
0000
0100
0000
0000
0110
0000
0000
0000
0000
0001
0000
0000
0000
,
0011
0000
0000
0000
1000
0000
0000
1100
0000
1100
0000
0000
0010
0000
0000
0000
,
1010
0000
0000
0000
0100
0000
0000
0101
0000
0000
0000
0000
0010
0000
0000
0000
,
0110
0000
0000
0000
1000
0000
0000
0000
0000
0000
0000
0000
0001
0000
0001
0100
,
0001
0100
0010
1000
0100
0001
0100
1000
,
0010
0100
0010
1000
0100
0010
0100
1000
,
0001
0010
0100
0010
0001
0100
0010
0100
,
0001
0000
0000
1000
0000
0000
1010
0000
0000
0000
0100
0000
0010
0000
0000
0000
,
0000
0000
1000
0000
0001
0100
0000
0010
0000
0110
0000
1000
0001
0000
0001
0000
,
1000
0000
0100
0001
0000
0100
1000
0000
0000
0000
0000
0000
0000
0000
0001
0000
,
1000
0100
0000
0001
0000
0100
1000
0000
0000
0000
0000
0000
0000
0000
0000
0000
,
0000
0000
0001
0100
0010
0000
0000
0000
1000
0100
0010
0000
0000
0000
0001
1000
,
0001
0000
0001
0100
0000
0100
0000
0100
0010
0100
0020
0000
0000
0000
0030
0000
,
0000
0000
1000
0100
0010
0000
0000
0000
0001
0100
0010
0000
0000
0000
1000
0001
,
2000
0000
0000
0000
3000
0000
0000
0000
1000
0000
0100
0000
0010
0000
0001
1000
,
0001
0100
1000
0100
0001
0010
0100
1000
,
0010
0100
0001
0100
0010
1000
0100
0010
,
0001
0000
0010
0000
1000
0000
0010
0001
0010
0000
0001
0000
0100
0000
1000
0000
,
0200
1000
0010
0301
,
1000
0100
0001
0100
1000
0010
0100
0001
,
0010
0000
0100
0000
1000
0000
0100
0010
0000
0000
0001
0000
0100
0000
0010
0000
,
1000
0010
0001
0010
1000
0000
0000
0000
,
0001
0000
0100
0000
0001
0000
0011
0000
0000
0000
1001
0000
0000
0000
1000
0100
,
0010
0001
1000
0002
0000
0103
0010
0010
,
0000
0000
0000
0000
1010
0000
0000
1100
0000
0000
0000
1001
0000
0000
0000
0000
,
1000
0100
0010
0000
0001
0000
1000
0000
0000
0000
0000
0000
0000
0000
0000
0000
,
0000
0000
0000
0000
;
#NOTES:
     dance-double:
     :
     Easy:
     3:
     :
00000000
00000000
00000000
00000000
,
00000000
00000000
00000000
00000000
,
00000000
00000000
00000000
00000000
,
10000000
00000000
01000000
00000000
,
00100000
00000000
00100000
00000000
,
00001000
00000000
00010000
00000000
,
00001000
00000000
00001000
00000000
,
00010000
00000000
00000010
00000000
,
00001000
00000000
00001000
00000000
,
00000001
00000000
00000100
00000000
,
00000110
00000000
00000000
00000000
,
00000000
00000000
00000000
00000000
,
00000001
00000000
00000100
00000000
,
00001000
00010000
00001000
00000000
,
00011000
00000000
00000000
00000000
,
00000000
00000000
00000000
00000000
,
00001000
00000000
00010000
00000000
,
00100000
00000000
00000000
00000000
,
10000000
00000000
01000000
00000000
,
00100000
00000000
00000000
00000000
,
00001000
00000000
00010000
00000000
,
00011000
00000000
00000000
00000000
,
00001000
00010000
00000100
00001000
,
00000010
00000000
00000000
00000000
,
00000200
00000000
00000300
00000000
,
00000001
00000100
00000010
00000000
,
00001000
00000100
00010000
00000000
,
00002000
00000000
00000000
00003000
,
00020000
00000000
00000000
00030000
,
00001000
01000000
00010000
00000000
,
00100000
00010000
01000000
00000000
,
00200000
00000000
00000000
00300000
,
10000000
00000000
01000000
00000000
,
00010000
00000000
00000000
00000000
,
00001000
00000000
00000010
00000000
,
00000001
00000000
00000000
00000000
,
00000000
00000000
00000000
00000000
;
#NOTES:
     dance-double:
     :
     Medium:
     7:
     :
00000000
00000000
00000000
00000000
,
00000000
00000000
00000000
00000000
,
00000000
00000000
00000000
00000000
,
10000000
01000000
10000000
01000000
00100000
00010000
00100000
00000000
,
00010000
01000000
00001000
01000000
00001000
00010000
00001000
00000000
,
00010000
00000100
00010000
00000100
00001000
00000100
00001000
00000000
,
00000001
00000010
00000100
00001000
00000001
00000000
00001001
00000000
,
00000001
00000100
00000001
00000100
00000010
00001000
00000010
00000000
,
00001000
00000100
00010000
00000100
00010000
00001000
00010000
00000000
,
00001000
01000000
00001000
01000000
00010000
01000000
00100000
00000000
,
10100000
00000000
00000000
00000000
00000000
00000000
00000000
11000000
00000000
00000000
00000000
00000000
00000000
00000000
00000000
00000000
,
01100000
00000000
00000000
00000000
00000000
00000000
00000000
00001000
00000000
00010000
00000000
00000000
00000000
00000000
00000000
00000000
,
00011000
00000000
00000000
00000000
00000000
00000000
00000000
00000110
00000000
00000000
00000000
00000000
00000000
00000000
00000000
00000000
,
00001000
00000001
00000000
00000001
,
00000100
00000010
00000100
00000000
00000001
00001000
00000001
00000000
,
00000100
00001000
00010000
00000000
,
00001000
00010000
00001000
00000000
01000000
00100000
01000000
00000000
,
00100000
00000000
00000000
10000000
00000000
00000000
00010000
00000000
00000000
00000000
00000000
00000000
00000000
00000000
00000000
00000000
,
10000000
01000000
00100000
00001000
,
00010000
00000000
00000000
00001000
00000000
00000000
00011000
00000000
00000000
00000000
00000000
00000000
00000000
00000000
00000000
00000000
,
00000100
00000000
00000000
00000010
00000000
00000000
00000110
00000000
00000000
00000000
00000000
00000000
00000000
00000000
00000000
00000000
,
00000001
00000100
00000010
00000000
00001000
00000100
00000010
00000000
,
00000011
00000110
00001100
00000000
,
00000100
00010000
00001000
00000000
00010000
00001000
01000000
00000000
,
00200000
00000000
00300000
00000000
,
10000000
00000000
00100000
01000000
00010000
00000000
00000000
00000000
,
00100000
00000000
00001000
00010000
00001000
00000000
00000000
00000000
,
00010000
00000100
00000010
00000000
00000001
00001000
00000001
00000000
,
00002002
00000000
00003003
00000000
,
00000001
00000000
00000010
00000100
00001000
00000000
00000000
00000000
,
00000010
00000000
00010000
00001000
00010000
00000000
00000000
00000000
,
00001000
01000000
00100000
10000000
00010000
00000000
00000000
00000000
,
10000000
00000000
00000000
00000000
01000000
00000000
00000000
01100000
00000000
00000000
00000000
00000000
00000000
00000000
00000000
00000000
,
00100000
00000000
00000000
00000000
00001000
00000000
00000000
00010000
00000000
00001000
00000000
00000000
00000000
00000000
00000000
00000000
,
00010000
00000000
00000000
00000000
00000100
00000000
00000000
00000110
00000000
00000000
00000000
00000000
00000000
00000000
00000000
00000000
,
00000001
00000010
00000100
00001000
00000000
00000000
00000000
00000000
,
00000000
00000000
00000000
00000000
;
#NOTES:
     dance-double:
     :
     Hard:
     11:
     :
00000000
00000000
00000000
00000000
,
00000000
00000000
00000000
00000000
,
00000000
00000000
00000000
00000000
,
00001000
00010000
00100000
10000000
00010000
00100000
01000000
00010000
,
00000100
00000010
00000001
00001000
00000010
00000001
00001000
00000001
,
00000010
00010000
00000100
00000010
00000001
00000010
00001000
00100000
,
01000000
10000000
00010000
01000000
01100000
00000000
10010000
00000000
,
00010000
01000000
10000000
00010000
00100000
10000000
00010000
00100000
,
00010000
00001000
00000100
00000001
00001000
00000010
00000001
00000100
,
00000010
00000100
00001000
01000000
00200000
00000000
00300000
00000000
,
00000000
00000000
00100000
00000000
10000000
00000000
01000000
10000000
00000000
00000000
00000000
10000000
01000000
00000000
01000000
00000000
,
00100000
00000000
00001000
00000000
00001000
00000000
00010000
00001000
00000000
00000000
00000000
00000000
00000000
00000000
00000000
00000000
,
00000000
00000000
00010000
00000000
00000100
00000010
00000000
00000001
00000000
00000001
00000000
00001000
00000010
00000000
00000100
00000000
,
00000001
00000000
00000100
00001000
00000000
00010000
00100000
00000000
00000000
00000000
00000000
00000000
10000000
00010000
00000000
00000000
,
00000000
00000000
10000000
00000000
01000000
00010000
00000000
01000000
00000000
00000000
00000000
10000000
00100000
00000000
00100000
00000000
,
00010000
00000000
00001000
00000000
00000100
00000000
00000001
00000010
00000000
00000110
00000000
00000000
00000000
00000000
00000000
00000000
,
00000000
00000000
00000001
00000010
00000001
00000000
00000100
00000010
00000000
00001000
00000000
00010000
01000000
00000000
00100000
10000000
,
00000000
00000000
00010000
00000000
00100000
01000000
10000000
00000000
00000000
00000000
00000000
00000000
00000000
00000000
00000000
00000000
,
00000000
00000000
10000000
00000000
01000000
00100000
00000000
00010000
00000000
00001000
00000000
00000100
00000010
00000000
00000001
00000000
,
00000100
00000000
00001000
00000100
00000000
00000001
00001000
00000000
00000000
00000000
00000000
00000000
00000000
00000000
00000001
00000000
,
00000100
00001000
00000000
00010000
00000000
00010000
00001000
00000000
00000000
00000000
00000000
00000000
00000000
00000000
00000000
00000000
,
00001000
00100000
01000000
00010000
00001000
01000000
00100000
00010000
,
00001000
00000100
00001000
00010000
00001000
00000010
00000100
00010000
,
01000000
00100000
00001000
00010000
00100000
00010000
00001000
00000010
,
00000200
00000001
00000010
00001300
,
00000001
00000010
00000100
00001000
00000010
00000100
00001000
00010000
,
00100000
01000000
10000000
01000000
00001000
01000000
10000000
01000000
,
00010000
00100000
01000000
00001000
00010000
00000010
00001000
00000001
,
00000200
00000010
00001300
00001001
,
00000001
00000100
00000010
00001000
00000100
00000010
00001000
00010000
,
01000000
00100000
10000000
00100000
00001000
00100000
10000000
00100000
,
00010000
01000000
00100000
00010000
00002000
00000000
00003000
00000000
,
00010000
00000000
00001000
00000000
00000010
00000000
00000001
00000000
00000000
00000000
00001001
00000000
00000000
00000000
00000001
00000100
,
00000010
00000000
00000100
00000000
00001000
00000000
00020000
00001000
00000000
00031000
00000000
00000000
00011000
00000000
00000000
00000000
,
00001000
00000000
00010000
00000000
00100000
10000000
00000000
00010000
00000000
00000000
00000000
00010000
10000000
00000000
00000000
00000000
,
10000000
01000000
00010000
00000000
00001000
00000000
00011000
00000000
00000000
00000000
00000000
00000000
00000000
00000000
00000000
00000000
,
00000000
00000000
00000000
00000000
;
